osu file format v9

[General]
AudioFilename: Opening.mp3
AudioLeadIn: 993
PreviewTime: 46166
Countdown: 0
SampleSet: Normal
StackLeniency: 0.7
Mode: 0
LetterboxInBreaks: 1

[Editor]
DistanceSpacing: 1.2
BeatDivisor: 4
GridSize: 8

[Metadata]
Title:Lunatic Delusion
Artist:nao
Creator:PSPDS Eddie
Version:Hard
Source:GOTHIC DELUSION
Tags:

[Difficulty]
HPDrainRate:5
CircleSize:4
OverallDifficulty:6
ApproachRate:7
SliderMultiplier:1.4
SliderTickRate:1

[Events]
//Background and Video events
Video,0,"2.avi"
0,0,"BGHard.jpg"
//Break Periods
//Storyboard Layer 0 (Background)
//Storyboard Layer 1 (Fail)
//Storyboard Layer 2 (Pass)
//Storyboard Layer 3 (Foreground)
//Storyboard Sound Samples
//Background Colour Transformations
3,100,163,162,255

[TimingPoints]
980,352.941176470588,4,1,0,70,1,0
22509,-100,4,1,0,50,0,0
22862,-100,4,1,0,30,0,0
23215,-100,4,1,0,10,0,0
23568,-100,4,1,0,60,0,0
46156,-200,4,1,0,70,0,0
46509,-100,4,1,0,70,0,1
46597,-100,4,1,0,70,0,0
68744,-100,4,1,0,70,0,1
68832,-100,4,1,0,70,0,0
74391,-100,4,1,0,70,0,1
74479,-100,4,1,0,70,0,0
80038,-100,4,1,0,70,0,1
80127,-100,4,1,0,70,0,0
101215,-100,4,2,0,0,0,0

[HitObjects]
160,280,979,2,0,B|256:344|368:280,1,210
256,104,2038,1,0
120,96,2391,2,0,B|142:209|267:243,1,210
256,32,3450,1,0
120,96,3803,6,0,B|232:160|336:88,1,210
256,296,4862,1,0
320,176,5215,2,0,B|280:64|152:64,1,210
56,64,6009,2,0,B|16:64,3,35
109,173,6627,2,0,B|120:288|232:352,2,210
192,64,8038,6,0,B|288:72|336:128,1,140
384,88,8568,2,0,B|456:136|448:224,1,140
448,272,9097,2,0,B|496:296,2,35
400,320,9450,6,0,B|296:360|192:280,2,210
384,256,10685,1,0
400,192,10862,2,0,B|416:136|384:88,2,105
384,256,11568,2,0,B|344:256,4,35,0|0|0|0|4
304,144,12274,6,0,B|272:64|184:72,1,140,4|0
136,104,12803,2,0,B|176:184|104:240,1,140
136,296,13332,5,0
200,328,13509,1,0
264,296,13685,2,0,B|240:240|264:192,2,105
328,264,14391,2,0,B|424:264,1,70
392,336,14744,2,0,B|312:336,1,70
264,296,15097,6,0,B|192:264|120:304,1,140,0|0
64,320,15627,2,0,B|13:258|32:168,1,140
28,188,16156,1,0
152,120,16509,6,0,B|152:40,2,70
224,120,17038,1,0
296,120,17215,1,0
296,120,17568,1,0
256,256,17921,6,0,B|176:304|104:240,1,140
120,184,18450,2,0,B|208:144|280:200,1,140
254,183,18979,1,0
400,184,19332,6,0,B|400:104,2,70
328,184,19862,1,0
328,256,20038,1,0
328,112,20391,1,0
192,72,20744,6,0,B|104:72|72:176,1,140
56,216,21274,2,0,B|96:288|184:304,1,140
232,312,21803,1,0
256,176,22156,2,0,B|328:176,1,70
328,104,22509,2,0,B|328:72|296:24,1,70
256,96,22862,2,0,B|240:96,16,17.5,0|0|0|0|0|0|0|0|0|0|0|0|0|0|0|0|4
152,192,23921,6,0,B|152:280|264:304,1,140
368,296,24627,1,0
368,296,24803,2,0,B|448:272|464:192,1,140
360,112,25509,6,0,B|272:128|224:56,1,140
160,72,26038,1,0
128,136,26215,1,0
200,144,26391,2,0,B|256:200|344:192,1,140
328,336,27097,2,0,B|256:368|176:328,1,140
192,264,27627,2,0,B|256:216|344:272,2,140
256,136,28685,6,0,B|256:96,6,35,0|0|0|0|0|0|4
256,280,29568,6,0,B|328:304|400:272,2,140
248,136,30627,2,0,B|168:160|104:104,1,140
168,64,31156,2,0,B|288:8|392:80,1,210
440,192,32038,6,0,B|448:280|360:320,1,140
320,344,32568,2,0,B|272:288|184:288,1,140
128,272,33097,1,0
128,200,33274,1,0
72,152,33450,2,0,B|96:72|192:48,1,140
232,32,33980,2,0,B|288:104|368:112,1,140
384,168,34509,1,0
344,224,34685,1,0
272,232,34862,1,4
256,368,35215,6,0,B|176:376|112:320,1,140
80,280,35744,1,0
104,216,35921,1,0
64,160,36097,2,0,B|128:104|216:136,1,140
224,192,36627,1,0
248,256,36803,2,0,B|328:296|400:248,1,140
384,192,37332,2,0,B|384:112,2,70
256,88,38038,5,0
256,88,38215,1,0
136,192,38568,1,0
136,192,38744,1,0
256,312,39097,2,0,B|360:312,2,105
168,312,39803,6,0,B|112:312,8,35,0|0|0|0|0|0|0|0|4
184,112,40862,6,0,B|112:104|32:128,2,140
184,280,41921,2,0,B|256:312|336:272,1,140
400,304,42450,2,0,B|472:200|384:88,1,210
232,72,43332,6,0,B|144:112|88:64,1,140
96,160,43862,1,0
96,240,44038,2,0,B|184:200|240:248,1,140
256,160,44568,1,0
336,160,44744,2,0,B|456:160,2,105
256,160,45450,6,0,B|200:160,7,35,0|0|0|0|0|0|0|0
224,160,46156,2,0,B|144:160,1,70,4|0
48,192,46862,6,0,B|56:272|144:320,1,140
200,336,47391,2,0,B|288:368|352:320,1,140
368,256,47921,1,0
288,272,48097,1,0
208,256,48274,2,0,B|152:240|136:208,2,70
256,96,48980,6,0,B|328:48|416:88,1,140
464,120,49509,1,0
480,200,49685,2,0,B|472:240|424:264,2,70
312,192,50391,6,0,B|312:264,2,70
160,128,51097,1,0
176,48,51274,1,0
256,24,51450,1,4
256,184,51803,6,0,B|280:280|360:304,1,140
256,184,52509,2,0,B|296:168|320:120,2,70
256,184,53215,2,0,B|228:102|144:80,1,140
128,248,53921,1,0
192,304,54097,1,0
272,328,54274,1,0
256,160,54627,6,0,B|336:192|416:152,1,140
464,200,55156,1,0
392,248,55332,2,0,B|304:272|232:232,1,140
96,192,56038,5,0
96,104,56215,2,0,B|96:32,2,70
167,148,56744,1,0
167,148,56921,1,0
255,148,57097,2,0,B|255:100,4,35,0|0|0|0|4
256,320,57803,5,0
336,288,57980,1,0
392,224,58156,2,0,B|432:264|408:304,2,70
312,208,58685,6,0,B|224:224|168:176,1,140
192,104,59215,2,0,B|272:80|344:136,1,140
392,168,59744,1,0
408,248,59921,1,0
360,312,60097,1,0
288,352,60274,6,0,B|184:368|136:296,1,140
160,240,60803,1,0
80,232,60980,2,0,B|24:160|64:80,1,140,0|0
136,104,61509,2,0,B|192:48|288:72,1,140
344,88,62038,1,0
256,232,62391,2,0,B|344:232,2,70
88,192,63097,6,0,B|136:144|232:136,2,140
48,264,63979,2,0,B|112:320|208:280,1,140
256,264,64509,1,0
304,192,64685,1,0
256,120,64862,1,4
424,120,65215,5,0
376,192,65391,1,0
424,264,65568,1,4
264,256,65921,6,0,B|112:256,1,140
124,171,66450,2,0,B|268:171,1,140
264,86,66980,2,0,B|112:86,1,140
40,96,67509,2,0,B|40:240,2,140,4|0|4
272,192,68744,5,4
104,192,69097,5,0
128,272,69274,2,0,B|208:256,1,70
224,336,69627,2,0,B|304:328,1,70
376,320,69980,6,0,B|400:248|360:160,1,140
320,120,70509,2,0,B|248:104|168:152,1,140
128,200,71038,1,0
184,264,71215,1,0
352,256,71568,6,0,B|432:256,2,70
160,128,72274,6,0,B|80:128,2,70
216,192,72803,1,0
384,192,73156,5,0
344,264,73332,1,0
304,192,73509,1,0
256,120,73685,1,0
216,192,73862,1,0
160,256,74038,1,0
104,192,74215,1,0
160,128,74391,1,4
296,32,74744,6,0,B|208:32,1,70
226,116,75097,2,0,B|314:116,2,70
192,192,75627,6,0,B|256:248|344:256,1,140
392,216,76156,1,0
424,136,76332,1,0
344,152,76509,2,0,B|256:152|216:96,1,140
136,128,77038,1,0
56,104,77215,2,0,B|24:184|64:264,1,140
136,264,77744,2,0,B|184:328|272:328,1,140
256,160,78450,6,0,B|176:136|104:168,2,140
344,168,79332,2,0,B|344:248,1,70
344,320,79685,2,0,B|392:352,4,35,0|0|0|0|4
208,216,80391,5,0
256,288,80568,1,0
168,296,80744,1,0
120,224,80921,1,0
160,144,81097,1,0
240,112,81274,6,0,B|304:80|408:112,1,140
456,128,81803,2,0,B|480:208|424:288,1,140
400,336,82332,1,0
320,368,82509,1,0
240,344,82685,1,0
168,296,82862,6,0,B|80:296,2,70
216,136,83568,2,0,B|296:136,2,70
128,136,84097,1,4
280,208,84450,6,0,B|352:208,4,70
184,352,85509,2,0,B|112:376|40:344,1,140
48,264,86038,2,0,B|16:232|40:176,2,70
200,192,86744,1,0
152,264,86921,2,0,B|96:200|120:144|160:120,1,140
136,56,87450,1,0
216,40,87627,1,0
272,104,87803,1,0
424,40,88156,5,0
488,192,88509,6,0,B|448:272|360:272,1,140
296,272,89038,1,0
240,208,89215,2,0,B|200:240|208:296,2,70
256,40,89921,5,0
336,192,90274,1,0
256,344,90627,1,0
176,192,90979,1,0
264,192,91156,6,0,B|272:272|368:264,1,140,0|0
256,192,91685,12,4,93803
256,192,93979,12,4,95215
184,192,95568,6,0,B|328:192,4,140
40,192,97332,6,0,B|40:112,2,70
176,96,98038,1,0
176,96,98215,1,0
344,96,98568,1,0
344,96,98744,1,0
256,240,99097,2,0,B|344:208|424:248,1,140
392,320,99627,2,0,B|304:352|232:312,1,140
184,280,100156,5,0
328,104,100509,1,0
256,192,100862,5,0
256,192,101038,1,4
256,192,101215,12,0,102627
