osu file format v12

[General]
AudioFilename: Komorebi Fureneru(short ver.).mp3
AudioLeadIn: 1500
PreviewTime: 60375
Countdown: 0
SampleSet: Soft
StackLeniency: 0.7
Mode: 0
LetterboxInBreaks: 0

[Editor]
DistanceSpacing: 1
BeatDivisor: 4
GridSize: 4

[Metadata]
Title:Komorebi Fresnel (Short Ver.)
TitleUnicode:木漏れ日フレネル (Short Ver.)
Artist:nao
ArtistUnicode:nao
Creator:kajiyatta
Version:Insane
Source:1/2 summer
Tags:Alcot Honey Comb one side summer eroge opening ArtBox h-728 hibarirailwayz visual novel Fureneru
BeatmapID:167551
BeatmapSetID:55191

[Difficulty]
HPDrainRate:7
CircleSize:4
OverallDifficulty:7
ApproachRate:8
SliderMultiplier:1.6
SliderTickRate:2

[Events]
//Background and Video events
0,0,"a.jpg",0,0
Video,0,"summer_demomovie.avi"
//Break Periods
//Storyboard Layer 0 (Background)
//Storyboard Layer 1 (Fail)
//Storyboard Layer 2 (Pass)
//Storyboard Layer 3 (Foreground)
//Storyboard Sound Samples
//Background Colour Transformations
3,100,163,162,255

[TimingPoints]
376,297.029702970297,4,2,2,50,1,0
970,-133.333333333333,4,2,2,50,0,0
1712,-133.333333333333,4,2,1,50,0,0
1861,-133.333333333333,4,2,2,50,0,0
2900,-133.333333333333,4,2,1,50,0,0
3346,-133.333333333333,4,2,2,50,0,0
4088,-133.333333333333,4,2,1,50,0,0
4237,-133.333333333333,4,2,2,50,0,0
5574,-133.333333333333,4,2,1,50,0,0
5722,-133.333333333333,4,2,2,50,0,0
6019,-133.333333333333,4,2,1,50,0,0
6168,-133.333333333333,4,2,2,50,0,0
6465,-133.333333333333,4,2,1,50,0,0
6613,-133.333333333333,4,2,2,50,0,0
7653,-133.333333333333,4,2,1,50,0,0
7801,-133.333333333333,4,2,2,50,0,0
8692,-133.333333333333,4,2,1,60,0,0
11069,-100,4,2,1,70,0,0
11143,-100,4,2,1,80,0,0
15821,-100,4,2,1,70,0,0
15969,-100,4,2,1,80,0,0
17009,-100,4,2,1,70,0,0
17306,-100,4,2,1,80,0,0
17455,-100,4,2,1,70,0,0
17603,-100,4,2,1,80,0,0
18197,-100,4,2,1,70,0,0
20870,-100,4,2,1,80,0,0
30078,-100,4,2,1,70,0,0
30227,-100,4,2,1,80,0,0
39583,-100,4,2,1,70,0,0
39658,-100,4,2,1,80,0,0
49088,-100,4,2,1,70,0,0
49385,-100,4,2,1,80,0,0
52653,-100,4,2,1,70,0,0
52950,-100,4,2,1,80,0,0
53841,-133.333333333333,4,2,1,50,0,0
53989,-133.333333333333,4,2,1,80,0,0
55029,-133.333333333333,4,2,1,50,0,0
55326,-133.333333333333,4,2,1,80,0,0
56217,-133.333333333333,4,2,1,50,0,0
58593,-100,4,2,1,60,0,0
60524,-100,4,2,1,50,0,0
60970,-100,4,2,1,70,0,1
61267,-100,4,2,1,90,0,1
65722,-100,4,2,1,70,0,1
66019,-100,4,2,1,90,0,1
66910,-100,4,2,1,70,0,1
67207,-100,4,2,1,90,0,1
70177,-100,4,1,1,50,0,1
70475,-100,4,2,1,70,0,1
70771,-100,4,2,1,90,0,1
75227,-100,4,2,1,70,0,1
75524,-100,4,2,1,90,0,1
76415,-100,4,2,1,70,0,1
81168,-100,4,2,1,60,0,1
82356,-100,4,2,1,70,0,0
82653,-100,4,2,1,90,0,0
84732,-100,4,2,1,80,0,0
88296,-100,4,2,1,70,0,0
88890,-100,4,2,1,60,0,0
89484,-100,4,2,1,50,0,0
90078,-100,4,2,1,40,0,0
90672,-100,4,2,1,30,0,0
91267,-100,4,2,1,20,0,0
91861,-100,4,2,1,10,0,0

[Colours]
Combo1 : 255,255,32
Combo2 : 13,230,13
Combo3 : 147,244,239

[HitObjects]
80,140,970,2,0,B|40:84,2,60.0000022888184
156,164,1415,1,0,0:0:0:0:
228,132,1564,6,0,B|284:104|344:132,1,120.000004577637,0|0,0:0|0:0,0:0:0:0:
396,192,2009,1,0,0:0:0:0:
396,192,2158,2,0,B|464:192,2,60.0000022888184,2|0|0,0:0|0:0|0:0,0:0:0:0:
344,252,2603,1,0,0:0:0:0:
292,312,2752,2,0,B|236:340|176:312,2,120.000004577637,0|0|2,0:0|0:0|0:0,0:0:0:0:
396,192,3643,2,0,B|456:192,1,60.0000022888184,0|0,0:0|0:0,0:0:0:0:
504,132,3940,6,0,B|504:68|456:24,1,120.000004577637,0|0,0:0|0:0,0:0:0:0:
392,64,4385,1,0,0:0:0:0:
316,44,4534,2,0,B|252:44,2,60.0000022888184,2|0|0,0:0|0:0|0:0,0:0:0:0:
88,192,5128,2,0,B|148:192,1,60.0000022888184
200,248,5425,2,0,B|244:296|308:296,1,120.000004577637,0|2,0:0|0:0,0:0:0:0:
384,284,5871,2,0,B|432:240|432:176,1,120.000004577637
364,140,6316,6,0,B|316:96|316:32,1,120.000004577637,4|0,0:0|0:0,0:0:0:0:
240,40,6762,1,0,0:0:0:0:
164,52,6910,2,0,B|136:52|104:68,1,60.0000022888184,2|0,0:0|0:0,0:0:0:0:
4,184,7207,2,0,B|32:184|61:169,1,60.0000022888184,0|0,0:0|0:0,0:0:0:0:
140,156,7504,2,0,B|140:220|184:264,1,120.000004577637,0|0,0:0|0:0,0:0:0:0:
256,300,7950,1,0,0:0:0:0:
324,336,8098,2,0,B|352:348|384:336,1,60.0000022888184,2|0,0:0|0:0,0:0:0:0:
508,244,8395,2,0,B|480:232|448:244,1,60.0000022888184,0|0,0:0|0:0,0:0:0:0:
372,236,8692,6,0,B|312:236|260:188,1,120.000004577637,4|0,0:0|0:0,0:0:0:0:
224,124,9138,1,0,0:0:0:0:
72,236,9286,2,0,B|132:236|184:188,1,120.000004577637,4|0,0:0|0:0,0:0:0:0:
224,124,9732,1,0,0:0:0:0:
272,64,9880,2,0,L|228:24,2,60.0000022888184,4|0|0,0:0|0:0|0:0,0:0:0:0:
352,64,10326,1,0,0:0:0:0:
404,124,10475,2,0,L|468:124,1,60.0000022888184,2|0,0:0|0:0,0:0:0:0:
256,288,11069,6,0,B|220:304|176:288,1,80,4|0,0:0|0:0,0:0:0:0:
33,227,11366,2,0,B|76:212|112:228,1,80,8|0,0:0|0:0,0:0:0:0:
184,192,11663,2,0,B|140:116|184:40,1,160,0|8,0:0|0:0,0:0:0:0:
264,24,12108,1,0,0:0:0:0:
344,40,12257,2,0,B|388:116|344:192,1,160,0|8,0:0|0:0,0:0:0:0:
264,208,12702,1,0,0:0:0:0:
256,288,12851,2,0,B|288:312|332:312,1,80,0|0,0:0|0:0,0:0:0:0:
488,288,13148,2,0,B|456:312|412:312,1,80,8|0,0:0|0:0,0:0:0:0:
372,244,13445,6,0,B|444:192|444:108,1,160,0|8,0:0|0:0,0:0:0:0:
375,61,13890,2,0,B|388:32|444:0|496:32|508:60,1,160
308,108,14336,2,0,L|228:108,1,80,8|0,0:0|0:0,0:0:0:0:
148,108,14633,2,0,L|100:44,2,80,0|0|8,0:0|0:0|0:0,0:0:0:0:
188,180,15078,1,0,0:0:0:0:
228,252,15227,2,0,B|188:268|148:252,1,80,0|0,0:0|0:0,0:0:0:0:
292,180,15524,2,0,B|332:164|372:180,1,80,8|0,0:0|0:0,0:0:0:0:
432,232,15821,6,0,B|448:268|432:312,1,80,4|0,0:0|0:0,0:0:0:0:
268,348,16118,2,0,B|252:312|268:268,1,80,8|0,0:0|0:0,0:0:0:0:
340,232,16415,2,0,B|340:136|268:100,1,160,0|8,0:0|0:0,0:0:0:0:
192,128,16861,1,0,0:0:0:0:
116,156,17009,2,0,B|46:116,2,80,4|0|8,0:0|0:0|0:0,0:0:0:0:
49,277,17455,2,0,B|76:244|116:236,1,80,4|0,0:0|0:0,0:0:0:0:
256,316,17752,2,0,B|216:308|192:272,1,80,0|8,0:0|0:0,0:0:0:0:
268,236,18049,1,0,0:0:0:0:
268,156,18197,6,2,B|332:104|416:104,1,160,2|2,0:0|0:0,0:0:0:0:
488,152,18643,2,0,B|462:185|418:185,1,80,0|2,0:0|0:0,0:0:0:0:
476,336,18940,1,2,0:0:0:0:
360,252,19088,1,0,0:0:0:0:
388,336,19237,1,2,0:0:0:0:
232,252,19534,1,2,0:0:0:0:
80,252,19682,1,0,0:0:0:0:
156,300,19831,1,2,0:0:0:0:
96,168,19979,2,0,B|76:127|107:86,1,80,2|0,0:0|0:0,0:0:0:0:
256,124,20276,2,0,B|267:81|308:67,1,80,8|0,0:0|0:0,0:0:0:0:
416,188,20574,6,0,B|404:276|320:308,1,160,4|8,0:0|0:0,0:0:0:0:
240,308,21019,1,0,0:0:0:0:
160,308,21168,2,0,B|76:308,2,80,0|0|8,0:0|0:0|0:0,0:0:0:0:
200,240,21613,2,0,B|140:176|140:96,1,160
200,44,22059,2,0,B|240:28|280:44,1,80,8|0,0:0|0:0,0:0:0:0:
356,68,22356,1,0,0:0:0:0:
468,192,22504,1,0,0:0:0:0:
416,120,22653,1,8,0:0:0:0:
416,264,22801,1,0,0:0:0:0:
356,324,22950,6,0,B|280:360|200:324,1,160,0|8,0:0|0:0,0:0:0:0:
156,256,23395,1,0,0:0:0:0:
112,188,23544,2,0,B|36:132,2,80,0|0|8,0:0|0:0|0:0,0:0:0:0:
192,184,23989,2,0,B|268:148|348:184,1,160
428,184,24435,2,0,B|452:156|460:112,1,80,8|0,0:0|0:0,0:0:0:0:
359,6,24732,2,0,B|388:44|388:80,1,80
304,64,25029,2,0,B|228:96|148:64,1,160,8|0,0:0|0:0,0:0:0:0:
60,192,25623,6,0,B|12:268|60:344,1,160,8|0,0:0|0:0,0:0:0:0:
452,192,26217,2,0,B|500:116|452:40,1,160,8|0,0:0|0:0,0:0:0:0:
372,40,26663,1,0,0:0:0:0:
372,40,26811,1,8,0:0:0:0:
292,40,26960,2,0,B|220:76,1,80
140,76,27257,2,0,B|48:76,2,80,0|8|0,0:0|0:0|0:0,0:0:0:0:
180,144,27702,6,0,B|208:176|208:216,1,80
128,228,27999,2,0,B|100:260|100:300,1,80,8|0,0:0|0:0,0:0:0:0:
176,332,28296,2,0,B|248:288|332:288,1,160,0|8,0:0|0:0,0:0:0:0:
400,144,28742,1,0,0:0:0:0:
400,144,28890,2,0,B|388:172|336:204|280:172|268:144,2,160,0|8|0,0:0|0:0|0:0,0:0:0:0:
336,96,29633,1,0,0:0:0:0:
264,60,29781,1,8,0:0:0:0:
192,96,29930,1,0,0:0:0:0:
124,140,30078,6,0,B|56:92,2,80,4|0|8,0:0|0:0|0:0,0:0:0:0:
132,220,30524,1,0,0:0:0:0:
196,268,30673,2,0,B|268:312|348:268,1,160,0|8,0:0|0:0,0:0:0:0:
412,216,31118,2,0,B|456:144|412:64,1,160
344,24,31564,2,0,B|272:60,1,80,8|0,0:0|0:0,0:0:0:0:
204,104,31861,2,0,B|224:144|204:184,1,80,0|0,0:0|0:0,0:0:0:0:
68,264,32158,2,0,B|48:224|68:184,1,80,8|0,0:0|0:0,0:0:0:0:
140,224,32455,1,0,0:0:0:0:
256,332,32752,6,0,B|168:332,2,80,8|0|0,0:0|0:0|0:0,0:0:0:0:
328,296,33197,2,0,B|368:280|384:240,1,80,0|8,0:0|0:0,0:0:0:0:
400,168,33494,2,0,B|324:128|312:40,1,160
232,40,33940,2,0,B|152:40,1,80,8|0,0:0|0:0,0:0:0:0:
36,152,34237,2,0,B|116:152,1,80
232,264,34534,2,0,B|192:340|104:352,1,160,8|0,0:0|0:0,0:0:0:0:
232,40,35128,5,8,0:0:0:0:
444,152,35425,1,0,0:0:0:0:
232,264,35722,2,0,B|196:284|156:264,1,80,8|0,0:0|0:0,0:0:0:0:
116,192,36019,2,0,B|110:149|76:122,2,80,0|0|8,0:0|0:0|0:0,0:0:0:0:
196,192,36465,1,0,0:0:0:0:
276,192,36613,2,0,B|282:149|316:122,1,80
404,256,36910,2,0,B|397:298|364:324,1,80,8|0,0:0|0:0,0:0:0:0:
204,324,37207,6,0,B|108:324|68:252,1,160,0|8,0:0|0:0,0:0:0:0:
116,192,37653,1,0,0:0:0:0:
204,60,37801,2,0,B|108:60|68:132,1,160,0|8,0:0|0:0,0:0:0:0:
116,192,38247,1,0,0:0:0:0:
196,192,38395,2,0,B|212:232|252:244,1,80
344,192,38692,2,0,B|383:208|424:192,1,80,8|0,0:0|0:0,0:0:0:0:
424,64,38989,2,0,B|384:47|344:64,1,80
196,192,39286,1,8,0:0:0:0:
128,260,39435,1,0,0:0:0:0:
40,220,39583,6,0,B|-4:144|40:68,1,160,4|8,0:0|0:0,0:0:0:0:
80,292,40029,1,0,0:0:0:0:
80,292,40177,2,0,B|132:364|216:364,1,160,0|8,0:0|0:0,0:0:0:0:
432,292,40623,1,0,0:0:0:0:
432,292,40772,2,0,B|380:364|296:364,1,160,0|8,0:0|0:0,0:0:0:0:
256,292,41217,1,0,0:0:0:0:
256,292,41366,2,0,B|256:208,2,80,0|0|8,0:0|0:0|0:0,0:0:0:0:
184,256,41811,1,0,0:0:0:0:
112,220,41960,6,0,B|24:192|24:100,1,160,0|8,0:0|0:0,0:0:0:0:
164,28,42405,2,0,B|252:56|252:148,1,160,0|0,0:0|0:0,0:0:0:0:
336,148,42851,2,0,B|416:148,1,80,8|0,0:0|0:0,0:0:0:0:
480,196,43148,2,0,B|500:236|480:272,1,80
404,300,43445,1,8,0:0:0:0:
328,328,43593,1,0,0:0:0:0:
252,356,43742,2,0,B|232:316|252:280,1,80
176,252,44039,1,8,0:0:0:0:
100,224,44187,1,0,0:0:0:0:
24,196,44336,6,0,B|24:108|108:72,1,160,0|8,0:0|0:0,0:0:0:0:
168,124,44781,1,0,0:0:0:0:
228,72,44930,1,0,0:0:0:0:
292,124,45078,1,0,0:0:0:0:
352,72,45227,2,0,B|435:108|436:196,1,160,8|0,0:0|0:0,0:0:0:0:
356,196,45673,1,0,0:0:0:0:
356,196,45821,2,0,B|276:196,1,80,8|0,0:0|0:0,0:0:0:0:
196,196,46118,2,0,B|152:272|196:348,1,160,0|8,0:0|0:0,0:0:0:0:
36,348,46564,1,0,0:0:0:0:
36,348,46712,6,0,B|79:272|35:196,1,160,0|8,0:0|0:0,0:0:0:0:
196,196,47158,1,0,0:0:0:0:
196,196,47306,2,0,B|152:120|196:44,1,160,0|8,0:0|0:0,0:0:0:0:
276,44,47752,1,0,0:0:0:0:
276,44,47900,2,0,B|316:28|356:44,1,80
496,116,48197,2,0,B|456:132|416:116,1,80,8|0,0:0|0:0,0:0:0:0:
308,236,48494,2,0,B|228:236,1,80
216,316,48791,1,8,0:0:0:0:
288,352,48940,1,0,0:0:0:0:
352,300,49088,6,0,B|380:288|412:236|380:180|352:168,1,160,4|8,0:0|0:0,0:0:0:0:
288,116,49534,1,0,0:0:0:0:
320,44,49682,2,0,B|295:25|234:24|202:79|205:110,1,160,0|8,0:0|0:0,0:0:0:0:
204,192,50128,1,0,0:0:0:0:
124,200,50276,2,0,B|120:230|149:283|213:284|238:265,1,160,0|8,0:0|0:0,0:0:0:0:
284,200,50722,1,0,0:0:0:0:
364,200,50871,2,0,B|460:200,2,80,0|0|8,0:0|0:0|0:0,0:0:0:0:
324,268,51316,1,0,0:0:0:0:
324,268,51465,6,0,B|276:340|188:340,1,160,0|8,0:0|0:0,0:0:0:0:
108,340,51910,2,0,B|36:292|36:204,1,160,0|0,0:0|0:0,0:0:0:0:
116,204,52356,2,0,B|152:184|164:144,1,80,8|0,0:0|0:0,0:0:0:0:
232,96,52653,2,0,B|219:66|168:36|111:66|99:94,2,160,4|8|0,0:0|0:0|0:0,0:0:0:0:
264,168,53395,1,0,0:0:0:0:
328,216,53544,1,8,0:0:0:0:
392,168,53692,1,0,0:0:0:0:
416,96,53841,6,0,B|512:24,2,119.999996423721,12|0|8,0:0|0:0|0:0,0:0:0:0:
344,104,54583,1,0,0:0:0:0:
272,112,54732,2,0,B|196:112,1,59.9999982118607,8|0,0:0|0:0,0:0:0:0:
120,192,55029,2,0,B|24:264,2,119.999996423721,4|0|8,0:0|0:0|0:0,0:0:0:0:
192,200,55772,1,0,0:0:0:0:
264,208,55920,2,0,B|340:208,1,59.9999982118607,8|0,0:0|0:0,0:0:0:0:
256,192,56217,12,0,58296,0:0:0:0:
176,76,58593,6,0,B|163:46|107:14|55:46|43:74,2,160,2|2|2,0:0|0:0|0:0,0:0:0:0:
256,76,59336,1,2,0:0:0:0:
336,308,59633,2,0,B|348:337|404:369|456:337|468:309,2,160,2|2|2,0:0|0:0|0:0,0:0:0:0:
256,308,60376,1,2,0:0:0:0:
196,364,60524,1,0,0:0:0:0:
116,364,60673,1,0,0:0:0:0:
56,308,60821,1,0,0:0:0:0:
28,232,60970,6,0,B|28:140|116:108,1,160,4|8,0:0|0:0,0:0:0:0:
172,164,61415,1,0,0:0:0:0:
172,164,61564,2,0,B|244:208|324:164,1,160,0|8,0:0|0:0,0:0:0:0:
376,104,62009,1,0,0:0:0:0:
376,104,62158,2,0,B|428:36,2,80,0|0|8,0:0|0:0|0:0,0:0:0:0:
404,180,62603,1,0,0:0:0:0:
376,256,62752,2,0,B|392:296|376:336,1,80
220,376,63049,2,0,B|204:336|220:296,1,80,8|0,0:0|0:0,0:0:0:0:
64,256,63346,6,0,B|7:199,1,80
72,152,63643,2,0,B|92:74,1,80,8|0,0:0|0:0,0:0:0:0:
168,100,63940,2,0,B|244:64|324:100,1,160,0|8,0:0|0:0,0:0:0:0:
324,260,64385,1,0,0:0:0:0:
324,260,64534,2,0,B|248:296|168:260,1,160,0|8,0:0|0:0,0:0:0:0:
88,260,64979,2,0,B|31:316,2,80,0|0|0,0:0|0:0|0:0,0:0:0:0:
88,180,65425,2,0,B|31:123,1,80,8|0,0:0|0:0,0:0:0:0:
52,44,65722,6,0,B|128:44|204:88,1,160,4|8,0:0|0:0,0:0:0:0:
256,148,66168,1,0,0:0:0:0:
256,148,66316,2,0,B|228:180|228:220,1,80
308,216,66613,2,0,B|310:258|340:288,1,80,8|0,0:0|0:0,0:0:0:0:
420,288,66910,2,0,B|480:228|480:144,1,160,4|8,0:0|0:0,0:0:0:0:
404,116,67356,1,0,0:0:0:0:
404,116,67504,2,0,B|364:36|276:36,1,160,0|8,0:0|0:0,0:0:0:0:
108,268,68098,6,0,B|148:348|236:348,1,160,0|8,0:0|0:0,0:0:0:0:
316,348,68544,1,0,0:0:0:0:
396,348,68692,2,0,B|480:348,2,80,0|0|8,0:0|0:0|0:0,0:0:0:0:
356,280,69138,1,0,0:0:0:0:
316,212,69286,2,0,B|332:172|316:132,1,80,8|0,0:0|0:0,0:0:0:0:
196,172,69583,2,0,B|180:212|196:252,1,80,8|0,0:0|0:0,0:0:0:0:
400,172,69880,2,0,B|416:132|400:92,1,80,8|0,0:0|0:0,0:0:0:0:
112,212,70177,1,0,0:0:0:0:
104,232,70252,1,0,0:0:0:0:
100,252,70326,1,0,0:0:0:0:
104,272,70400,1,0,0:0:0:0:
112,292,70475,6,0,B|124:321|180:353|232:321|244:293,1,160,4|8,0:0|0:0,0:0:0:0:
392,208,70920,1,0,0:0:0:0:
392,208,71069,2,0,B|380:180|328:148|272:180|260:210,1,160,0|8,0:0|0:0,0:0:0:0:
328,260,71514,1,0,0:0:0:0:
328,260,71663,2,0,B|315:289|332:351|391:366|420:353,1,160,0|8,0:0|0:0,0:0:0:0:
496,188,72108,1,0,0:0:0:0:
496,188,72257,2,0,B|508:217|493:276|431:293|402:281,1,160,0|8,0:0|0:0,0:0:0:0:
376,132,72702,1,0,0:0:0:0:
376,132,72851,6,0,B|319:75,2,80,0|0|8,0:0|0:0|0:0,0:0:0:0:
328,196,73296,1,0,0:0:0:0:
288,260,73445,2,0,B|216:300|132:264,2,160,0|8|0,0:0|0:0|0:0,0:0:0:0:
248,192,74187,1,0,0:0:0:0:
208,124,74336,2,0,B|128:124,1,80,8|0,0:0|0:0,0:0:0:0:
48,124,74633,2,0,B|4:12,2,120,0|8|0,0:0|0:0|0:0,0:0:0:0:
88,196,75227,6,0,B|40:268|88:348,1,160,4|8,0:0|0:0,0:0:0:0:
164,332,75673,1,0,0:0:0:0:
244,316,75821,2,0,B|280:336|320:316,1,80,8|0,0:0|0:0,0:0:0:0:
464,244,76118,2,0,B|428:224|388:244,1,80,8|0,0:0|0:0,0:0:0:0:
244,168,76415,2,0,B|292:96|244:16,1,160,4|8,0:0|0:0,0:0:0:0:
168,32,76861,1,0,0:0:0:0:
88,48,77009,2,0,B|52:28|12:48,1,80,8|0,0:0|0:0,0:0:0:0:
88,188,77306,2,0,B|124:208|164:188,1,80,8|0,0:0|0:0,0:0:0:0:
324,188,77603,6,0,B|376:116,2,80,4|0|8,0:0|0:0|0:0,0:0:0:0:
360,260,78049,1,0,0:0:0:0:
324,332,78197,2,0,B|280:332|248:308,1,80,8|0,0:0|0:0,0:0:0:0:
88,332,78494,2,0,B|132:332|164:308,1,80,8|0,0:0|0:0,0:0:0:0:
164,228,78791,2,0,B|80:192|80:104,1,160,4|8,0:0|0:0,0:0:0:0:
248,228,79237,1,0,0:0:0:0:
248,228,79385,2,0,B|332:192|332:104,1,160,8|8,0:0|0:0,0:0:0:0:
256,72,79831,1,0,0:0:0:0:
324,28,79979,6,0,B|400:-8|480:28,1,160,4|8,0:0|0:0,0:0:0:0:
480,188,80425,1,0,0:0:0:0:
480,188,80574,2,0,B|404:224|324:188,1,160,8|8,0:0|0:0,0:0:0:0:
184,108,81019,1,0,0:0:0:0:
184,108,81168,2,0,B|96:108,2,80,2|2|0,0:0|0:0|0:0,0:0:0:0:
328,276,81762,2,0,B|416:276,2,80,2|2|0,0:0|0:0|0:0,0:0:0:0:
256,312,82207,1,0,0:0:0:0:
184,276,82356,6,0,B|100:276|56:196,1,160,4|8,0:0|0:0,0:0:0:0:
92,124,82801,2,0,B|176:124|220:204,1,160
300,204,83247,2,0,B|380:204,1,80,8|0,0:0|0:0,0:0:0:0:
460,204,83544,2,0,B|500:124|460:48,1,160,0|8,0:0|0:0,0:0:0:0:
384,36,83989,2,0,B|308:72|228:36,1,160
92,124,84435,1,8,0:0:0:0:
92,124,84583,1,0,0:0:0:0:
100,280,84732,6,0,B|52:344,2,80,2|0|2,0:0|0:0|0:0,0:0:0:0:
180,280,85177,1,0,0:0:0:0:
260,280,85326,2,0,B|308:216,1,80,2|2,0:0|0:0,0:0:0:0:
464,192,85772,5,4,0:3:0:0:
152,11,86069,1,4,0:3:0:0:
152,372,86366,1,4,0:3:0:0:
256,192,86514,12,0,91861,0:0:0:0:
