osu file format v12

[General]
AudioFilename: Komorebi Fureneru(short ver.).mp3
AudioLeadIn: 1000
PreviewTime: 60375
Countdown: 0
SampleSet: Soft
StackLeniency: 0.7
Mode: 0
LetterboxInBreaks: 0

[Editor]
DistanceSpacing: 1
BeatDivisor: 4
GridSize: 4

[Metadata]
Title:Komorebi Fresnel (Short Ver.)
TitleUnicode:木漏れ日フレネル (Short Ver.)
Artist:nao
ArtistUnicode:nao
Creator:kajiyatta
Version:Easy
Source:1/2 summer
Tags:Alcot Honey Comb one side summer eroge opening ArtBox h-728 hibarirailwayz visual novel Fureneru
BeatmapID:167882
BeatmapSetID:55191

[Difficulty]
HPDrainRate:2
CircleSize:3
OverallDifficulty:2
ApproachRate:3
SliderMultiplier:0.6
SliderTickRate:1

[Events]
//Background and Video events
0,0,"a.jpg",0,0
Video,0,"summer_demomovie.avi"
//Break Periods
2,11069,19134
//Storyboard Layer 0 (Background)
//Storyboard Layer 1 (Fail)
//Storyboard Layer 2 (Pass)
//Storyboard Layer 3 (Foreground)
//Storyboard Sound Samples
//Background Colour Transformations
3,100,163,162,255

[TimingPoints]
376,297.029702970297,4,2,1,50,1,0
2158,-100,4,1,2,40,0,0
2306,-100,4,2,1,50,0,0
3346,-100,4,2,2,50,0,0
3940,-100,4,2,1,50,0,0
4534,-100,4,1,2,40,0,0
4682,-100,4,2,1,50,0,0
5722,-100,4,2,2,50,0,0
6465,-100,4,2,1,50,0,0
6910,-100,4,2,2,50,0,0
7653,-100,4,2,1,50,0,0
8098,-100,4,2,2,50,0,0
8692,-100,4,2,2,60,0,0
8841,-100,4,2,1,60,0,0
20574,-100,4,2,2,60,0,0
27257,-100,4,2,1,70,0,0
27702,-100,4,2,2,60,0,0
29633,-100,4,2,1,70,0,0
30078,-100,4,2,2,60,0,0
32158,-100,4,2,1,70,0,0
32455,-100,4,2,2,60,0,0
34534,-100,4,2,1,70,0,0
34831,-100,4,2,2,60,0,0
36910,-100,4,2,1,70,0,0
37207,-100,4,2,2,60,0,0
38544,-100,4,2,1,70,0,0
38989,-100,4,2,2,60,0,0
39286,-100,4,2,1,70,0,0
39583,-100,4,2,1,60,0,0
39880,-100,4,2,1,70,0,0
40177,-100,4,2,2,60,0,0
43445,-100,4,2,1,70,0,0
43742,-100,4,2,2,60,0,0
44039,-100,4,2,1,70,0,0
44930,-100,4,2,2,60,0,0
45078,-100,4,2,1,70,0,0
46118,-100,4,2,2,60,0,0
46267,-100,4,2,1,70,0,0
47306,-100,4,2,2,60,0,0
47900,-100,4,2,1,70,0,0
48494,-100,4,2,2,60,0,0
48643,-100,4,2,1,70,0,0
49088,-100,4,2,2,60,0,0
49682,-100,4,1,2,60,0,0
49979,-100,4,2,1,70,0,0
50276,-100,4,2,2,60,0,0
52801,-100,4,2,1,70,0,0
53247,-100,4,2,2,50,0,0
53544,-100,4,2,1,70,0,0
53841,-100,4,2,2,60,0,0
60970,-100,4,2,2,80,0,1
61861,-100,4,2,1,90,0,1
62158,-100,4,2,2,80,0,1
63049,-100,4,2,1,90,0,1
63346,-100,4,2,2,80,0,1
68989,-100,4,2,1,90,0,1
69880,-100,4,2,2,80,0,1
70177,-100,4,2,1,90,0,1
70475,-100,4,2,2,80,0,1
71366,-100,4,2,1,90,0,1
71663,-100,4,2,2,80,0,1
72554,-100,4,2,1,90,0,1
73445,-100,4,2,2,80,0,1
73742,-100,4,2,1,90,0,1
74633,-100,4,1,2,60,0,1
74930,-100,4,2,2,80,0,1
81168,-100,4,2,1,70,0,1
82356,-100,4,2,2,70,0,0
82950,-100,4,1,2,60,0,0
83247,-100,4,2,2,70,0,0
85326,-100,4,1,2,60,0,0
85623,-100,4,2,2,70,0,0
85920,-100,4,2,1,70,0,0
86069,-100,4,2,1,60,0,0
89484,-100,4,2,1,50,0,0
90078,-100,4,2,1,40,0,0
90672,-100,4,2,1,30,0,0
91267,-100,4,2,1,20,0,0
91861,-100,4,2,1,10,0,0

[Colours]
Combo1 : 255,255,32
Combo2 : 13,230,13
Combo3 : 147,244,239

[HitObjects]
156,108,1564,6,0,B|176:64|256:20|336:64|356:108,1,240,0|0,0:0|0:0,0:0:0:0:
444,192,3346,1,2,0:0:0:0:
356,276,3940,6,0,B|336:320|256:364|176:320|156:276,1,240,0|0,0:0|0:0,0:0:0:0:
72,192,5722,1,2,0:0:0:0:
156,104,6316,6,0,L|116:60,2,60,4|0|2,0:0|0:0|0:0,0:0:0:0:
276,104,7504,2,0,L|316:60,2,60,0|0|2,0:0|0:0|0:0,0:0:0:0:
216,208,8692,6,0,B|188:264|216:324,1,120,4|4,0:0|0:0,0:0:0:0:
336,324,9880,2,0,B|364:268|336:208,1,120,4|2,0:0|0:0,0:0:0:0:
260,56,20574,6,0,B|192:56|160:112,1,120,4|2,0:0|0:0,0:0:0:0:
72,192,21762,1,2,0:0:0:0:
160,272,22356,1,2,0:0:0:0:
248,192,22950,1,2,0:0:0:0:
336,108,23544,6,0,B|392:80|452:108,1,120,2|2,0:0|0:0,0:0:0:0:
392,212,24732,2,0,B|451:231|476:296,1,120,2|2,0:0|0:0,0:0:0:0:
356,320,25920,6,0,B|300:348|236:320,1,120,2|2,0:0|0:0,0:0:0:0:
116,320,27108,2,0,L|52:320,2,60,2|8|2,0:0|0:0|0:0,0:0:0:0:
176,216,28296,5,2,0:0:0:0:
116,112,28890,1,2,0:0:0:0:
236,112,29484,2,0,L|296:112,2,60,2|8|4,0:0|0:0|0:0,0:0:0:0:
272,224,30673,6,0,B|245:284|273:340,1,120,2|2,0:0|0:0,0:0:0:0:
380,284,31861,2,0,B|412:288|440:272,2,60,2|8|2,0:0|0:0|0:0,0:0:0:0:
396,164,33049,6,0,B|423:104|395:48,2,120,2|2|2,0:0|0:0|0:0,0:0:0:0:
360,212,34534,2,0,L|296:212,1,60,8|2,0:0|0:0,0:0:0:0:
180,252,35425,6,0,B|136:300|72:300,1,120,2|2,0:0|0:0,0:0:0:0:
44,184,36613,1,2,0:0:0:0:
88,144,36910,1,8,0:0:0:0:
136,108,37207,6,0,B|192:80|252:108,1,120,2|2,0:0|0:0,0:0:0:0:
348,180,38395,2,0,B|368:152|368:124,2,60,2|8|2,0:0|0:0|0:0,0:0:0:0:
324,236,39286,1,8,0:0:0:0:
348,292,39583,6,0,B|368:320|368:348,2,60,4|8|2,0:0|0:0|0:0,0:0:0:0:
232,324,40772,2,0,B|176:344|176:344|116:324,1,120,0|2,0:0|0:0,0:0:0:0:
116,204,41960,6,0,B|172:184|172:184|232:204,2,120,0|2|0,0:0|0:0|0:0,0:0:0:0:
56,204,43445,2,0,B|28:192|16:160,2,60,8|2|8,0:0|0:0|0:0,0:0:0:0:
140,116,44633,6,0,B|128:87|142:56,2,60,8|2|8,0:0|0:0|0:0,0:0:0:0:
256,88,45821,2,0,B|268:60|300:48,2,60,8|2|8,0:0|0:0|0:0,0:0:0:0:
256,148,46712,5,0,0:0:0:0:
376,148,47306,1,2,0:0:0:0:
376,268,47900,1,0,0:0:0:0:
340,316,48197,2,0,L|380:376,2,60,8|2|8,0:0|0:0|0:0,0:0:0:0:
304,272,49088,6,0,B|256:336|220:204|188:336|140:272,1,180,4|8,0:0|0:0,0:0:0:0:
92,236,50276,2,0,B|44:200|44:200|44:136,2,120,0|2|0,0:0|0:0|0:0,0:0:0:0:
184,156,52059,5,2,0:0:0:0:
276,236,52653,2,0,L|324:192,2,60,4|8|4,0:0|0:0|0:0,0:0:0:0:
244,288,53544,1,8,0:0:0:0:
276,340,53841,6,0,B|336:368|392:340,1,120,4|2,0:0|0:0,0:0:0:0:
480,256,55029,2,0,B|420:228|364:256,1,120,4|2,0:0|0:0,0:0:0:0:
256,192,56217,12,2,58593,0:0:0:0:
76,132,60970,6,0,B|48:192|76:248,1,120,4|2,0:0|0:0,0:0:0:0:
135,239,61861,1,8,0:0:0:0:
192,228,62158,2,0,B|204:208|244:188|284:208|296:228,1,120,0|2,0:0|0:0,0:0:0:0:
276,284,63049,1,8,0:0:0:0:
260,340,63346,6,0,B|272:360|312:380|352:360|364:340,2,120,0|2|0,0:0|0:0|0:0,0:0:0:0:
136,340,65128,1,2,0:0:0:0:
36,272,65722,5,4,0:0:0:0:
36,152,66316,1,2,0:0:0:0:
136,84,66910,1,4,0:0:0:0:
236,152,67504,2,0,B|292:128|352:152,2,120,2|0|2,0:0|0:0|0:0,0:0:0:0:
180,172,68989,5,8,0:0:0:0:
220,284,69583,1,8,0:0:0:0:
336,320,70177,1,8,0:0:0:0:
396,320,70475,6,0,B|456:308|484:244,1,120,4|2,0:0|0:0,0:0:0:0:
436,212,71366,1,8,0:0:0:0:
388,176,71663,2,0,B|407:118|368:60,1,120,0|2,0:0|0:0,0:0:0:0:
312,80,72554,1,8,0:0:0:0:
252,92,72851,6,0,B|224:92|188:112,2,60,0|8|2,0:0|0:0|0:0,0:0:0:0:
288,144,73742,1,8,0:0:0:0:
252,260,74336,2,0,B|236:296|180:328|120:296|104:260,1,180,8|4,0:0|0:0,0:0:0:0:
20,176,75821,5,2,0:0:0:0:
104,88,76415,1,4,0:0:0:0:
224,88,77009,1,2,0:0:0:0:
300,180,77603,6,0,B|356:208|416:180,2,120,4|2|4,0:0|0:0|0:0,0:0:0:0:
224,88,79385,1,2,0:0:0:0:
144,180,79979,6,0,B|88:208|28:180,2,120,4|2|2,0:0|0:0|0:0,0:0:0:0:
224,88,81762,1,2,0:0:0:0:
340,96,82356,6,0,B|385:79|470:101|498:192|481:237,1,240,4|0,0:0|0:0,0:0:0:0:
365,206,84138,1,2,0:0:0:0:
404,320,84732,6,0,B|353:342|254:317|228:218|248:164,1,270,4|2,0:0|0:0,0:0:0:0:
256,192,86514,12,0,91861,0:0:0:0:
