osu file format v12

[General]
AudioFilename: komorebi fresnel.mp3
AudioLeadIn: 1000
PreviewTime: 70730
Countdown: 0
SampleSet: Soft
StackLeniency: 0.7
Mode: 0
LetterboxInBreaks: 1

[Editor]
Bookmarks: 66277
DistanceSpacing: 1
BeatDivisor: 6
GridSize: 4

[Metadata]
Title:Komorebi Fresnel
TitleUnicode:木漏れ日フレネル
Artist:nao
ArtistUnicode:nao
Creator:Laurier
Version:Insane
Source:1/2 summer
Tags:ALcot Honey Comb opening
BeatmapID:241089
BeatmapSetID:88465

[Difficulty]
HPDrainRate:7
CircleSize:4
OverallDifficulty:7
ApproachRate:9
SliderMultiplier:1.8
SliderTickRate:1

[Events]
//Background and Video events
0,0,"bg.jpg",0,0
//Break Periods
2,111921,121220
//Storyboard Layer 0 (Background)
//Storyboard Layer 1 (Fail)
//Storyboard Layer 2 (Pass)
//Storyboard Layer 3 (Foreground)
//Storyboard Sound Samples
//Background Colour Transformations
3,100,163,162,255

[TimingPoints]
1226,297.029702970297,4,2,1,60,1,0
1820,-200,4,2,1,40,0,0
7166,-133.333333333333,4,2,1,60,0,0
8948,-133.333333333333,4,2,1,40,0,0
9097,-133.333333333333,4,2,1,50,0,0
9245,-133.333333333333,4,2,1,60,0,0
11919,-100,4,2,1,60,0,0
70730,-200,4,2,1,60,0,0
71325,-100,4,2,1,60,0,1
85582,-100,4,2,1,60,0,0
121820,-200,4,2,1,40,0,0
142612,-100,4,2,1,60,0,0
163404,-200,4,2,1,60,0,0
163998,-100,4,2,1,60,0,1
183008,-200,4,2,2,60,0,0
183602,-200,4,2,1,60,0,0
184196,-100,4,2,1,60,0,1
197265,-100,4,2,1,60,0,0
223404,-100,4,2,1,50,0,0
224295,-100,4,2,1,40,0,0
225483,-100,4,2,1,30,0,0
226671,-100,4,2,1,20,0,0
227661,-100,4,2,1,30,0,0

[Colours]
Combo1 : 255,255,187
Combo2 : 191,255,191
Combo3 : 204,204,255
Combo4 : 255,200,255

[HitObjects]
116,264,1820,1,0,0:0:0:0:
116,264,1968,1,0,0:0:0:0:
116,264,2117,1,0,0:0:0:0:
116,264,2265,1,0,0:0:0:0:
116,264,2414,2,0,P|164:256|212:256,1,90,4|0,0:0|0:0,0:0:0:0:
292,176,3008,2,0,P|244:168|196:168,1,90
256,328,3602,6,0,P|304:336|352:336,2,90
376,220,4493,1,0,0:0:0:0:
448,312,4790,5,0,0:0:0:0:
496,204,5087,1,0,0:0:0:0:
408,128,5384,2,0,P|404:80|408:36,2,90
448,312,6275,6,0,P|404:324|356:312,1,90
340,236,6721,2,0,P|296:224|248:236,1,90
196,316,7166,6,0,P|136:332|56:312,2,135.000005149842,4|2|2,0:0|0:0|0:0,0:0:0:0:
256,124,8057,1,2,0:0:0:0:
136,60,8354,2,0,P|120:124|136:196,1,135.000005149842,2|2,0:0|0:0,0:0:0:0:
324,192,8948,1,8,0:0:0:0:
352,209,9023,1,8,0:0:0:0:
385,215,9097,1,8,0:0:0:0:
418,210,9171,1,8,0:0:0:0:
447,192,9245,1,8,0:0:0:0:
447,192,9542,6,0,L|416:328,1,135.000005149842,4|0,0:0|0:0,0:0:0:0:
328,296,9988,1,2,0:0:0:0:
256,356,10136,2,0,P|200:376|128:352,1,135.000005149842,2|0,0:0|0:0,0:0:0:0:
64,204,10582,1,0,0:0:0:0:
176,196,10730,6,0,P|188:232|192:268,1,67.5000025749208
256,84,11027,2,0,P|244:48|240:12,1,67.5000025749208,8|0,0:0|0:0,0:0:0:0:
360,80,11325,1,2,0:0:0:0:
292,208,11473,1,6,0:0:0:0:
292,208,11919,6,0,P|336:196|384:200,1,90,4|0,0:0|0:0,0:0:0:0:
444,340,12216,2,0,P|400:352|352:348,1,90,8|0,0:0|0:0,0:0:0:0:
260,296,12513,1,2,0:0:0:0:
188,376,12661,1,2,0:0:0:0:
104,260,12810,2,0,P|88:216|88:172,1,90,8|0,0:0|0:0,0:0:0:0:
168,24,13107,6,0,P|208:92|200:192,1,180,2|8,0:0|0:0,0:0:0:0:
104,260,13552,1,0,0:0:0:0:
128,108,13701,2,0,P|84:100|28:104,1,90,2|2,0:0|0:0,0:0:0:0:
104,260,13998,2,0,P|148:268|204:264,1,90,8|0,0:0|0:0,0:0:0:0:
384,192,14295,5,2,0:0:0:0:
300,124,14443,1,0,0:0:0:0:
284,232,14592,2,0,P|276:276|260:320,1,90,8|0,0:0|0:0,0:0:0:0:
204,172,14889,1,2,0:0:0:0:
300,124,15037,1,2,0:0:0:0:
368,292,15186,2,0,P|416:296|460:292,1,90,8|0,0:0|0:0,0:0:0:0:
512,116,15483,6,0,P|464:112|420:116,1,90,2|0,0:0|0:0,0:0:0:0:
284,232,15780,2,0,P|236:236|192:232,1,90,8|0,0:0|0:0,0:0:0:0:
140,100,16077,1,2,0:0:0:0:
140,100,16151,1,0,0:0:0:0:
140,100,16226,1,2,0:0:0:0:
260,20,16374,2,0,P|264:64|252:108,1,90,8|0,0:0|0:0,0:0:0:0:
84,276,16671,6,0,P|80:232|92:188,1,90,4|0,0:0|0:0,0:0:0:0:
56,68,16968,2,0,P|84:34|123:11,1,90,8|0,0:0|0:0,0:0:0:0:
252,108,17265,1,2,0:0:0:0:
252,108,17414,1,2,0:0:0:0:
208,224,17562,1,8,0:0:0:0:
332,200,17711,1,0,0:0:0:0:
132,128,17859,6,0,P|88:124|40:128,1,90,2|0,0:0|0:0,0:0:0:0:
160,308,18156,2,0,P|205:311|249:307,1,90,8|0,0:0|0:0,0:0:0:0:
252,108,18453,1,2,0:0:0:0:
208,224,18602,1,2,0:0:0:0:
332,200,18750,2,0,P|377:196|421:200,1,90,8|0,0:0|0:0,0:0:0:0:
376,376,19047,6,0,P|372:328|376:284,1,90,2|0,0:0|0:0,0:0:0:0:
496,156,19344,2,0,P|500:204|496:248,1,90,8|0,0:0|0:0,0:0:0:0:
332,200,19641,1,2,0:0:0:0:
332,200,19790,1,2,0:0:0:0:
404,120,19938,2,0,P|424:80|432:36,1,90,8|0,0:0|0:0,0:0:0:0:
256,136,20235,6,0,P|236:176|228:220,1,90,2|0,0:0|0:0,0:0:0:0:
288,376,20532,2,0,P|308:336|316:292,1,90,8|0,0:0|0:0,0:0:0:0:
332,200,20829,1,2,0:0:0:0:
332,200,20978,1,2,0:0:0:0:
392,320,21126,1,8,0:0:0:0:
236,308,21275,1,0,0:0:0:0:
224,308,21349,1,0,0:0:0:0:
212,308,21424,6,0,B|168:288|128:320|128:320|80:312|56:264,1,180,4|8,0:0|0:0,0:0:0:0:
144,192,21869,1,0,0:0:0:0:
220,60,22018,2,0,P|240:96|248:144,1,90,2|2,0:0|0:0,0:0:0:0:
382,160,22315,2,0,P|370:199|342:239,1,90,8|0,0:0|0:0,0:0:0:0:
148,329,22612,6,0,P|98:250|150:190,1,180,2|8,0:0|0:0,0:0:0:0:
260,184,23057,1,0,0:0:0:0:
284,300,23206,1,2,0:0:0:0:
172,260,23354,1,2,0:0:0:0:
192,108,23503,1,8,0:0:0:0:
344,100,23651,1,0,0:0:0:0:
344,100,23725,1,0,0:0:0:0:
344,100,23800,6,0,B|400:84|416:44|416:44|512:44,1,180,2|8,0:0|0:0,0:0:0:0:
472,148,24245,1,0,0:0:0:0:
412,268,24394,2,0,P|400:224|392:176,1,90,2|0,0:0|0:0,0:0:0:0:
240,96,24691,2,0,P|252:140|260:188,1,90,8|0,0:0|0:0,0:0:0:0:
228,332,24988,5,2,0:0:0:0:
92,332,25136,1,0,0:0:0:0:
40,192,25285,2,0,P|84:188|132:192,1,90,8|0,0:0|0:0,0:0:0:0:
256,244,25582,2,0,P|300:248|348:244,1,90,2|2,0:0|0:0,0:0:0:0:
436,152,25879,1,8,0:0:0:0:
436,152,25953,1,0,0:0:0:0:
436,152,26027,1,0,0:0:0:0:
436,152,26102,1,0,0:0:0:0:
436,152,26176,6,0,P|484:84|436:12,2,180,4|8|2,0:0|0:0|0:0,0:0:0:0:
328,172,26919,1,2,0:0:0:0:
293,70,27067,1,8,0:0:0:0:
409,82,27216,1,8,0:0:0:0:
396,260,27364,6,0,P|324:304|252:248,1,180,4|8,0:0|0:0,0:0:0:0:
208,128,27810,2,0,P|136:84|64:140,1,180,4|0,0:0|0:0,0:0:0:0:
34,254,28255,1,8,0:0:0:0:
124,344,28404,1,8,0:0:0:0:
138,159,28552,5,4,0:0:0:0:
138,159,28849,1,8,0:0:0:0:
138,159,29146,1,8,0:0:0:0:
184,236,29295,2,0,P|256:280|328:224,2,180,8|8|4,0:0|0:0|0:0,0:0:0:0:
325,49,30186,5,2,0:0:0:0:
408,208,30334,2,0,P|399:251|380:293,1,90,2|2,0:0|0:0,0:0:0:0:
255,203,30631,2,0,P|264:160|282:117,1,90,8|2,0:0|0:0,0:0:0:0:
488,184,30928,6,0,P|476:272|440:356,1,180,4|8,0:0|0:0,0:0:0:0:
352,308,31374,1,0,0:0:0:0:
255,203,31523,2,0,P|300:200|346:204,1,90,2|2,0:0|0:0,0:0:0:0:
352,308,31820,1,8,0:0:0:0:
256,360,31968,1,0,0:0:0:0:
160,240,32117,6,0,P|140:152|160:64,1,180,2|8,0:0|0:0,0:0:0:0:
256,112,32562,1,2,0:0:0:0:
352,164,32711,2,0,P|400:168|448:164,1,90,0|2,0:0|0:0,0:0:0:0:
372,28,33008,2,0,P|324:24|276:28,1,90,8|0,0:0|0:0,0:0:0:0:
180,144,33305,6,0,P|96:180|20:144,1,180,2|8,0:0|0:0,0:0:0:0:
48,40,33750,1,0,0:0:0:0:
20,144,33899,2,0,P|28:188|28:236,1,90,2|2,0:0|0:0,0:0:0:0:
32,340,34196,1,8,0:0:0:0:
108,264,34344,1,0,0:0:0:0:
136,368,34493,6,0,B|180:384|216:352|216:352|264:344|304:384,1,180,2|8,0:0|0:0,0:0:0:0:
376,304,34938,1,0,0:0:0:0:
244,248,35087,2,0,P|232:204|232:160,1,90,2|0,0:0|0:0,0:0:0:0:
356,84,35384,2,0,P|368:128|368:172,1,90,8|0,0:0|0:0,0:0:0:0:
376,304,35681,6,0,P|420:289|472:288,1,90,2|0,0:0|0:0,0:0:0:0:
284,144,35978,2,0,P|239:158|188:160,1,90,8|0,0:0|0:0,0:0:0:0:
28,180,36275,1,2,0:0:0:0:
100,64,36424,1,2,0:0:0:0:
148,244,36572,1,8,0:0:0:0:
100,64,36721,1,0,0:0:0:0:
148,244,36869,6,0,P|236:252|324:228,1,180,2|8,0:0|0:0,0:0:0:0:
360,96,37315,1,0,0:0:0:0:
244,32,37463,2,0,P|232:76|236:120,1,90,2|0,0:0|0:0,0:0:0:0:
400,280,37760,2,0,P|412:236|408:192,1,90,8|0,0:0|0:0,0:0:0:0:
360,96,38057,5,2,0:0:0:0:
360,96,38131,1,0,0:0:0:0:
360,96,38206,1,0,0:0:0:0:
272,200,38354,2,0,P|228:204|184:192,1,90,8|0,0:0|0:0,0:0:0:0:
212,8,38651,1,2,0:0:0:0:
232,116,38800,1,2,0:0:0:0:
88,240,38948,1,8,0:0:0:0:
68,132,39097,1,0,0:0:0:0:
232,116,39245,6,0,B|280:104|296:60|296:60|392:60,1,180,2|8,0:0|0:0,0:0:0:0:
448,148,39691,1,2,0:0:0:0:
316,240,39839,2,0,P|320:195|340:155,1,90,0|2,0:0|0:0,0:0:0:0:
440,260,40136,2,0,P|435:304|415:344,1,90,8|0,0:0|0:0,0:0:0:0:
272,332,40433,6,0,B|224:320|208:276|208:276|112:276,1,180,4|8,0:0|0:0,0:0:0:0:
116,276,40879,1,0,0:0:0:0:
228,188,41027,2,0,P|240:144|236:100,1,90,2|0,0:0|0:0,0:0:0:0:
92,44,41325,2,0,P|80:88|84:132,1,90,8|0,0:0|0:0,0:0:0:0:
236,100,41622,6,0,P|316:72|412:96,1,180,2|8,0:0|0:0,0:0:0:0:
364,172,42067,1,2,0:0:0:0:
144,236,42216,2,0,P|140:188|143:146,1,90,0|2,0:0|0:0,0:0:0:0:
304,240,42513,2,0,P|308:288|304:329,1,90,8|0,0:0|0:0,0:0:0:0:
32,269,42810,5,2,0:0:0:0:
32,268,43107,2,0,P|80:264|132:268,1,90,8|0,0:0|0:0,0:0:0:0:
228,288,43404,1,2,0:0:0:0:
332,320,43552,6,0,P|384:264|352:172,1,180,2|2,0:0|0:0,0:0:0:0:
188,244,43998,1,2,0:0:0:0:
304,240,44146,1,0,0:0:0:0:
248,144,44295,2,0,P|240:100|248:56,1,90,8|0,0:0|0:0,0:0:0:0:
420,8,44592,2,0,P|428:52|420:96,1,90,2|0,0:0|0:0,0:0:0:0:
304,240,44889,6,0,P|216:264|132:236,2,180,8|2|8,0:0|0:0|0:0,0:0:0:0:
248,144,45631,1,0,0:0:0:0:
168,32,45780,2,0,P|152:72|152:120,1,90,2|2,0:0|0:0,0:0:0:0:
288,326,46077,2,0,P|304:286|304:238,1,90,8|0,0:0|0:0,0:0:0:0:
300,60,46374,6,0,P|384:24|464:56,1,180,2|8,0:0|0:0,0:0:0:0:
428,148,46820,1,0,0:0:0:0:
360,220,46968,2,0,P|344:260|340:316,1,90,2|0,0:0|0:0,0:0:0:0:
452,384,47265,2,0,P|468:344|472:288,1,90,8|0,0:0|0:0,0:0:0:0:
340,308,47562,6,0,P|256:344|176:312,1,180,2|8,0:0|0:0,0:0:0:0:
140,212,48008,1,0,0:0:0:0:
120,372,48156,1,2,0:0:0:0:
256,256,48305,1,2,0:0:0:0:
88,292,48453,2,0,P|60:252|44:212,1,90,8|0,0:0|0:0,0:0:0:0:
136,80,48750,5,2,0:0:0:0:
140,212,48899,1,6,0:0:0:0:
272,244,49047,2,0,P|316:240|364:244,1,90,8|0,0:0|0:0,0:0:0:0:
481,112,49344,2,0,P|436:116|392:112,1,90
452,212,49641,2,0,P|448:256|451:301,1,90,2|0,0:0|0:0,0:0:0:0:
283,314,49938,6,0,P|211:286|223:192,2,180,4|8|2,0:0|0:0|0:0,0:0:0:0:
400,240,50681,1,2,0:0:0:0:
332,156,50829,1,8,0:0:0:0:
272,244,50978,1,0,0:0:0:0:
400,240,51126,6,0,P|424:152|400:68,1,180,2|8,0:0|0:0,0:0:0:0:
304,152,51572,1,0,0:0:0:0:
260,52,51721,2,0,P|212:48|164:52,1,90,2|0,0:0|0:0,0:0:0:0:
104,200,52018,2,0,P|152:204|200:200,1,90,8|0,0:0|0:0,0:0:0:0:
428,184,52315,6,0,P|448:144|459:100,1,90,2|0,0:0|0:0,0:0:0:0:
304,160,52612,2,0,P|284:200|272:243,1,90,8|0,0:0|0:0,0:0:0:0:
328,348,52909,1,2,0:0:0:0:
328,348,53057,1,2,0:0:0:0:
380,244,53206,2,0,P|424:236|472:232,1,90,8|0,0:0|0:0,0:0:0:0:
328,348,53503,6,0,P|244:368|152:344,1,180,2|8,0:0|0:0,0:0:0:0:
120,216,53948,1,0,0:0:0:0:
224,132,54097,2,0,P|232:180|224:224,1,90,2|0,0:0|0:0,0:0:0:0:
60,296,54394,1,8,0:0:0:0:
60,296,54691,5,2,0:0:0:0:
180,236,54839,1,0,0:0:0:0:
300,300,54988,2,0,P|348:306|392:300,1,90,8|0,0:0|0:0,0:0:0:0:
468,192,55285,1,2,0:0:0:0:
468,192,55433,1,2,0:0:0:0:
352,192,55582,6,0,B|316:136|316:136|356:92|332:28,1,180,8|2,0:0|0:0,0:0:0:0:
252,68,56027,1,0,0:0:0:0:
256,204,56176,2,0,P|260:248|244:296,1,90,8|0,0:0|0:0,0:0:0:0:
156,236,56473,2,0,P|127:269|82:292,1,90,2|0,0:0|0:0,0:0:0:0:
32,152,56770,2,0,P|108:108|188:152,1,180,8|2,0:0|0:0,0:0:0:0:
228,292,57216,5,0,0:0:0:0:
104,316,57364,2,0,P|76:284|64:236,1,90,8|0,0:0|0:0,0:0:0:0:
128,112,57661,1,2,0:0:0:0:
252,84,57810,1,2,0:0:0:0:
308,196,57958,1,8,0:0:0:0:
228,292,58107,1,0,0:0:0:0:
252,84,58255,5,2,0:0:0:0:
252,84,58552,2,0,P|300:80|344:84,1,90,8|0,0:0|0:0,0:0:0:0:
428,148,58849,1,2,0:0:0:0:
388,300,58998,1,0,0:0:0:0:
308,196,59146,1,8,0:0:0:0:
484,236,59295,1,8,0:0:0:0:
308,196,59443,6,0,P|220:184|128:200,1,180,4|8,0:0|0:0,0:0:0:0:
176,308,59889,1,0,0:0:0:0:
64,336,60037,2,0,P|48:292|40:248,1,90,2|0,0:0|0:0,0:0:0:0:
72,28,60334,2,0,P|88:72|96:116,1,90,8|0,0:0|0:0,0:0:0:0:
172,235,60631,6,0,P|260:259|308:195,1,180,2|8,0:0|0:0,0:0:0:0:
226,98,61077,1,0,0:0:0:0:
226,98,61225,2,2,P|225:145|234:189,1,90,2|0,0:0|0:0,0:0:0:0:
385,240,61523,2,0,P|386:193|377:149,1,90,8|0,0:0|0:0,0:0:0:0:
286,51,61820,6,0,P|198:27|150:91,2,180,2|8|2,0:0|0:0|0:0,0:0:0:0:
304,168,62562,1,2,0:0:0:0:
228,256,62711,1,8,0:0:0:0:
227,98,62859,1,0,0:0:0:0:
380,116,63008,6,0,P|412:192|384:284,1,180,4|8,0:0|0:0,0:0:0:0:
228,256,63453,1,0,0:0:0:0:
104,148,63602,2,0,P|148:140|196:148,1,90,6|0,0:0|0:0,0:0:0:0:
116,292,63899,2,0,P|72:300|24:292,2,90,4|2|0,0:0|0:0|0:0,0:0:0:0:
256,28,64493,5,0,0:0:0:0:
324,112,64641,1,0,0:0:0:0:
256,196,64790,2,0,P|220:272|256:360,1,180,8|0,0:0|0:0,0:0:0:0:
344,368,65235,1,2,0:0:0:0:
316,284,65384,5,8,0:0:0:0:
136,336,65532,1,8,0:0:0:0:
136,336,65829,1,0,0:0:0:0:
148,228,65978,2,0,P|136:180|116:140,1,90,8|0,0:0|0:0,0:0:0:0:
24,240,66275,2,0,P|36:288|56:328,1,90,2|0,0:0|0:0,0:0:0:0:
220,280,66572,6,0,P|308:256|392:276,1,180,4|0,0:0|0:0,0:0:0:0:
352,356,67018,1,2,0:0:0:0:
300,224,67166,2,0,P|288:180|284:136,1,90,8|0,0:0|0:0,0:0:0:0:
428,56,67463,2,0,P|440:100|444:144,1,90,0|8,0:0|0:0,0:0:0:0:
352,356,67760,6,0,P|312:372|256:376,1,90,4|0,0:0|0:0,0:0:0:0:
220,280,68057,2,0,P|177:273|126:249,1,90
248,140,68354,2,0,P|288:124|344:120,1,90,8|0,0:0|0:0,0:0:0:0:
380,216,68651,2,0,P|422:222|473:246,1,90,8|0,0:0|0:0,0:0:0:0:
352,356,68948,5,8,0:0:0:0:
352,356,69245,1,8,0:0:0:0:
220,280,69542,5,8,0:0:0:0:
248,140,69691,1,8,0:0:0:0:
248,140,69988,1,8,0:0:0:0:
380,216,70285,1,8,0:0:0:0:
220,280,70582,1,8,0:0:0:0:
80,192,70730,6,0,L|16:192,2,45,2|0|0,0:0|0:0|0:0,0:0:0:0:
80,192,71325,6,0,P|120:116|80:36,2,180,4|8|2,0:0|0:0|0:0,0:0:0:0:
36,320,72067,1,2,0:0:0:0:
160,264,72216,2,0,P|208:256|252:264,1,90,8|0,0:0|0:0,0:0:0:0:
408,300,72513,6,0,P|464:240|436:152,1,180,2|8,0:0|0:0,0:0:0:0:
260,132,72958,1,0,0:0:0:0:
372,40,73107,1,2,0:0:0:0:
384,220,73255,1,2,0:0:0:0:
256,344,73404,2,0,P|276:304|312:272,1,90,8|0,0:0|0:0,0:0:0:0:
372,132,73701,6,0,P|386:174|383:222,1,90,2|0,0:0|0:0,0:0:0:0:
172,192,73998,2,0,P|157:149|160:101,1,90,8|0,0:0|0:0,0:0:0:0:
260,132,74295,1,2,0:0:0:0:
268,240,74443,1,2,0:0:0:0:
172,192,74592,6,0,P|80:176|40:252,2,180,8|2|8,0:0|0:0|0:0,0:0:0:0:
208,292,75334,1,2,0:0:0:0:
116,348,75483,1,0,0:0:0:0:
116,240,75631,1,2,0:0:0:0:
268,240,75780,2,0,L|276:148,1,90,8|0,0:0|0:0,0:0:0:0:
176,16,76077,6,0,L|168:108,1,90,4|0,0:0|0:0,0:0:0:0:
336,368,76374,2,0,L|344:276,1,90,8|0,0:0|0:0,0:0:0:0:
408,128,76671,1,2,0:0:0:0:
440,232,76820,1,2,0:0:0:0:
343,279,76968,2,0,P|299:271|267:239,1,90,8|0,0:0|0:0,0:0:0:0:
268,92,77265,6,0,P|312:164|268:240,1,180,4|8,0:0|0:0,0:0:0:0:
132,308,77711,1,0,0:0:0:0:
60,172,77859,2,0,L|32:84,1,90,2|0,0:0|0:0,0:0:0:0:
232,164,78156,2,0,L|160:104,1,90,8|0,0:0|0:0,0:0:0:0:
364,40,78453,6,0,L|264:40,1,90,2|0,0:0|0:0,0:0:0:0:
104,40,78750,1,8,0:0:0:0:
104,40,78899,1,0,0:0:0:0:
60,172,79047,2,0,P|64:216|84:256,1,90,2|2,0:0|0:0,0:0:0:0:
256,248,79344,2,0,P|252:204|232:164,2,90,8|0|2,0:0|0:0|0:0,0:0:0:0:
140,348,79790,1,0,0:0:0:0:
256,248,79938,5,8,0:0:0:0:
316,348,80087,1,2,0:0:0:0:
368,244,80235,2,0,P|412:232|456:232,1,90,0|2,0:0|0:0,0:0:0:0:
444,320,80532,1,8,0:0:0:0:
400,152,80681,1,0,0:0:0:0:
256,248,80829,6,0,B|216:272|176:248|176:248|128:264|108:316,1,180,4|8,0:0|0:0,0:0:0:0:
109,312,81275,1,0,0:0:0:0:
216,176,81424,2,0,P|228:132|224:88,1,90,2|2,0:0|0:0,0:0:0:0:
80,132,81721,2,0,P|68:176|71:219,1,90,8|0,0:0|0:0,0:0:0:0:
228,320,82018,6,0,P|320:296|328:216,2,180,4|8|0,0:0|0:0|0:0,0:0:0:0:
216,176,82760,1,2,0:0:0:0:
152,264,82909,2,0,P|140:308|140:352,1,90,8|0,0:0|0:0,0:0:0:0:
131,169,83206,6,0,P|91:192|60:223,1,90,2|0,0:0|0:0,0:0:0:0:
184,88,83503,2,0,P|140:76|96:76,1,90,8|0,0:0|0:0,0:0:0:0:
60,224,83800,1,2,0:0:0:0:
140,352,83948,1,2,0:0:0:0:
252,248,84097,2,0,P|332:208|408:244,1,180,8|2,0:0|0:0,0:0:0:0:
372,324,84542,1,0,0:0:0:0:
304,176,84691,6,0,P|288:132|284:88,1,90,8|0,0:0|0:0,0:0:0:0:
408,0,84988,2,0,P|424:44|428:88,1,90,2|0,0:0|0:0,0:0:0:0:
408,112,85211,2,0,P|396:172|408:244,1,135,8|0,0:0|0:0,0:0:0:0:
252,248,85582,6,0,B|212:224|212:224|152:264|84:220,1,180,4|0,0:0|0:0,0:0:0:0:
86,221,86027,1,0,0:0:0:0:
216,124,86176,1,8,0:0:0:0:
156,14,86325,2,0,P|112:86|156:166,1,180,0|2,0:0|0:0,0:0:0:0:
288,172,86770,5,0,0:0:0:0:
260,332,86919,1,8,0:0:0:0:
260,332,87216,1,2,0:0:0:0:
344,264,87364,1,8,0:0:0:0:
288,172,87513,2,0,P|204:160|108:176,1,180,0|0,0:0|0:0,0:0:0:0:
0,356,87958,6,0,P|84:368|180:352,1,180,4|2,0:0|0:0,0:0:0:0:
172,264,88404,1,0,0:0:0:0:
104,208,88552,2,0,P|88:116|104:28,2,180,8|2|4,0:0|0:0|0:0,0:0:0:0:
252,308,89295,1,4,0:0:0:0:
252,308,89740,5,4,0:0:0:0:
388,192,89889,1,4,0:0:0:0:
388,192,90186,1,0,0:0:0:0:
388,192,90260,1,0,0:0:0:0:
388,192,90334,6,0,P|312:156|228:200,2,180,4|2|8,0:0|0:0|0:0,0:0:0:0:
380,280,91077,1,0,0:0:0:0:
456,128,91225,1,2,0:0:0:0:
488,344,91374,1,8,0:0:0:0:
64,188,92711,6,0,P|148:152|232:188,1,180,4|8,0:0|0:0,0:0:0:0:
292,268,93156,1,0,0:0:0:0:
188,356,93305,2,0,P|188:312|198:267,1,90,2|2,0:0|0:0,0:0:0:0:
368,112,93602,2,0,P|368:156|357:200,1,90,8|0,0:0|0:0,0:0:0:0:
292,268,93899,5,2,0:0:0:0:
292,268,94047,1,0,0:0:0:0:
184,172,94196,2,0,P|228:172|272:182,1,90,8|2,0:0|0:0,0:0:0:0:
468,296,94493,2,0,P|424:296|379:285,1,90,0|2,0:0|0:0,0:0:0:0:
372,60,94790,2,0,P|371:104|361:148,1,90,8|0,0:0|0:0,0:0:0:0:
248,340,95087,6,0,P|212:260|264:192,1,180,2|8,0:0|0:0,0:0:0:0:
380,188,95532,1,0,0:0:0:0:
396,304,95681,1,2,0:0:0:0:
292,268,95829,1,2,0:0:0:0:
292,116,95978,1,8,0:0:0:0:
380,188,96126,1,0,0:0:0:0:
208,188,96275,6,0,B|164:176|156:136|156:136|44:136,1,180,2|8,0:0|0:0,0:0:0:0:
53,136,96721,1,2,0:0:0:0:
60,292,96869,2,0,P|32:256|16:208,1,90,0|2,0:0|0:0,0:0:0:0:
96,24,97166,2,0,P|124:60|140:108,1,90,8|0,0:0|0:0,0:0:0:0:
140,228,97463,6,0,P|220:264|280:208,2,180,2|8|2,0:0|0:0|0:0,0:0:0:0:
139,101,98206,1,2,0:0:0:0:
59,214,98354,1,8,0:0:0:0:
120,336,98503,1,0,0:0:0:0:
208,188,98651,6,0,P|268:132|348:168,1,180,2|8,0:0|0:0,0:0:0:0:
300,292,99097,1,2,0:0:0:0:
300,292,99245,2,0,P|288:244|284:204,1,90,0|2,0:0|0:0,0:0:0:0:
412,92,99542,2,0,P|424:140|428:180,1,90,8|0,0:0|0:0,0:0:0:0:
388,320,99839,6,0,P|304:336|208:324,1,180,2|8,0:0|0:0,0:0:0:0:
248,224,100285,1,0,0:0:0:0:
140,212,100433,2,0,P|132:168|132:120,1,90,2|0,0:0|0:0,0:0:0:0:
272,24,100730,2,0,P|280:68|280:116,1,90,8|0,0:0|0:0,0:0:0:0:
344,224,101027,6,0,P|432:244|472:176,1,180,2|8,0:0|0:0,0:0:0:0:
448,52,101473,1,2,0:0:0:0:
400,176,101622,1,0,0:0:0:0:
400,176,101696,1,0,0:0:0:0:
400,176,101770,1,2,0:0:0:0:
328,96,101919,2,0,P|284:92|236:96,1,90,8|0,0:0|0:0,0:0:0:0:
204,236,102216,6,0,P|120:248|24:236,1,180,4|8,0:0|0:0,0:0:0:0:
16,148,102661,1,0,0:0:0:0:
100,40,102810,2,0,P|108:84|108:136,1,90,2|0,0:0|0:0,0:0:0:0:
28,236,103107,2,0,P|28:281|36:325,1,90,8|0,0:0|0:0,0:0:0:0:
172,348,103404,5,2,0:0:0:0:
172,348,103552,1,0,0:0:0:0:
204,236,103701,2,0,P|248:224|292:220,1,90,8|0,0:0|0:0,0:0:0:0:
448,320,103998,2,0,P|368:340|264:328,1,180,2|8,0:0|0:0,0:0:0:0:
292,220,104443,1,0,0:0:0:0:
404,136,104592,2,0,P|412:180|408:224,1,90,2|0,0:0|0:0,0:0:0:0:
292,220,104889,1,8,0:0:0:0:
284,84,105037,6,0,P|244:64|196:52,2,90,0|2|0,0:0|0:0|0:0,0:0:0:0:
292,220,105483,1,8,0:0:0:0:
404,136,105631,1,0,0:0:0:0:
212,160,105780,2,0,P|196:248|212:336,1,180,0|8,0:0|0:0,0:0:0:0:
292,220,106225,1,0,0:0:0:0:
348,312,106374,2,0,P|396:320|440:312,1,90,2|0,0:0|0:0,0:0:0:0:
404,136,106671,2,0,P|363:129|315:137,1,90,8|0,0:0|0:0,0:0:0:0:
196,272,106968,6,0,B|124:292|80:224|80:224|64:264,1,180,2|8,0:0|0:0,0:0:0:0:
88,368,107414,1,0,0:0:0:0:
64,264,107562,2,0,P|56:220|56:168,1,90,2|2,0:0|0:0,0:0:0:0:
204,72,107859,2,0,P|212:116|212:168,1,90,8|0,0:0|0:0,0:0:0:0:
196,272,108156,6,0,P|256:328|340:296,1,180,2|8,0:0|0:0,0:0:0:0:
360,192,108602,1,2,0:0:0:0:
428,272,108750,2,0,P|432:316|424:360,1,90,0|2,0:0|0:0,0:0:0:0:
276,252,109047,2,0,P|272:208|280:164,1,90,8|0,0:0|0:0,0:0:0:0:
452,20,109344,6,0,P|464:104|440:196,1,180,2|8,0:0|0:0,0:0:0:0:
440,194,109790,1,0,0:0:0:0:
364,92,109938,1,2,0:0:0:0:
276,252,110087,1,2,0:0:0:0:
420,356,110235,2,0,P|400:316|364:280,1,90,8|0,0:0|0:0,0:0:0:0:
212,192,110532,1,2,0:0:0:0:
92,328,110681,6,0,P|140:336|184:328,1,90,4|2,0:0|0:0,0:0:0:0:
276,252,110978,1,2,0:0:0:0:
276,252,111052,1,0,0:0:0:0:
276,252,111126,2,0,P|324:244|368:252,1,90,2|0,0:0|0:0,0:0:0:0:
324,332,111424,1,8,0:0:0:0:
288,168,111572,1,0,0:0:0:0:
456,136,111721,1,4,0:0:0:0:
452,192,121820,6,0,P|416:212|368:224,1,90,4|0,0:0|0:0,0:0:0:0:
248,148,122414,2,0,P|284:128|332:116,2,90,0|8|0,0:0|0:0|0:0,0:0:0:0:
292,284,123305,1,0,0:0:0:0:
164,348,123602,5,0,0:0:0:0:
112,212,123899,2,0,L|108:116,1,90,0|8,0:0|0:0,0:0:0:0:
136,88,124344,2,0,P|180:76|236:68,1,90
268,64,124790,5,2,0:0:0:0:
316,188,125087,1,2,0:0:0:0:
256,308,125384,2,0,P|208:304|160:308,2,90,8|0|0,0:0|0:0|0:0,0:0:0:0:
296,324,126126,2,0,L|300:376,1,45,2|0,0:0|0:0,0:0:0:0:
392,164,126572,6,0,L|400:256,1,90,8|0,0:0|0:0,0:0:0:0:
428,292,127018,2,0,L|472:296,1,45
312,216,127463,2,0,P|268:220|220:212,2,90,0|8|0,0:0|0:0|0:0,0:0:0:0:
328,176,128206,1,0,0:0:0:0:
252,84,128354,6,0,P|160:72|72:88,1,180,4|0,0:0|0:0,0:0:0:0:
44,192,129245,2,0,P|48:220|48:248,1,45,0|8,0:0|0:0,0:0:0:0:
136,232,129542,2,0,P|128:280|96:320,1,90
236,372,130136,5,8,0:0:0:0:
316,344,130285,1,8,0:0:0:0:
332,260,130433,1,8,0:0:0:0:
300,180,130582,1,8,0:0:0:0:
220,152,130730,2,0,L|168:152,2,45
388,188,131325,6,0,P|436:180|476:184,1,90
380,336,131919,2,0,P|332:344|292:340,2,90,0|0|8,0:0|0:0|0:0,0:0:0:0:
332,260,132810,1,0,0:0:0:0:
388,188,133107,2,0,L|388:140,1,45
440,92,133404,6,0,P|404:72|352:80,1,90,0|8,0:0|0:0,0:0:0:0:
324,108,133849,2,0,P|276:116|228:108,1,90
208,76,134295,5,0,0:0:0:0:
260,228,134592,1,0,0:0:0:0:
116,304,134889,2,0,P|112:256|116:212,1,90,8|0,0:0|0:0,0:0:0:0:
136,176,135334,1,0,0:0:0:0:
232,308,135483,6,0,P|260:312|284:312,1,45,0|2,0:0|0:0,0:0:0:0:
316,288,135780,2,0,P|364:280|404:288,2,90,2|8|0,0:0|0:0|0:0,0:0:0:0:
308,244,136523,1,0,0:0:0:0:
300,200,136671,2,0,L|292:148,2,45
224,312,137265,6,0,P|176:320|128:308,1,90,8|0,0:0|0:0,0:0:0:0:
116,272,137711,1,0,0:0:0:0:
192,184,137859,2,0,P|212:96|192:8,1,180,2|8,0:0|0:0,0:0:0:0:
84,116,138750,2,0,P|68:132|40:144,1,45,0|8,0:0|0:0,0:0:0:0:
48,141,139047,2,0,P|46:189|40:236,1,90,0|2,0:0|0:0,0:0:0:0:
184,340,139641,6,0,L|196:296,1,45,8|0,0:0|0:0,0:0:0:0:
288,300,139938,2,0,L|300:256,1,45,0|0,0:0|0:0,0:0:0:0:
303,245,140161,1,0,0:0:0:0:
306,234,140235,2,0,L|316:197,1,22.5
256,148,140532,2,0,L|256:112,6,22.5
136,192,141275,2,0,L|72:192,1,45,0|8,0:0|0:0,0:0:0:0:
4,116,142018,6,0,L|60:116,1,45
136,192,142315,2,0,L|192:192,1,45
256,272,142612,6,0,P|344:256|432:272,1,180,4|8,0:0|0:0,0:0:0:0:
500,188,143057,1,0,0:0:0:0:
396,160,143206,2,0,P|388:116|392:68,1,90,2|2,0:0|0:0,0:0:0:0:
500,188,143503,2,0,P|508:232|504:280,1,90,8|0,0:0|0:0,0:0:0:0:
344,344,143800,6,0,P|256:360|168:344,1,180,2|8,0:0|0:0,0:0:0:0:
152,236,144245,1,2,0:0:0:0:
264,128,144394,2,0,P|272:172|268:220,1,90,0|2,0:0|0:0,0:0:0:0:
92,152,144691,2,0,P|136:144|184:148,1,90,8|0,0:0|0:0,0:0:0:0:
348,232,144988,6,0,P|424:276|492:224,2,180,2|8|2,0:0|0:0|0:0,0:0:0:0:
360,124,145730,1,2,0:0:0:0:
468,104,145879,1,8,0:0:0:0:
420,200,146027,1,0,0:0:0:0:
288,168,146176,6,0,P|244:160|200:168,1,90,2|0,0:0|0:0,0:0:0:0:
100,284,146473,2,0,P|144:292|188:284,1,90,8|2,0:0|0:0,0:0:0:0:
292,248,146770,1,0,0:0:0:0:
264,352,146919,1,2,0:0:0:0:
148,212,147067,2,0,P|108:128|152:56,1,180,8|2,0:0|0:0,0:0:0:0:
196,136,147513,5,0,0:0:0:0:
284,160,147661,2,0,P|328:164|376:160,1,90,8|0,0:0|0:0,0:0:0:0:
416,240,147958,2,0,P|445:207|471:166,1,90,2|2,0:0|0:0,0:0:0:0:
408,40,148255,6,0,P|328:12|240:40,2,180,8|2|8,0:0|0:0|0:0,0:0:0:0:
372,144,148998,1,2,0:0:0:0:
288,260,149146,2,0,P|272:216|268:168,1,90,0|2,0:0|0:0,0:0:0:0:
416,240,149443,2,0,P|432:284|436:332,1,90,8|0,0:0|0:0,0:0:0:0:
304,360,149740,5,2,0:0:0:0:
304,360,149889,1,0,0:0:0:0:
356,172,150037,2,0,P|400:156|448:152,1,90,8|0,0:0|0:0,0:0:0:0:
360,44,150334,1,2,0:0:0:0:
360,44,150483,1,2,0:0:0:0:
204,152,150631,2,0,P|216:196|216:240,1,90,8|0,0:0|0:0,0:0:0:0:
140,328,150928,6,0,P|56:344|16:264,2,180,2|8|2,0:0|0:0|0:0,0:0:0:0:
128,212,151671,1,0,0:0:0:0:
140,96,151820,1,8,0:0:0:0:
161,79,151894,1,0,0:0:0:0:
187,69,151968,1,0,0:0:0:0:
214,68,152042,1,0,0:0:0:0:
241,74,152117,6,0,B|280:96|324:72|324:72|360:112|344:164,1,180,4|8,0:0|0:0,0:0:0:0:
296,244,152562,1,0,0:0:0:0:
380,156,152711,2,0,P|428:148|476:148,1,90,2|2,0:0|0:0,0:0:0:0:
344,328,153008,2,0,P|296:336|248:336,1,90,8|0,0:0|0:0,0:0:0:0:
220,324,153230,1,0,0:0:0:0:
184,316,153305,6,0,P|136:312|88:312,1,90,2|0,0:0|0:0,0:0:0:0:
112,188,153602,2,0,P|68:208|26:232,1,90,8|2,0:0|0:0,0:0:0:0:
94,311,153899,1,0,0:0:0:0:
94,311,154047,1,2,0:0:0:0:
204,220,154196,2,0,P|208:176|204:128,1,90,8|0,0:0|0:0,0:0:0:0:
100,4,154493,6,0,P|96:48|100:96,1,90,2|0,0:0|0:0,0:0:0:0:
205,130,154790,2,0,P|277:171|360:131,1,180,8|2,0:0|0:0,0:0:0:0:
376,32,155235,1,2,0:0:0:0:
460,100,155384,1,8,0:0:0:0:
280,80,155532,1,0,0:0:0:0:
432,200,155681,5,4,0:0:0:0:
432,200,155978,2,0,P|412:240|400:284,1,90,2|0,0:0|0:0,0:0:0:0:
496,360,156275,2,0,P|496:316|488:268,1,90,2|0,0:0|0:0,0:0:0:0:
376,32,156572,2,0,P|376:76|384:124,2,90,0|8|4,0:0|0:0|0:0,0:0:0:0:
376,32,157166,5,0,0:0:0:0:
280,80,157315,1,0,0:0:0:0:
188,24,157463,2,0,P|100:0|16:28,1,180,8|0,0:0|0:0,0:0:0:0:
56,128,157909,1,2,0:0:0:0:
60,308,158057,6,0,P|40:268|28:220,1,90,4|0,0:0|0:0,0:0:0:0:
28,225,158503,1,0,0:0:0:0:
128,188,158651,2,0,P|176:184|232:184,1,90,2|0,0:0|0:0,0:0:0:0:
308,320,158948,2,0,P|260:324|204:324,1,90,8|0,0:0|0:0,0:0:0:0:
328,204,159245,6,0,B|360:164|360:164|420:204|480:164,1,180,4|0,0:0|0:0,0:0:0:0:
420,96,159691,1,0,0:0:0:0:
256,152,159839,2,0,P|248:196|248:244,1,90,8|0,0:0|0:0,0:0:0:0:
380,376,160136,2,0,P|388:332|388:286,1,90,0|8,0:0|0:0,0:0:0:0:
344,128,160433,6,0,P|316:92|280:64,1,90,4|0,0:0|0:0,0:0:0:0:
256,152,160730,2,0,P|213:134|168:128,1,90
124,276,161027,2,0,P|152:312|188:340,1,90,8|0,0:0|0:0,0:0:0:0:
212,252,161324,2,0,P|254:269|299:275,1,90,8|0,0:0|0:0,0:0:0:0:
256,152,161622,5,8,0:0:0:0:
124,276,161919,1,8,0:0:0:0:
124,276,162216,5,8,0:0:0:0:
100,100,162364,1,8,0:0:0:0:
100,100,162661,1,8,0:0:0:0:
212,240,162958,1,8,0:0:0:0:
384,192,163255,1,8,0:0:0:0:
368,24,163404,6,0,P|360:56|356:84,1,45,2|0,0:0|0:0,0:0:0:0:
456,240,163701,2,0,P|464:208|468:180,1,45
256,132,163998,6,0,P|168:168|96:128,2,180,4|8|2,0:0|0:0|0:0,0:0:0:0:
296,24,164740,1,2,0:0:0:0:
256,132,164889,2,0,P|248:180|248:232,1,90,8|0,0:0|0:0,0:0:0:0:
408,368,165186,6,0,P|420:280|420:184,1,180,2|8,0:0|0:0,0:0:0:0:
256,132,165631,1,0,0:0:0:0:
236,304,165780,2,0,P|284:296|328:280,1,90,2|2,0:0|0:0,0:0:0:0:
92,184,166077,2,0,P|131:212|174:232,1,90,8|0,0:0|0:0,0:0:0:0:
332,192,166374,5,2,0:0:0:0:
332,192,166523,1,0,0:0:0:0:
348,84,166671,2,0,P|308:55|265:35,1,90,8|0,0:0|0:0,0:0:0:0:
168,72,166968,1,2,0:0:0:0:
169,230,167117,1,2,0:0:0:0:
256,132,167265,6,0,P|336:92|412:132,2,180,8|2|8,0:0|0:0|0:0,0:0:0:0:
248,240,168008,1,2,0:0:0:0:
156,184,168156,2,0,P|152:132|156:92,1,90,0|2,0:0|0:0,0:0:0:0:
332,192,168453,2,0,P|336:244|332:284,1,90,8|0,0:0|0:0,0:0:0:0:
208,336,168750,6,0,P|128:376|52:336,2,180,4|8|2,0:0|0:0|0:0,0:0:0:0:
248,240,169493,1,2,0:0:0:0:
156,184,169641,1,8,0:0:0:0:
132,288,169790,1,0,0:0:0:0:
272,224,169938,6,0,P|364:208|452:224,1,180,4|8,0:0|0:0,0:0:0:0:
404,312,170384,1,0,0:0:0:0:
296,312,170532,2,0,P|260:344|232:376,1,90,2|0,0:0|0:0,0:0:0:0:
68,352,170829,2,0,P|104:320|132:288,1,90,8|0,0:0|0:0,0:0:0:0:
88,64,171126,6,0,P|52:140|84:228,2,180,2|8|2,0:0|0:0|0:0,0:0:0:0:
188,108,171869,1,0,0:0:0:0:
288,64,172018,1,8,0:0:0:0:
384,108,172166,1,0,0:0:0:0:
484,64,172315,1,2,0:0:0:0:
484,64,172612,6,0,B|472:116|496:152|496:152|492:196|444:224,1,180,8|2,0:0|0:0,0:0:0:0:
424,316,173057,2,0,P|384:288|360:256,2,90,0|8|0,0:0|0:0|0:0,0:0:0:0:
380,168,173503,6,0,P|296:140|212:176,1,180,4|8,0:0|0:0,0:0:0:0:
214,173,173948,1,0,0:0:0:0:
240,316,174097,2,0,P|260:272|272:232,1,90,2|2,0:0|0:0,0:0:0:0:
148,108,174394,2,0,P|128:152|116:192,1,90,8|0,0:0|0:0,0:0:0:0:
168,340,174691,6,0,P|236:392|309:347,1,180,4|8,0:0|0:0,0:0:0:0:
308,232,175136,1,0,0:0:0:0:
148,256,175285,1,2,0:0:0:0:
214,173,175433,1,2,0:0:0:0:
240,316,175582,1,8,0:0:0:0:
352,72,175879,6,0,P|432:32|512:68,1,180,2|8,0:0|0:0,0:0:0:0:
436,120,176325,1,0,0:0:0:0:
292,148,176473,2,0,P|272:108|264:64,1,90,2|2,0:0|0:0,0:0:0:0:
436,120,176770,6,0,B|452:168|488:184|488:184|488:280,2,180,8|2|2,0:0|0:0|0:0,0:0:0:0:
360,212,177513,1,2,0:0:0:0:
292,120,177661,2,0,B|236:92|187:125|187:125|168:92,2,135,8|0|0,0:0|0:0|0:0,0:0:0:0:
268,328,178255,6,0,P|212:264|244:184,1,180,4|0,0:0|0:0,0:0:0:0:
243,184,178701,1,2,0:0:0:0:
152,112,178849,2,0,P|108:100|64:100,1,90,8|0,0:0|0:0,0:0:0:0:
64,284,179146,2,0,P|108:284|152:272,1,90
328,192,179443,6,0,P|368:116|320:40,1,180,4|0,0:0|0:0,0:0:0:0:
323,41,179889,1,0,0:0:0:0:
184,108,180037,2,0,P|230:109|284:116,1,90,8|0,0:0|0:0,0:0:0:0:
368,276,180334,2,0,P|321:274|268:268,1,90
40,184,180631,6,0,P|86:185|140:192,1,90,4|0,0:0|0:0,0:0:0:0:
304,360,180928,2,0,P|257:358|204:352,1,90,0|0,0:0|0:0,0:0:0:0:
184,108,181226,2,0,P|272:100|368:120,1,180,8|0,0:0|0:0,0:0:0:0:
448,192,181671,1,0,0:0:0:0:
368,276,181820,6,0,P|348:236|336:192,1,90,4|0,0:0|0:0,0:0:0:0:
420,28,182117,2,0,P|440:68|452:112,1,90,0|2,0:0|0:0,0:0:0:0:
456,280,182414,1,8,0:0:0:0:
320,360,182562,1,8,0:0:0:0:
412,360,182711,1,8,0:0:0:0:
280,280,182859,1,8,0:0:0:0:
364,192,183008,6,0,P|376:148|372:100,1,90,2|0,0:0|0:0,0:0:0:0:
256,24,183602,2,0,P|244:68|248:116,1,90,4|0,0:0|0:0,0:0:0:0:
280,280,184196,6,0,P|240:344|148:320,2,180,4|8|2,0:0|0:0|0:0,0:0:0:0:
232,172,184938,1,2,0:0:0:0:
128,224,185087,1,8,0:0:0:0:
208,280,185235,1,0,0:0:0:0:
316,156,185384,6,0,P|320:112|316:64,1,90,2|0,0:0|0:0,0:0:0:0:
156,16,185681,2,0,P|152:60|156:108,1,90,8|0,0:0|0:0,0:0:0:0:
406,68,185978,2,0,P|362:64|314:68,1,90,2|2,0:0|0:0,0:0:0:0:
232,172,186275,2,0,P|146:198|61:169,2,180,8|2|8,0:0|0:0|0:0,0:0:0:0:
236,64,187018,5,2,0:0:0:0:
320,153,187166,2,0,P|320:196|304:240,1,90,0|2,0:0|0:0,0:0:0:0:
148,312,187463,2,0,P|178:281|220:262,1,90,8|0,0:0|0:0,0:0:0:0:
396,348,187760,6,0,P|320:376|228:340,2,180,4|8|2,0:0|0:0|0:0,0:0:0:0:
452,256,188503,1,2,0:0:0:0:
320,152,188651,2,0,L|316:196|319:241,1,90,8|0,0:0|0:0,0:0:0:0:
460,148,188948,6,0,L|464:104|460:58,1,90,4|0,0:0|0:0,0:0:0:0:
300,36,189245,1,8,0:0:0:0:
300,36,189542,2,0,P|212:24|120:36,1,180,2|8,0:0|0:0,0:0:0:0:
168,136,189988,1,0,0:0:0:0:
168,136,190062,1,0,0:0:0:0:
168,136,190136,6,0,P|172:184|168:228,1,90,2|0,0:0|0:0,0:0:0:0:
60,292,190433,2,0,P|56:244|60:200,1,90,8|0,0:0|0:0,0:0:0:0:
264,268,190730,2,0,P|268:316|264:360,2,90,2|2|8,0:0|0:0|0:0,0:0:0:0:
168,136,191176,1,0,0:0:0:0:
268,172,191325,6,0,L|360:172,1,90,2|0,0:0|0:0,0:0:0:0:
456,128,191622,2,0,P|460:80|456:36,2,90,8|0|2,0:0|0:0|0:0,0:0:0:0:
392,240,192067,1,0,0:0:0:0:
468,320,192216,2,0,P|488:280|496:236,1,90,8|0,0:0|0:0,0:0:0:0:
368,84,192513,6,0,P|280:76|184:84,1,180,4|8,0:0|0:0,0:0:0:0:
48,188,192958,1,0,0:0:0:0:
48,188,193032,1,0,0:0:0:0:
48,188,193107,2,0,P|96:192|140:188,1,90,2|0,0:0|0:0,0:0:0:0:
188,272,193404,2,0,P|236:268|280:272,1,90,8|0,0:0|0:0,0:0:0:0:
440,264,193701,6,0,P|488:192|444:120,2,180,4|8|2,0:0|0:0|0:0,0:0:0:0:
336,232,194443,1,2,0:0:0:0:
328,124,194592,1,8,0:0:0:0:
412,192,194740,1,0,0:0:0:0:
368,336,194889,6,0,P|276:356|188:336,1,180,2|8,0:0|0:0,0:0:0:0:
152,240,195334,1,0,0:0:0:0:
240,176,195483,2,0,P|244:224|240:268,1,90,2|2,0:0|0:0,0:0:0:0:
64,360,195780,2,0,P|60:312|64:268,1,90,8|0,0:0|0:0,0:0:0:0:
152,148,196077,2,0,P|156:100|152:56,1,90,2|0,0:0|0:0,0:0:0:0:
256,32,196374,5,8,0:0:0:0:
256,32,196523,1,0,0:0:0:0:
336,104,196671,2,0,P|380:112|432:104,1,90,8|0,0:0|0:0,0:0:0:0:
448,84,196894,2,0,P|428:128|424:216,1,135,8|0,0:0|0:0,0:0:0:0:
332,316,197265,6,0,P|256:360|180:320,1,180,4|0,0:0|0:0,0:0:0:0:
256,280,197711,1,0,0:0:0:0:
408,348,197859,1,8,0:0:0:0:
320,232,198008,2,0,B|300:192|300:192|348:132|300:60,1,180
80,124,198453,5,4,0:0:0:0:
168,172,198602,2,0,P|208:160|248:124,1,90
156,76,198899,1,0,0:0:0:0:
16,72,199047,2,0,P|4:116|4:164,1,90,8|0,0:0|0:0,0:0:0:0:
120,348,199344,2,0,P|132:304|132:256,1,90
156,76,199641,6,0,P|228:24|304:64,2,180,4|2|8,0:0|0:0|0:0,0:0:0:0:
156,76,200532,1,2,0:0:0:0:
168,172,200681,1,0,0:0:0:0:
252,220,200829,6,0,P|276:304|232:384,2,180,4|2|0,0:0|0:0|0:0,0:0:0:0:
252,220,201721,1,0,0:0:0:0:
256,120,201869,1,0,0:0:0:0:
372,188,202018,6,0,P|404:112|376:12,2,180,4|2|2,0:0|0:0|0:0,0:0:0:0:
372,188,202909,1,2,0:0:0:0:
256,120,203057,1,0,0:0:0:0:
140,188,203206,5,4,0:0:0:0:
372,188,203354,1,4,0:0:0:0:
372,188,203800,5,4,0:0:0:0:
256,32,203948,1,4,0:0:0:0:
256,336,204394,6,0,P|180:380|100:336,1,180,4|8,0:0|0:0,0:0:0:0:
132,248,204839,1,0,0:0:0:0:
168,156,204988,2,0,P|216:148|272:156,1,90,2|2,0:0|0:0,0:0:0:0:
308,236,205285,2,0,P|260:244|204:236,1,90,8|0,0:0|0:0,0:0:0:0:
52,288,205582,6,0,P|44:240|52:184,1,90,2|0,0:0|0:0,0:0:0:0:
164,68,205879,2,0,P|172:116|164:172,1,90,8|0,0:0|0:0,0:0:0:0:
132,248,206176,1,2,0:0:0:0:
256,160,206325,1,2,0:0:0:0:
84,112,206473,2,0,P|76:64|84:8,1,90,8|0,0:0|0:0,0:0:0:0:
297,86,206770,6,0,P|341:158|297:234,2,180,2|8|2,0:0|0:0|0:0,0:0:0:0:
164,68,207513,1,2,0:0:0:0:
132,248,207661,1,8,0:0:0:0:
256,160,207810,1,0,0:0:0:0:
84,112,207958,6,0,P|56:148|40:196,1,90,2|0,0:0|0:0,0:0:0:0:
180,328,208255,2,0,P|208:292|224:244,1,90,8|2,0:0|0:0,0:0:0:0:
164,68,208552,1,0,0:0:0:0:
164,68,208701,1,2,0:0:0:0:
256,160,208849,1,8,0:0:0:0:
284,160,208924,1,0,0:0:0:0:
312,160,208998,1,0,0:0:0:0:
340,160,209072,1,0,0:0:0:0:
368,160,209146,6,0,P|424:92|388:16,2,180,4|8|2,0:0|0:0|0:0,0:0:0:0:
500,188,209889,1,2,0:0:0:0:
424,324,210037,2,0,P|420:280|424:232,1,90,8|0,0:0|0:0,0:0:0:0:
348,84,210334,6,0,P|272:52|188:92,1,180,2|8,0:0|0:0,0:0:0:0:
188,91,210780,1,0,0:0:0:0:
184,256,210928,2,0,P|204:216|216:168,1,90,2|2,0:0|0:0,0:0:0:0:
100,68,211226,2,0,P|104:112|124:160,1,90,8|0,0:0|0:0,0:0:0:0:
288,228,211523,6,0,B|328:252|368:224|368:224|420:216|448:264,1,180,2|8,0:0|0:0,0:0:0:0:
447,262,211968,1,0,0:0:0:0:
324,164,212117,2,0,P|312:120|308:76,1,90,2|2,0:0|0:0,0:0:0:0:
472,88,212414,2,0,P|484:132|488:176,1,90,8|0,0:0|0:0,0:0:0:0:
376,304,212711,6,0,P|300:344|220:304,1,180,2|8,0:0|0:0,0:0:0:0:
288,228,213156,1,0,0:0:0:0:
168,168,213305,1,2,0:0:0:0:
168,168,213379,1,0,0:0:0:0:
168,168,213453,1,2,0:0:0:0:
96,284,213602,2,0,P|140:288|192:284,1,90,8|0,0:0|0:0,0:0:0:0:
312,80,213899,6,0,P|224:64|136:80,2,180,4|8|2,0:0|0:0|0:0,0:0:0:0:
384,192,214641,1,0,0:0:0:0:
276,272,214790,2,0,P|268:228|272:184,1,90,8|0,0:0|0:0,0:0:0:0:
456,76,215087,6,0,P|480:164|456:252,1,180,2|8,0:0|0:0,0:0:0:0:
384,192,215532,1,0,0:0:0:0:
344,352,215681,2,0,P|392:344|428:320,1,90,2|2,0:0|0:0,0:0:0:0:
288,180,215978,2,0,P|240:188|204:212,1,90,8|0,0:0|0:0,0:0:0:0:
48,320,216275,6,0,P|124:360|208:320,2,180,2|8|2,0:0|0:0|0:0,0:0:0:0:
32,212,217018,1,2,0:0:0:0:
120,148,217166,1,8,0:0:0:0:
68,52,217315,1,0,0:0:0:0:
32,212,217463,6,0,P|72:236|120:248,1,90
288,180,217760,2,0,P|248:156|200:144,1,90,8|2,0:0|0:0,0:0:0:0:
228,260,218057,2,0,P|220:304|224:348,1,90,0|2,0:0|0:0,0:0:0:0:
368,228,218354,2,0,P|376:184|372:140,1,90,8|0,0:0|0:0,0:0:0:0:
120,148,218651,6,0,B|104:232|104:232|132:268|116:324,2,180,4|8|2,0:0|0:0|0:0,0:0:0:0:
216,100,219394,1,2,0:0:0:0:
288,180,219542,2,0,P|336:184|380:180,1,90,8|8,0:0|0:0,0:0:0:0:
216,100,219839,6,0,P|140:64|56:104,1,180,4|8,0:0|0:0,0:0:0:0:
136,280,220285,2,0,P|212:316|296:276,1,180,4|0,0:0|0:0,0:0:0:0:
288,180,220730,1,8,0:0:0:0:
216,100,220879,1,8,0:0:0:0:
216,236,221027,5,8,0:0:0:0:
260,24,221325,1,8,0:0:0:0:
216,236,221622,1,8,0:0:0:0:
216,236,221770,1,8,0:0:0:0:
260,24,222067,1,8,0:0:0:0:
400,188,222364,1,8,0:0:0:0:
400,188,222661,1,4,0:0:0:0:
256,192,222735,12,0,227661,0:0:0:0:
