osu file format v12

[General]
AudioFilename: Kirihake! Gracie Star.mp3
AudioLeadIn: 0
PreviewTime: 67279
Countdown: 0
SampleSet: Soft
StackLeniency: 0.7
Mode: 0
LetterboxInBreaks: 0

[Editor]
DistanceSpacing: 0.8
BeatDivisor: 4
GridSize: 4

[Metadata]
Title:Kirihirake! Gracie*Star
TitleUnicode:きりひらけ!グレイシー☆スター
Artist:nao
ArtistUnicode:nao
Creator:Tari
Version:Normal
Source:Choujigen Game Neptune mk2
Tags:eroge visual game unitedwesin compile heart hyperdimension neptunia idea factory taris
BeatmapID:207668
BeatmapSetID:72743

[Difficulty]
HPDrainRate:4
CircleSize:3
OverallDifficulty:4
ApproachRate:5
SliderMultiplier:1.2
SliderTickRate:1

[Events]
//Background and Video events
0,0,"orz.jpg",0,0
Video,0,"video.avi"
//Break Periods
2,27037,31030
//Storyboard Layer 0 (Background)
//Storyboard Layer 1 (Fail)
//Storyboard Layer 2 (Pass)
//Storyboard Layer 3 (Foreground)
//Storyboard Sound Samples
//Background Colour Transformations
3,100,163,162,255

[TimingPoints]
2568,337.078651685393,4,2,1,60,1,0
8298,-100,4,2,1,55,0,0
9309,-100,4,2,1,80,0,0
10657,-100,4,2,1,70,0,0
10826,-100,4,1,1,70,0,0
11163,-100,4,2,1,70,0,0
13354,-100,4,2,1,75,0,0
13523,-100,4,2,1,70,0,0
14871,-100,4,1,1,68,0,0
15124,-100,4,2,1,68,0,0
16219,-100,4,1,1,68,0,0
16472,-100,4,2,1,68,0,0
21612,-100,4,1,1,65,0,0
21950,-100,4,2,1,65,0,0
26837,-100,4,2,1,65,0,0
32230,-100,4,2,1,60,0,0
40489,-100,4,1,1,60,0,0
40826,-100,4,2,1,60,0,0
43017,-100,4,2,1,75,0,0
43185,-100,4,2,1,60,0,0
45966,-100,4,1,1,60,0,0
46219,-100,4,2,1,60,0,0
48579,-100,4,1,1,62,0,0
48916,-100,4,2,1,62,0,0
49927,-100,4,1,1,62,0,0
50264,-100,4,2,1,62,0,0
52708,-100,4,1,1,61,0,0
52961,-100,4,2,1,61,0,0
54141,-100,4,2,1,55,0,0
58354,-100,4,1,1,61,0,0
58691,-100,4,2,1,61,0,0
61893,-100,4,2,1,65,0,0
65938,-100,4,2,1,80,0,0
67287,-100,4,2,1,70,0,1
71500,-100,4,1,1,70,0,1
71753,-100,4,2,1,70,0,1
72848,-100,4,1,1,70,0,1
73101,-100,4,2,1,70,0,1
78073,-100,4,2,1,75,0,1
78242,-100,4,2,1,70,0,1
83719,-100,4,1,1,68,0,1
83888,-100,4,2,1,68,0,1
91893,-100,4,2,1,60,0,0
95770,-100,4,2,1,80,0,0

[Colours]
Combo1 : 255,64,64
Combo2 : 173,91,255
Combo3 : 72,255,72
Combo4 : 0,155,155
Combo5 : 255,85,255

[HitObjects]
256,336,5264,5,4,0:0:0:0:
196,260,5601,2,0,P|112:276|20:248,2,180,8|8|0,0:0|0:0|0:0,0:0:0:0:
292,244,6950,2,0,P|376:228|468:256,2,180,8|8|0,0:0|0:0|0:0,0:0:0:0:
220,180,8298,2,0,L|140:76,2,120,8|0|0,0:0|0:0|0:0,0:0:0:0:
292,244,9309,37,4,0:0:0:0:
292,244,9478,1,4,0:0:0:0:
436,76,10657,54,0,P|360:112|380:248,1,240,4|0,0:0|0:0,0:0:0:0:
308,312,11669,1,8,0:0:0:0:
212,320,12006,2,0,P|152:336|88:324,1,120,2|8,0:0|0:0,0:0:0:0:
56,240,12680,2,0,P|116:224|180:236,1,120,2|8,0:0|0:0,0:0:0:0:
208,144,13354,2,0,L|124:48,2,120,4|8|0,0:0|0:0|0:0,0:0:0:0:
304,140,14365,5,8,0:0:0:0:
400,144,14702,2,0,P|380:64|280:56,2,180,4|0|8,0:0|0:0|0:0,0:0:0:0:
400,240,16051,2,0,P|380:320|280:328,2,180,2|0|8,0:0|0:0|0:0,0:0:0:0:
304,244,17399,1,2,0:0:0:0:
112,232,18073,6,0,P|132:280|116:348,2,120,0|8|4,0:0|0:0|0:0,0:0:0:0:
168,156,19084,1,8,0:0:0:0:
264,168,19421,2,0,P|268:112|260:48,2,120,2|8|4,0:0|0:0|0:0,0:0:0:0:
364,116,20433,1,8,0:0:0:0:
456,144,20770,5,2,0:0:0:0:
496,228,21107,1,8,0:0:0:0:
432,296,21444,2,0,B|388:344|324:312|324:312|296:244|208:260,1,240,4|0,0:0|0:0,0:0:0:0:
260,168,22455,2,0,P|204:156|144:168,1,120,8|4,0:0|0:0,0:0:0:0:
48,176,23129,5,8,0:0:0:0:
16,268,23466,1,0,0:0:0:0:
92,328,23803,2,0,L|172:324,2,60,0|4|0,0:0|0:0|0:0,0:0:0:0:
256,192,24478,12,4,26837,0:0:0:0:
312,100,32230,6,0,L|428:64,2,120,4|8|0,0:0|0:0|0:0,0:0:0:0:
252,176,33242,1,8,0:0:0:0:
180,240,33579,2,0,L|64:204,2,120,0|8|0,0:0|0:0|0:0,0:0:0:0:
240,316,34590,1,8,0:0:0:0:
336,304,34927,6,0,P|368:252|432:236,1,120,0|8,0:0|0:0,0:0:0:0:
420,140,35601,2,0,P|366:123|334:71,1,120,0|8,0:0|0:0,0:0:0:0:
240,72,36275,1,0,0:0:0:0:
148,96,36612,1,8,0:0:0:0:
56,128,36950,2,0,L|52:256,1,120,0|8,0:0|0:0,0:0:0:0:
144,284,37624,6,0,P|104:336|40:344,2,120,4|8|0,0:0|0:0|0:0,0:0:0:0:
228,236,38635,1,8,0:0:0:0:
312,264,38972,2,0,P|352:316|416:324,2,120,0|8|0,0:0|0:0|0:0,0:0:0:0:
404,236,39983,1,8,0:0:0:0:
476,172,40320,6,0,B|448:120|460:68|460:68|408:24|324:56,1,240
240,56,41332,1,8,0:0:0:0:
144,48,41669,1,0,0:0:0:0:
124,140,42006,2,0,L|0:116,2,120,8|0|8,0:0|0:0|0:0,0:0:0:0:
92,232,43017,5,4,0:0:0:0:
92,232,43354,2,0,L|52:356,2,120,8|0|8,0:0|0:0|0:0,0:0:0:0:
188,232,44365,1,0,0:0:0:0:
232,316,44702,2,0,P|288:332|364:304,2,120,8|0|8,0:0|0:0|0:0,0:0:0:0:
292,240,45714,6,0,B|320:188|384:204|384:204|432:268|512:252,1,240
492,164,46725,1,8,0:0:0:0:
488,68,47062,2,0,L|364:36,1,120,0|8,0:0|0:0,0:0:0:0:
320,120,47736,2,0,L|192:104,1,120,0|8,0:0|0:0,0:0:0:0:
128,40,48410,6,0,B|104:104|35:108|35:108|80:165|61:229,1,240,4|0,0:0|0:0,0:0:0:0:
112,300,49421,1,8,0:0:0:0:
200,340,49759,2,0,B|253:331|280:264|280:264|318:326|386:319,1,240
372,224,50770,1,8,0:0:0:0:
464,192,51107,6,0,P|496:148|480:84,2,120,0|8|0,0:0|0:0|0:0,0:0:0:0:
400,120,52118,1,8,0:0:0:0:
400,120,52455,2,0,P|300:72|176:104,1,240
104,44,53466,1,8,0:0:0:0:
68,132,53803,1,4,0:0:0:0:
68,228,54141,6,0,L|44:292,2,60,0|0|8,0:0|0:0|0:0,0:0:0:0:
160,244,54815,2,0,P|172:308|212:352,1,120,0|2,0:0|0:0,0:0:0:0:
305,348,55489,2,0,P|340:308|352:244,2,120,0|8|0,0:0|0:0|0:0,0:0:0:0:
256,268,56500,1,2,0:0:0:0:
268,172,56837,6,0,L|212:132,2,60,0|0|8,0:0|0:0|0:0,0:0:0:0:
360,148,57511,1,0,0:0:0:0:
448,188,57848,2,0,P|488:120|452:32,2,180,2|0|0,0:0|0:0|0:0,0:0:0:0:
360,148,59197,1,4,0:0:0:0:
300,72,59534,6,0,L|172:52,1,120,0|8,0:0|0:0,0:0:0:0:
92,84,60208,1,0,0:0:0:0:
40,164,60545,2,0,P|44:220|56:288,1,120,2|0,0:0|0:0,0:0:0:0:
144,324,61219,2,0,P|140:268|128:200,2,120,8|0|4,0:0|0:0|0:0,0:0:0:0:
240,308,62230,5,8,0:0:0:0:
320,256,62567,1,0,0:0:0:0:
336,160,62905,1,8,0:0:0:0:
256,192,63242,12,4,65938,0:0:0:0:
100,144,67287,6,0,L|136:272,2,120,4|8|0,0:0|0:0|0:0,0:0:0:0:
180,92,68298,1,8,0:0:0:0:
276,112,68635,2,0,P|328:84|396:96,1,120,2|8,0:0|0:0,0:0:0:0:
456,156,69309,2,0,P|408:184|336:172,1,120,2|8,0:0|0:0,0:0:0:0:
304,264,69983,2,0,L|400:344,2,120,4|8|0,0:0|0:0|0:0,0:0:0:0:
208,256,70994,5,8,0:0:0:0:
112,244,71332,2,0,P|100:320|12:280,2,180,4|0|8,0:0|0:0|0:0,0:0:0:0:
112,140,72680,2,0,P|100:64|12:104,2,180,2|0|8,0:0|0:0|0:0,0:0:0:0:
208,148,74028,1,4,0:0:0:0:
392,80,74702,5,0,0:0:0:0:
444,160,75039,1,8,0:0:0:0:
432,256,75376,1,4,0:0:0:0:
256,336,76051,1,2,0:0:0:0:
64,348,76725,2,0,P|56:284|56:204,1,120,4|8,0:0|0:0,0:0:0:0:
72,136,77399,2,0,L|100:80,2,60,0|8|0,0:0|0:0|0:0,0:0:0:0:
168,144,78073,6,0,P|232:136|264:80,2,120,4|8|0,0:0|0:0|0:0,0:0:0:0:
184,240,79084,1,8,0:0:0:0:
212,332,79421,2,0,P|272:312|328:348,1,120,2|8,0:0|0:0,0:0:0:0:
416,324,80096,1,0,0:0:0:0:
456,236,80433,1,8,0:0:0:0:
420,148,80770,6,0,L|464:36,2,120,4|8|0,0:0|0:0|0:0,0:0:0:0:
324,144,81781,2,0,P|328:204|304:268,1,120,8|4,0:0|0:0,0:0:0:0:
220,296,82455,2,0,L|100:256,1,120,8|0,0:0|0:0,0:0:0:0:
124,164,83129,5,8,0:0:0:0:
204,112,83466,2,0,P|144:72|48:108,2,180,4|0|8,0:0|0:0|0:0,0:0:0:0:
300,92,84815,2,0,L|308:20,2,60,0|0|8,0:0|0:0|0:0,0:0:0:0:
396,92,85489,5,0,0:0:0:0:
460,164,85826,1,8,0:0:0:0:
392,232,86163,2,0,P|364:276|308:312,1,120,4|8,0:0|0:0,0:0:0:0:
212,320,86837,2,0,P|144:336|76:316,2,120,0|8|4,0:0|0:0|0:0,0:0:0:0:
156,244,87848,1,8,0:0:0:0:
160,148,88185,5,0,0:0:0:0:
64,160,88523,1,8,0:0:0:0:
96,72,88860,2,0,P|148:44|212:56,2,120,4|8|0,0:0|0:0|0:0,0:0:0:0:
160,148,89871,1,8,0:0:0:0:
252,176,90208,1,4,0:0:0:0:
328,120,90545,6,0,L|448:88,1,120,8|0,0:0|0:0,0:0:0:0:
480,180,91219,2,0,P|496:256|472:312,1,120,8|0,0:0|0:0,0:0:0:0:
256,192,91893,12,4,95770,0:0:0:0:
