osu file format v12

[General]
AudioFilename: Kirihake! Gracie Star.mp3
AudioLeadIn: 0
PreviewTime: 67279
Countdown: 0
SampleSet: Soft
StackLeniency: 0.7
Mode: 0
LetterboxInBreaks: 0

[Editor]
DistanceSpacing: 1
BeatDivisor: 4
GridSize: 4

[Metadata]
Title:Kirihirake! Gracie*Star
TitleUnicode:きりひらけ!グレイシー☆スター
Artist:nao
ArtistUnicode:nao
Creator:Tari
Version:Easy
Source:Choujigen Game Neptune mk2
Tags:eroge visual game unitedwesin compile heart hyperdimension neptunia idea factory taris
BeatmapID:207666
BeatmapSetID:72743

[Difficulty]
HPDrainRate:2
CircleSize:2
OverallDifficulty:3
ApproachRate:3
SliderMultiplier:0.9
SliderTickRate:1

[Events]
//Background and Video events
0,0,"orz.jpg",0,0
Video,0,"video.avi"
//Break Periods
2,27037,30790
//Storyboard Layer 0 (Background)
//Storyboard Layer 1 (Fail)
//Storyboard Layer 2 (Pass)
//Storyboard Layer 3 (Foreground)
//Storyboard Sound Samples
//Background Colour Transformations
3,100,163,162,255

[TimingPoints]
2568,337.078651685393,4,2,1,60,1,0
5601,-100,4,1,1,60,0,0
6107,-100,4,2,1,60,0,0
6950,-100,4,1,1,60,0,0
7455,-100,4,2,1,60,0,0
8298,-100,4,1,1,55,0,0
8803,-100,4,2,1,55,0,0
9309,-100,4,2,1,80,0,0
10657,-100,4,2,1,70,0,0
10994,-100,4,1,1,70,0,0
11332,-100,4,2,1,70,0,0
13354,-100,4,2,1,75,0,0
13691,-100,4,1,1,70,0,0
14028,-100,4,2,1,70,0,0
15039,-100,4,1,1,70,0,0
15376,-100,4,2,1,70,0,0
16388,-100,4,1,1,70,0,0
16556,-100,4,2,1,70,0,0
19759,-100,4,1,1,70,0,0
20096,-100,4,2,1,70,0,0
21107,-100,4,1,1,70,0,0
21444,-100,4,2,1,70,0,0
23719,-100,4,1,1,60,0,0
23888,-100,4,2,1,60,0,0
26837,-100,4,2,1,65,0,0
32230,-100,4,2,1,60,0,0
32567,-100,4,1,1,60,0,0
32905,-100,4,2,1,60,0,0
33916,-100,4,1,1,60,0,0
34253,-100,4,2,1,60,0,0
36612,-100,4,1,1,60,0,0
36781,-100,4,2,1,60,0,0
37961,-100,4,1,1,60,0,0
38298,-100,4,2,1,60,0,0
39309,-100,4,1,1,60,0,0
39646,-100,4,2,1,60,0,0
40657,-100,4,1,1,60,0,0
40994,-100,4,2,1,60,0,0
42006,-100,4,1,1,60,0,0
42343,-100,4,2,1,60,0,0
43017,-100,4,2,1,75,0,0
43354,-100,4,1,1,60,0,0
43691,-100,4,2,1,60,0,0
44702,-100,4,1,1,60,0,0
45039,-100,4,2,1,60,0,0
47399,-100,4,1,1,60,0,0
47567,-100,4,2,1,60,0,0
48747,-100,4,1,1,60,0,0
49084,-100,4,2,1,60,0,0
50096,-100,4,1,1,60,0,0
50433,-100,4,2,1,60,0,0
51444,-100,4,1,1,60,0,0
51781,-100,4,2,1,60,0,0
52792,-100,4,1,1,60,0,0
53129,-100,4,2,1,60,0,0
54141,-100,4,2,1,55,0,0
54478,-100,4,1,1,55,0,0
54646,-100,4,2,1,55,0,0
59871,-100,4,1,1,55,0,0
60208,-100,4,2,1,55,0,0
61893,-100,4,2,1,65,0,0
62230,-100,4,1,1,65,0,0
62567,-100,4,2,1,65,0,0
65938,-100,4,2,1,80,0,0
67287,-100,4,2,1,70,0,1
67624,-100,4,1,1,70,0,1
67961,-100,4,2,1,70,0,1
70320,-100,4,1,1,70,0,1
70657,-100,4,2,1,70,0,1
71669,-100,4,1,1,70,0,1
72006,-100,4,2,1,70,0,1
73017,-100,4,1,1,70,0,1
73185,-100,4,2,1,70,0,1
77062,-100,4,1,1,70,0,1
77399,-100,4,2,1,70,0,1
78073,-100,4,2,1,75,0,1
78410,-100,4,1,1,70,0,1
78747,-100,4,2,1,70,0,1
81107,-100,4,1,1,70,0,1
81444,-100,4,2,1,70,0,1
82455,-100,4,1,1,70,0,1
82792,-100,4,2,1,70,0,1
83803,-100,4,1,1,70,0,1
83972,-100,4,2,1,70,0,1
87174,-100,4,1,1,70,0,1
87511,-100,4,2,1,70,0,1
88523,-100,4,1,1,70,0,1
88860,-100,4,2,1,70,0,1
91893,-100,4,2,1,60,0,0
95770,-100,4,2,1,80,0,0

[Colours]
Combo1 : 255,64,64
Combo2 : 173,91,255
Combo3 : 72,255,72
Combo4 : 0,155,155
Combo5 : 255,85,255

[HitObjects]
448,80,5264,2,0,P|468:184|452:312,1,225,4|8,0:0|0:0,0:0:0:0:
320,300,6612,2,0,P|307:182|327:78,1,225,0|8,0:0|0:0,0:0:0:0:
192,60,7961,2,0,B|168:112|192:160|192:160|160:216|68:188,1,225,0|8,0:0|0:0,0:0:0:0:
56,60,9309,21,4,0:0:0:0:
32,312,10657,54,0,P|112:328|204:288,1,180,4|0,0:0|0:0,0:0:0:0:
364,216,12006,2,0,L|428:140,1,90,8|8,0:0|0:0,0:0:0:0:
364,80,12680,2,0,L|300:156,1,90,0|8,0:0|0:0,0:0:0:0:
216,140,13354,6,0,P|184:72|108:120,1,180,4|0,0:0|0:0,0:0:0:0:
204,264,14702,2,0,P|236:332|312:284,1,180,4|0,0:0|0:0,0:0:0:0:
380,232,15714,1,8,0:0:0:0:
452,180,16051,2,0,L|460:36,2,135,4|0|8,0:0|0:0|0:0,0:0:0:0:
380,232,17399,1,2,0:0:0:0:
248,108,18073,6,0,P|216:80|160:88,2,90,0|8|4,0:0|0:0|0:0,0:0:0:0:
76,168,19421,2,0,B|96:216|76:256|76:256|112:284|176:264,1,180,0|2,0:0|0:0,0:0:0:0:
350,268,20770,2,0,B|400:284|436:256|436:256|416:216|436:168,1,180,0|4,0:0|0:0,0:0:0:0:
384,80,21781,1,8,0:0:0:0:
208,52,22455,1,8,0:0:0:0:
288,92,22792,5,4,0:0:0:0:
220,152,23129,2,0,B|184:188|200:256|200:256|176:304|100:292,1,225,8|4,0:0|0:0,0:0:0:0:
256,192,24478,12,4,26837,0:0:0:0:
76,320,32230,6,0,B|64:280|28:240|28:240|72:216|88:176,1,180,4|0,0:0|0:0,0:0:0:0:
212,48,33579,2,0,B|226:84|270:108|270:108|234:148|222:188,1,180
200,276,34590,1,8,0:0:0:0:
268,336,34927,6,0,P|320:340|360:312,1,90,0|8,0:0|0:0,0:0:0:0:
300,248,35601,2,0,P|331:229|383:233,1,90,0|8,0:0|0:0,0:0:0:0:
452,176,36275,2,0,P|476:108|436:48,2,135,0|0|8,0:0|0:0|0:0,0:0:0:0:
380,120,37624,6,0,B|320:120|320:120|276:136|276:136|184:136,1,180,4|0,0:0|0:0,0:0:0:0:
68,256,38972,2,0,B|128:256|128:256|172:272|172:272|264:272,1,180,0|0,0:0|0:0,0:0:0:0:
316,328,39983,1,8,0:0:0:0:
404,312,40320,6,0,P|432:236|396:136,1,180
236,84,41669,2,0,P|160:56|60:92,1,180
20,160,42680,1,8,0:0:0:0:
40,248,43017,6,0,P|128:252|160:328,1,180,4|0,0:0|0:0,0:0:0:0:
352,328,44365,2,0,P|384:252|472:248,1,180
488,160,45376,1,8,0:0:0:0:
456,76,45714,6,0,P|408:60|356:68,1,90,0|8,0:0|0:0,0:0:0:0:
396,148,46388,2,0,P|357:153|308:132,1,90,0|8,0:0|0:0,0:0:0:0:
248,68,47062,2,0,P|188:52|116:64,2,135,0|0|8,0:0|0:0|0:0,0:0:0:0:
212,152,48410,6,0,P|132:164|100:252,1,180,4|0,0:0|0:0,0:0:0:0:
256,332,49759,2,0,P|336:320|368:232,1,180
444,184,50770,1,8,0:0:0:0:
456,96,51107,6,0,B|416:64|376:48|376:48|344:68|300:116,1,180
184,232,52455,2,0,B|144:264|104:280|104:280|72:260|28:212,1,180
52,136,53466,1,8,0:0:0:0:
128,88,53803,1,4,0:0:0:0:
208,44,54141,6,0,B|252:56|252:56|300:36|360:52,2,135
328,180,55826,2,0,L|348:268,2,90,8|0|0,0:0|0:0|0:0,0:0:0:0:
244,216,56837,1,0,0:0:0:0:
116,340,57511,1,0,0:0:0:0:
204,332,57848,6,0,P|168:264|72:260,1,180,4|8,0:0|0:0,0:0:0:0:
32,184,58860,1,0,0:0:0:0:
80,108,59197,1,4,0:0:0:0:
164,80,59534,6,0,P|264:96|324:48,1,180
404,88,60545,1,0,0:0:0:0:
464,260,61219,2,0,L|424:344,1,90,8|0,0:0|0:0,0:0:0:0:
336,336,61893,2,0,P|244:344|176:276,1,180,4|0,0:0|0:0,0:0:0:0:
196,200,62905,1,8,0:0:0:0:
256,192,63242,12,4,65938,0:0:0:0:
420,244,67287,6,0,P|416:148|344:88,1,180,4|0,0:0|0:0,0:0:0:0:
192,60,68635,2,0,P|148:48|100:68,1,90,0|8,0:0|0:0,0:0:0:0:
64,140,69309,2,0,P|108:152|152:140,1,90,0|8,0:0|0:0,0:0:0:0:
220,200,69983,6,0,P|208:296|268:340,1,180,4|0,0:0|0:0,0:0:0:0:
400,220,71332,2,0,P|460:176|448:80,1,180,4|0,0:0|0:0,0:0:0:0:
364,44,72343,1,8,0:0:0:0:
284,88,72680,2,0,P|216:100|144:72,2,135,0|0|8,0:0|0:0|0:0,0:0:0:0:
340,168,74028,1,2,0:0:0:0:
212,296,74702,6,0,P|256:300|304:296,2,90,0|8|4,0:0|0:0|0:0,0:0:0:0:
56,204,76051,1,2,0:0:0:0:
184,80,76725,2,0,B|228:44|304:60|304:60|324:144|404:160,1,270,4|0,0:0|0:0,0:0:0:0:
468,216,78073,6,0,P|432:300|336:336,1,180,4|0,0:0|0:0,0:0:0:0:
176,332,79421,2,0,P|124:328|92:296,1,90,0|8,0:0|0:0,0:0:0:0:
164,244,80096,1,0,0:0:0:0:
244,84,80770,6,0,P|308:44|412:64,1,180,4|0,0:0|0:0,0:0:0:0:
428,240,82118,2,0,P|363:280|260:260,1,180,4|0,0:0|0:0,0:0:0:0:
240,176,83129,1,8,0:0:0:0:
160,132,83466,2,0,B|128:96|72:104|44:56,2,135,0|0|8,0:0|0:0|0:0,0:0:0:0:
156,224,84815,1,0,0:0:0:0:
256,76,85489,6,0,L|348:56,2,90,0|8|4,0:0|0:0|0:0,0:0:0:0:
412,164,86837,2,0,B|400:232|400:232|348:260|352:328,1,180,0|4,0:0|0:0,0:0:0:0:
160,324,88185,2,0,B|164:260|112:232|112:232|100:164,1,180,0|4,0:0|0:0,0:0:0:0:
80,76,89197,1,8,0:0:0:0:
256,44,89871,1,8,0:0:0:0:
344,60,90208,1,4,0:0:0:0:
430,94,90545,6,0,P|404:132|364:148,1,90,8|0,0:0|0:0,0:0:0:0:
280,172,91219,2,0,P|264:220|268:268,1,90,8|0,0:0|0:0,0:0:0:0:
256,192,91893,12,4,95770,0:0:0:0:
