osu file format v13

[General]
AudioFilename: 01 Dimension tripper!!!!.mp3
AudioLeadIn: 0
PreviewTime: 119931
Countdown: 1
SampleSet: Soft
StackLeniency: 0.7
Mode: 0
LetterboxInBreaks: 1
WidescreenStoryboard: 0

[Editor]
DistanceSpacing: 2
BeatDivisor: 4
GridSize: 4
TimelineZoom: 2.6

[Metadata]
Title:Dimension tripper!!!!
TitleUnicode:Dimension tripper!!!!
Artist:nao
ArtistUnicode:nao
Creator:chucentry
Version:pollo torippaaa
Source:dimension tripper
Tags:dimension tripper
BeatmapID:509130
BeatmapSetID:216997

[Difficulty]
HPDrainRate:5.5
CircleSize:4
OverallDifficulty:7.5
ApproachRate:9.2
SliderMultiplier:1.8
SliderTickRate:1

[Events]
//Background and Video events
0,0,"Neptunia_anime_screenshot_version_2.jpg",0,0
//Break Periods
2,90131,97021
2,188270,197075
//Storyboard Layer 0 (Background)
//Storyboard Layer 1 (Fail)
//Storyboard Layer 2 (Pass)
//Storyboard Layer 3 (Foreground)
//Storyboard Sound Samples
//Background Colour Transformations
3,100,163,162,255

[TimingPoints]
570,319.148936170213,4,2,1,100,1,0
570,319.148936170213,4,2,1,100,1,0
5516,-125,4,2,1,100,0,0
5835,-100,4,2,1,100,0,0
43814,-125,4,2,1,100,0,0
44133,-100,4,2,1,100,0,0
58655,-100,4,2,1,100,0,1
78123,-125,4,2,1,100,0,0
78442,-100,4,2,1,100,0,0
79399,-125,4,2,1,100,0,0
79399,-125,4,2,1,100,0,1
79718,-100,4,2,1,100,0,0
81554,-133.333333333333,4,2,1,100,0,0
81793,-100,4,2,1,100,0,0
84665,-133.333333333333,4,2,1,100,0,0
84905,-100,4,2,1,100,0,0
85064,-66.6666666666667,4,2,1,100,0,0
85224,-100,4,2,1,100,0,0
85383,-66.6666666666667,4,2,1,100,0,0
85623,-100,4,2,1,100,0,0
97591,-133.333333333333,4,2,1,100,0,0
97910,-100,4,2,1,100,0,0
98070,-133.333333333333,4,2,1,100,0,0
98389,-100,4,2,1,100,0,0
101740,-133.333333333333,4,2,1,100,0,0
102059,-100,4,2,1,100,0,0
110995,-133.333333333333,4,2,1,100,0,0
111314,-100,4,2,1,100,0,0
119931,-100,4,2,1,100,0,1
140835,-100,4,2,1,100,0,1
171075,-133.333333333333,4,2,1,100,0,1
171633,-100,4,2,1,100,0,1
208016,-100,4,2,1,100,0,1
209772,-125,4,2,1,100,0,1
210091,-100,4,2,1,100,0,1
228921,-100,4,2,1,100,0,0

[Colours]
Combo1 : 0,128,255
Combo2 : 0,255,255
Combo3 : 255,0,0
Combo4 : 0,255,0
Combo5 : 255,255,0
Combo6 : 255,0,128

[HitObjects]
256,192,3442,12,0,4718,0:0:0:0:
340,144,5038,6,0,L|292:184,1,45
200,108,5197,2,0,L|236:80,1,45,0|0,0:0|0:0,0:0:0:0:
216,224,5357,1,0,0:0:0:0:
368,108,5516,2,0,P|381:195|362:276,1,144
360,284,5995,5,0,0:0:0:0:
388,136,6155,1,0,0:0:0:0:
368,252,6314,1,0,0:0:0:0:
224,96,6474,1,0,0:0:0:0:
200,216,6633,1,0,0:0:0:0:
416,200,6793,1,0,0:0:0:0:
248,312,6952,6,0,P|176:316|144:288,1,90
328,192,7272,2,0,P|400:188|432:216,1,90
412,195,7591,1,0,0:0:0:0:
324,304,7750,1,0,0:0:0:0:
200,152,7910,1,0,0:0:0:0:
276,60,8070,6,0,L|336:108,1,45
244,236,8229,2,0,L|192:228,1,45
144,100,8389,2,0,L|120:148,1,45
324,192,8548,2,0,L|364:152,1,45
260,292,8708,2,0,B|200:288|204:288,1,45
252,224,8867,5,0,0:0:0:0:
168,328,9027,1,0,0:0:0:0:
88,200,9187,1,0,0:0:0:0:
228,136,9346,1,0,0:0:0:0:
392,60,9506,1,0,0:0:0:0:
413,99,9585,1,0,0:0:0:0:
427,142,9665,1,0,0:0:0:0:
433,186,9745,1,0,0:0:0:0:
430,231,9825,1,0,0:0:0:0:
419,275,9905,5,0,0:0:0:0:
404,300,9984,1,0,0:0:0:0:
252,300,10304,1,0,0:0:0:0:
216,172,10623,1,0,0:0:0:0:
384,168,10942,1,0,0:0:0:0:
416,252,11101,1,0,0:0:0:0:
312,224,11261,5,0,0:0:0:0:
384,60,11421,1,0,0:0:0:0:
280,144,11580,1,0,0:0:0:0:
168,72,11740,1,0,0:0:0:0:
148,48,11899,1,0,0:0:0:0:
132,200,12059,6,0,P|184:229|231:254,1,90,0|0,0:0|0:0,0:0:0:0:
112,188,12378,1,0,0:0:0:0:
151,210,12457,1,0,0:0:0:0:
190,231,12537,1,0,0:0:0:0:
312,224,12697,1,0,0:0:0:0:
364,72,12857,1,0,0:0:0:0:
464,196,13016,1,0,0:0:0:0:
392,296,13176,6,0,P|328:308|272:292,1,90,0|0,0:0|0:0,0:0:0:0:
308,80,13495,2,0,P|372:68|384:60,1,45,0|0,0:0|0:0,0:0:0:0:
400,140,13655,1,0,0:0:0:0:
236,208,13814,1,0,0:0:0:0:
236,208,13894,1,0,0:0:0:0:
236,208,13974,1,0,0:0:0:0:
180,136,14133,5,0,0:0:0:0:
92,144,14293,1,0,0:0:0:0:
300,144,14452,1,0,0:0:0:0:
152,288,14612,1,0,0:0:0:0:
404,168,14772,1,0,0:0:0:0:
348,216,14851,1,0,0:0:0:0:
376,276,14931,1,0,0:0:0:0:
388,276,15091,5,0,0:0:0:0:
360,220,15170,1,0,0:0:0:0:
412,184,15250,1,0,0:0:0:0:
236,208,15410,1,0,0:0:0:0:
232,176,15570,2,0,B|160:232|336:232|208:312,1,180
236,280,16048,1,0,0:0:0:0:
104,128,16208,5,0,0:0:0:0:
97,172,16287,1,0,0:0:0:0:
111,211,16367,1,0,0:0:0:0:
96,104,16527,2,0,B|112:208|108:192|112:220,1,90
60,312,16846,1,0,0:0:0:0:
192,316,17006,6,0,P|312:300|320:328,2,180,0|0|0,0:0|0:0|0:0,0:0:0:0:
319,322,17963,1,0,0:0:0:0:
404,200,18282,1,0,0:0:0:0:
404,200,18362,1,0,0:0:0:0:
404,200,18442,5,0,0:0:0:0:
212,152,18601,1,0,0:0:0:0:
212,152,18681,1,0,0:0:0:0:
212,152,18761,2,0,B|168:208|280:200|296:228|172:252,1,180
92,276,19240,1,0,0:0:0:0:
404,200,19399,1,0,0:0:0:0:
104,76,19559,5,0,0:0:0:0:
244,324,19718,1,0,0:0:0:0:
416,104,19878,1,0,0:0:0:0:
168,324,20038,1,0,0:0:0:0:
464,56,20197,1,0,0:0:0:0:
468,324,20516,1,0,0:0:0:0:
252,192,20835,5,0,0:0:0:0:
120,172,20995,1,0,0:0:0:0:
120,172,21075,1,0,0:0:0:0:
120,172,21155,1,0,0:0:0:0:
228,76,21234,1,0,0:0:0:0:
184,292,21394,1,0,0:0:0:0:
328,200,21554,5,0,0:0:0:0:
420,96,21713,1,0,0:0:0:0:
412,300,21952,1,0,0:0:0:0:
412,300,22032,1,0,0:0:0:0:
412,300,22112,1,0,0:0:0:0:
420,156,22272,5,0,0:0:0:0:
248,192,22431,1,0,0:0:0:0:
144,40,22591,1,0,0:0:0:0:
312,100,22750,1,0,0:0:0:0:
124,152,22910,1,0,0:0:0:0:
96,264,23070,2,0,P|152:308|196:308,1,90
416,144,23389,2,0,P|360:100|316:100,1,90
328,208,23708,5,0,0:0:0:0:
328,208,23788,1,0,0:0:0:0:
328,208,23867,1,0,0:0:0:0:
188,120,24027,2,0,P|168:188|176:216,1,90
108,148,24346,1,0,3:0:0:0:
147,126,24425,1,0,3:0:0:0:
190,117,24505,1,0,3:0:0:0:
256,176,24665,5,0,0:0:0:0:
400,248,24825,1,0,0:0:0:0:
168,120,24984,1,0,0:0:0:0:
380,132,25144,1,0,0:0:0:0:
288,276,25304,1,0,0:0:0:0:
92,64,25463,5,0,0:0:0:0:
92,232,25623,1,0,0:0:0:0:
392,240,25782,1,0,0:0:0:0:
384,196,25861,1,0,0:0:0:0:
393,153,25941,1,0,0:0:0:0:
232,96,26101,1,0,0:0:0:0:
236,136,26180,1,0,0:0:0:0:
224,172,26260,1,0,0:0:0:0:
232,208,26421,5,0,0:0:0:0:
292,48,26580,1,0,0:0:0:0:
324,240,26740,1,0,0:0:0:0:
432,52,26899,2,0,B|480:96|420:96|380:116|444:140|504:140|420:192,1,180
448,168,27298,1,0,0:0:0:0:
452,152,27378,1,0,0:0:0:0:
64,52,27697,5,0,0:0:0:0:
64,52,27777,1,0,0:0:0:0:
64,52,27857,1,0,0:0:0:0:
64,52,27937,1,0,0:0:0:0:
64,52,28096,1,0,0:0:0:0:
72,240,28415,5,0,0:0:0:0:
92,199,28495,1,0,0:0:0:0:
100,155,28574,1,0,0:0:0:0:
104,124,28655,1,0,0:0:0:0:
256,88,28974,2,0,P|324:88|344:112,1,90
392,96,29293,6,0,B|344:100|332:92|344:148,1,90
288,216,29612,1,0,0:0:0:0:
176,76,29772,1,0,0:0:0:0:
72,232,29931,1,0,0:0:0:0:
276,116,30091,1,0,0:0:0:0:
184,280,30250,6,0,B|232:304|240:304|224:252,1,90
392,100,30570,1,0,0:0:0:0:
368,112,30649,1,0,0:0:0:0:
351,126,30729,1,0,0:0:0:0:
288,216,30889,1,0,0:0:0:0:
392,260,31048,5,0,0:0:0:0:
256,336,31208,1,0,0:0:0:0:
104,304,31367,1,0,0:0:0:0:
216,168,31527,1,0,0:0:0:0:
68,120,31687,2,0,B|108:100|124:96|132:104|116:60,1,90
308,60,32006,2,0,B|336:96|316:104|364:56|336:72|384:112,1,90
124,232,32325,5,0,0:0:0:0:
292,84,32484,1,0,0:0:0:0:
128,64,32644,1,0,0:0:0:0:
272,248,32804,1,0,0:0:0:0:
376,172,32963,1,0,0:0:0:0:
252,272,33123,5,0,0:0:0:0:
287,239,33202,1,0,0:0:0:0:
320,209,33282,1,0,0:0:0:0:
353,179,33362,1,0,0:0:0:0:
376,156,33442,2,0,L|304:224,1,90
288,80,33761,6,0,B|240:80|240:72|268:88|188:96,1,90
376,244,34080,2,0,B|424:244|424:252|396:236|476:228,1,90
200,312,34399,1,0,0:0:0:0:
248,100,34559,1,0,0:0:0:0:
100,248,34718,2,0,B|152:248|140:228|144:276|88:220|160:312|160:176|188:308|180:228|200:260|212:236|164:184|268:272,1,180
372,140,35197,5,0,0:0:0:0:
244,52,35357,1,0,0:0:0:0:
172,96,35436,1,0,0:0:0:0:
116,160,35516,1,0,0:0:0:0:
240,280,35676,1,0,0:0:0:0:
312,236,35755,1,0,0:0:0:0:
352,160,35835,1,0,0:0:0:0:
224,164,35995,1,0,0:0:0:0:
196,280,36155,5,0,0:0:0:0:
412,264,36314,1,0,0:0:0:0:
232,100,36474,2,0,P|280:124|256:136,1,90
304,224,36793,1,0,0:0:0:0:
184,44,36952,1,0,0:0:0:0:
167,66,37031,1,0,0:0:0:0:
151,90,37111,5,0,0:0:0:0:
137,114,37191,1,0,0:0:0:0:
124,139,37271,1,0,0:0:0:0:
112,164,37350,1,0,0:0:0:0:
102,190,37430,1,0,0:0:0:0:
92,217,37510,1,0,0:0:0:0:
84,244,37590,1,0,0:0:0:0:
216,232,37750,5,0,0:0:0:0:
128,132,37910,1,0,0:0:0:0:
128,132,38070,1,0,0:0:0:0:
328,60,38229,1,0,0:0:0:0:
344,256,38389,1,0,0:0:0:0:
192,152,38548,1,0,0:0:0:0:
148,320,38708,5,0,0:0:0:0:
384,188,38867,1,0,0:0:0:0:
180,72,39027,1,0,0:0:0:0:
396,100,39187,1,0,0:0:0:0:
248,192,39346,1,0,0:0:0:0:
64,236,39506,6,0,B|76:300|72:304|68:292|120:284|36:308|132:284|24:316|92:340,1,90
264,80,39825,1,0,0:0:0:0:
324,260,39984,1,0,0:0:0:0:
88,112,40144,2,0,P|136:184|152:200,1,90
340,80,40463,5,0,0:0:0:0:
452,192,40623,1,0,0:0:0:0:
264,260,40782,2,0,B|244:304|264:316|212:296|184:296,1,90
188,292,41022,1,0,0:0:0:0:
176,288,41101,1,0,0:0:0:0:
256,288,41261,1,0,0:0:0:0:
384,248,41421,5,0,0:0:0:0:
432,216,41500,1,0,0:0:0:0:
408,268,41580,1,0,0:0:0:0:
424,112,41740,1,0,0:0:0:0:
268,172,41899,1,0,0:0:0:0:
312,48,42059,5,0,0:0:0:0:
140,64,42218,1,0,0:0:0:0:
336,192,42378,1,0,0:0:0:0:
356,220,42457,1,0,0:0:0:0:
344,248,42537,1,0,0:0:0:0:
372,136,42697,6,0,L|376:184,1,45
212,240,42777,2,0,L|264:256,1,45
228,92,42937,2,0,P|180:116|172:128,1,45
424,252,43335,2,0,B|376:288|368:272|396:308|348:312,1,90
320,68,43814,6,0,B|368:104|416:80|424:168,1,144
392,80,44293,1,0,0:0:0:0:
384,96,44373,1,0,0:0:0:0:
376,112,44452,2,0,P|364:152|312:168,1,90
448,120,44771,1,0,0:0:0:0:
220,160,44931,5,0,0:0:0:0:
196,136,45010,1,0,0:0:0:0:
160,140,45090,1,0,0:0:0:0:
292,224,45250,1,0,0:0:0:0:
100,60,45409,1,0,0:0:0:0:
128,72,45488,1,0,0:0:0:0:
156,80,45568,1,0,0:0:0:0:
380,68,45729,5,0,0:0:0:0:
444,208,45888,1,0,0:0:0:0:
272,292,46048,2,0,L|320:304,1,45,0|0,0:0|0:0,0:0:0:0:
300,128,46208,2,0,L|256:144,1,45,0|0,0:0|0:0,0:0:0:0:
176,296,46367,1,0,0:0:0:0:
88,192,46527,5,0,0:0:0:0:
88,192,46607,1,0,0:0:0:0:
88,192,46687,1,0,0:0:0:0:
88,192,46766,1,0,0:0:0:0:
107,151,46845,1,0,0:0:0:0:
138,119,46925,1,0,0:0:0:0:
182,118,47005,5,0,0:0:0:0:
221,138,47085,1,0,0:0:0:0:
253,170,47164,1,0,0:0:0:0:
160,116,47325,2,0,P|208:92|212:112,1,90
288,184,47644,1,0,0:0:0:0:
104,280,47804,1,0,0:0:0:0:
80,56,47963,5,0,0:0:0:0:
444,328,48282,1,0,0:0:0:0:
256,192,48601,1,0,0:0:0:0:
332,88,48761,2,0,P|368:136|360:172,1,90
168,76,49080,2,0,B|124:96|116:116|136:132|84:156,1,90
120,288,49399,5,0,0:0:0:0:
416,200,49559,1,0,0:0:0:0:
292,324,49718,1,0,0:0:0:0:
244,160,49878,1,0,0:0:0:0:
244,160,49958,1,0,0:0:0:0:
244,160,50038,1,0,0:0:0:0:
424,224,50197,6,0,B|424:180|424:188|400:208|388:200|376:212|380:236,1,90
424,104,50516,1,0,0:0:0:0:
248,248,50676,1,0,0:0:0:0:
164,76,50835,1,0,0:0:0:0:
368,224,50995,5,0,0:0:0:0:
136,196,51155,1,0,0:0:0:0:
324,72,51314,1,0,0:0:0:0:
384,304,51474,2,0,B|328:304|320:312|320:296|320:296|304:304|280:304,1,90
128,80,51793,2,0,B|184:80|192:72|192:88|192:88|208:80|232:80,1,90
272,148,52112,1,0,0:0:0:0:
404,84,52272,5,0,0:0:0:0:
408,112,52351,1,0,0:0:0:0:
416,140,52431,1,0,0:0:0:0:
432,160,52511,1,0,0:0:0:0:
416,140,52591,1,0,0:0:0:0:
244,72,52750,1,0,0:0:0:0:
288,244,52910,5,0,0:0:0:0:
244,237,52989,1,0,0:0:0:0:
215,203,53069,1,0,0:0:0:0:
224,140,53229,5,0,0:0:0:0:
267,146,53308,1,0,0:0:0:0:
296,180,53388,1,0,0:0:0:0:
308,160,53548,5,0,0:0:0:0:
301,203,53627,1,0,0:0:0:0:
267,232,53707,1,0,0:0:0:0:
204,224,53867,5,0,0:0:0:0:
210,180,53946,1,0,0:0:0:0:
244,151,54026,1,0,0:0:0:0:
256,196,54187,5,0,0:0:0:0:
256,144,54506,2,0,B|260:188|280:176|224:196|216:208|248:216|292:176|304:192|312:200|272:240|240:240|252:276,1,180
252,360,54984,1,0,0:0:0:0:
260,24,55144,1,0,0:0:0:0:
88,188,55304,1,0,0:0:0:0:
424,196,55463,1,0,0:0:0:0:
204,112,55623,6,0,P|152:92|116:116,1,90
160,96,55942,1,0,0:0:0:0:
308,272,56101,2,0,P|360:292|396:268,1,90
348,296,56421,1,0,0:0:0:0:
99,261,56580,5,0,0:0:0:0:
123,223,56659,1,0,0:0:0:0:
155,192,56739,1,0,0:0:0:0:
195,171,56819,1,0,0:0:0:0:
240,168,56899,1,0,0:0:0:0:
240,168,56979,1,0,0:0:0:0:
240,168,57059,1,0,0:0:0:0:
240,168,57139,1,0,0:0:0:0:
240,168,57218,1,0,0:0:0:0:
280,184,57298,1,0,0:0:0:0:
314,214,57378,1,0,0:0:0:0:
336,253,57458,1,0,0:0:0:0:
272,104,57617,6,0,L|224:116,1,45,0|0,0:0|0:0,0:0:0:0:
112,232,57777,6,0,L|144:272,1,45
268,256,57937,6,0,L|224:224,1,45
152,104,58096,6,0,L|140:156,1,45
336,124,58335,5,0,0:0:0:0:
104,304,58655,5,0,0:0:0:0:
200,240,58814,2,0,B|236:204|244:192|260:172|248:172|240:184|256:192|316:184,1,135
88,72,59133,2,0,B|124:108|144:100|136:124|152:144|120:136|80:156|120:184|88:208,1,135
144,152,59452,1,0,0:0:0:0:
336,92,59612,2,0,L|240:128,1,90,0|0,0:0|0:0,0:0:0:0:
251,123,59851,5,0,0:0:0:0:
280,112,59931,1,0,0:0:0:0:
352,212,60091,1,0,0:0:0:0:
264,300,60250,1,0,0:0:0:0:
216,240,60410,6,0,B|252:204|260:192|276:172|264:172|256:184|272:192|332:184,1,135
144,228,60729,2,0,B|132:280|128:284|160:288|184:300,1,90
344,268,61048,5,0,0:0:0:0:
388,152,61208,6,0,L|292:188,1,90,0|0,0:0|0:0,0:0:0:0:
272,196,61447,5,0,0:0:0:0:
301,185,61527,5,0,0:0:0:0:
100,64,61687,2,0,B|48:108|52:128|176:108|56:164|168:160|64:160|116:228|124:184,1,135
76,80,62006,2,0,L|112:164,1,90
144,276,62325,2,0,L|100:312,1,45
128,288,62484,1,0,0:0:0:0:
232,108,62644,6,0,B|196:172|204:196|192:196,1,90
304,256,62963,1,0,0:0:0:0:
428,252,63043,2,0,B|371:230|380:213|359:261|344:212|319:226|302:257,1,135
396,240,63442,1,0,0:0:0:0:
348,164,63601,1,0,0:0:0:0:
280,104,63761,5,0,0:0:0:0:
192,116,63921,1,0,0:0:0:0:
128,180,64080,1,0,0:0:0:0:
100,216,64160,1,0,0:0:0:0:
100,216,64240,1,0,0:0:0:0:
128,180,64320,1,0,0:0:0:0:
112,200,64399,1,0,0:0:0:0:
216,260,64559,5,0,0:0:0:0:
380,96,64718,1,0,0:0:0:0:
140,104,64878,1,0,0:0:0:0:
360,236,65038,1,0,0:0:0:0:
268,72,65197,5,0,0:0:0:0:
272,104,65276,1,0,0:0:0:0:
284,124,65356,1,0,0:0:0:0:
136,276,65516,1,0,0:0:0:0:
140,72,65676,1,0,0:0:0:0:
408,200,65835,5,0,0:0:0:0:
192,180,65995,2,0,B|192:228|212:232|228:224|192:240|236:252|224:260|224:272|272:264,1,135
288,76,66314,2,0,B|280:124|272:124|288:128|328:104,1,90
112,88,66633,1,0,0:0:0:0:
96,104,66712,1,0,0:0:0:0:
83,122,66792,1,0,0:0:0:0:
70,141,66872,5,0,0:0:0:0:
61,161,66952,1,0,0:0:0:0:
52,180,67032,2,0,L|96:208,1,45
228,200,67192,2,0,L|184:172,1,45
116,304,67351,2,0,L|144:260,1,45
156,112,67511,2,0,L|128:156,1,45
216,288,67750,5,0,0:0:0:0:
360,176,67910,1,0,0:0:0:0:
232,60,68070,1,0,0:0:0:0:
72,124,68229,2,0,L|120:168,1,45
252,192,68389,2,0,L|208:220,1,45
60,256,68548,2,0,L|96:296,1,45
176,320,68708,1,0,0:0:0:0:
160,164,68867,5,0,0:0:0:0:
288,248,69027,2,0,B|332:208|364:212|368:216|332:280|340:316|356:300|372:304|320:368,1,180
444,272,69506,1,0,0:0:0:0:
388,84,69665,5,0,0:0:0:0:
373,95,69745,1,0,0:0:0:0:
360,108,69825,2,0,P|268:172|264:172,1,90
280,168,70064,1,0,0:0:0:0:
124,252,70144,2,0,B|180:216|188:168|204:164|216:212|208:228|236:296|252:272|268:272|276:268,1,180
352,292,70623,5,0,0:0:0:0:
120,336,70782,1,0,0:0:0:0:
208,160,70942,1,0,0:0:0:0:
224,136,71021,1,0,0:0:0:0:
248,140,71101,1,0,0:0:0:0:
100,168,71261,5,0,0:0:0:0:
228,276,71421,1,0,0:0:0:0:
352,96,71580,2,0,P|404:100|436:124,1,90
160,88,71899,2,0,P|108:84|76:60,1,90
60,48,72218,1,0,0:0:0:0:
76,61,72297,1,0,0:0:0:0:
93,75,72377,1,0,0:0:0:0:
376,168,72538,6,0,B|364:236|284:236|224:184,1,180
230,189,73016,1,0,0:0:0:0:
76,64,73176,2,0,P|96:132|88:152,1,90
261,76,73416,5,0,0:0:0:0:
280,88,73495,1,0,0:0:0:0:
284,109,73575,1,0,0:0:0:0:
285,132,73655,1,0,0:0:0:0:
280,312,73814,1,0,0:0:0:0:
244,304,73893,1,0,0:0:0:0:
208,292,73973,1,0,0:0:0:0:
84,140,74133,6,0,P|148:203|201:211,1,135
189,212,74452,2,0,L|124:192,2,45,0|0|0,0:0|0:0|0:0,0:0:0:0:
344,236,74772,2,0,P|368:180|360:156,1,90
374,47,75011,1,0,0:0:0:0:
374,47,75091,1,0,0:0:0:0:
340,76,75170,1,0,0:0:0:0:
305,104,75250,5,0,0:0:0:0:
160,72,75330,1,0,0:0:0:0:
156,64,75410,2,0,L|212:152,1,90
220,305,75649,1,0,0:0:0:0:
220,305,75729,1,0,0:0:0:0:
196,268,75808,1,0,0:0:0:0:
171,230,75888,5,0,0:0:0:0:
328,180,75968,1,0,0:0:0:0:
328,180,76048,2,0,L|288:264,1,90
132,304,76367,1,0,0:0:0:0:
76,212,76527,1,0,0:0:0:0:
92,189,76606,1,0,0:0:0:0:
105,166,76686,5,0,0:0:0:0:
115,140,76766,1,0,0:0:0:0:
119,113,76846,1,0,0:0:0:0:
121,85,76925,1,0,0:0:0:0:
127,59,77005,5,0,0:0:0:0:
150,47,77085,1,0,0:0:0:0:
176,55,77165,1,0,0:0:0:0:
200,69,77245,1,0,0:0:0:0:
223,84,77324,1,0,0:0:0:0:
248,96,77404,1,0,0:0:0:0:
267,104,77484,5,0,0:0:0:0:
292,104,77564,1,0,0:0:0:0:
312,116,77644,1,0,0:0:0:0:
328,132,77724,1,0,0:0:0:0:
332,156,77804,1,0,0:0:0:0:
188,296,78123,6,0,B|191:242|191:242|176:200|180:143|236:195,1,144,0|0,0:0|0:0,0:0:0:0:
332,280,78601,1,0,0:0:0:0:
380,72,78761,1,0,0:0:0:0:
444,200,78921,1,0,0:0:0:0:
244,188,79080,1,0,0:0:0:0:
148,80,79399,6,0,P|121:184|148:224,1,135
128,224,79798,1,0,0:0:0:0:
128,240,79878,2,0,P|112:184|116:152,1,90
244,108,80197,1,0,0:0:0:0:
376,156,80357,5,0,0:0:0:0:
376,156,80437,1,0,0:0:0:0:
376,156,80516,2,0,P|400:220|392:252,1,90
216,232,80835,1,0,0:0:0:0:
184,52,80995,1,0,0:0:0:0:
168,68,81075,1,0,0:0:0:0:
156,80,81155,2,0,P|114:140|110:156,1,90
280,176,81474,5,0,0:0:0:0:
280,176,81554,2,0,B|282:178|282:178|328:156|328:156|350:127|350:127|378:133,1,101.250003862381
384,212,81952,2,0,P|448:248|472:252,1,90
352,321,82272,1,0,0:0:0:0:
316,296,82351,1,0,0:0:0:0:
273,282,82431,1,0,0:0:0:0:
152,232,82591,5,0,0:0:0:0:
224,64,82750,1,0,0:0:0:0:
320,228,82910,1,0,0:0:0:0:
404,104,83070,2,0,P|349:93|317:107,1,90
96,132,83389,2,0,P|150:142|182:128,1,90
360,92,83708,5,0,0:0:0:0:
140,144,83867,1,0,0:0:0:0:
262,156,84027,1,0,0:0:0:0:
284,235,84107,1,0,0:0:0:0:
288,192,84187,1,0,0:0:0:0:
281,144,84346,5,0,0:0:0:0:
317,221,84426,1,0,0:0:0:0:
288,188,84506,1,0,0:0:0:0:
432,124,84665,2,0,B|396:93|380:114|346:100|337:58,1,101.250003862381
340,192,85064,2,0,B|364:264|364:288|304:296,1,135
208,120,85383,6,0,B|200:184|160:172|236:176|172:200|240:176|264:136|152:228|176:240|216:272,1,180
196,252,85702,1,0,0:0:0:0:
204,260,85782,2,0,P|248:292|288:288,1,90
268,160,86101,1,0,0:0:0:0:
360,76,86261,1,0,0:0:0:0:
368,89,86340,5,0,0:0:0:0:
380,104,86421,2,0,B|404:164|400:200|432:212,1,90
408,189,86740,1,0,0:0:0:0:
356,288,86899,2,0,P|284:296|256:272,1,90
100,152,87218,2,0,P|172:144|200:168,1,90
324,204,87538,5,0,0:0:0:0:
288,104,87697,1,0,0:0:0:0:
256,96,87776,1,0,0:0:0:0:
216,84,87856,1,0,0:0:0:0:
176,244,88016,5,0,0:0:0:0:
208,252,88095,1,0,0:0:0:0:
248,264,88175,1,0,0:0:0:0:
408,208,88335,1,0,0:0:0:0:
356,40,88495,1,0,0:0:0:0:
248,108,88655,6,0,L|280:156,1,45
224,284,88814,2,0,L|192:236,1,45
304,236,88974,1,0,0:0:0:0:
256,192,89133,12,0,89931,0:0:0:0:
152,80,97591,6,0,B|144:144|108:136|144:188|164:204|164:204|192:208,1,135
184,316,98070,2,0,B|192:252|228:260|192:208|152:196|152:196|172:196,1,135
162,200,98548,1,0,0:0:0:0:
196,60,98708,1,0,0:0:0:0:
229,56,98787,1,0,0:0:0:0:
262,59,98867,1,0,0:0:0:0:
292,73,98947,5,0,0:0:0:0:
307,101,99027,1,0,0:0:0:0:
300,134,99106,1,0,0:0:0:0:
313,162,99187,2,0,L|252:232,1,90
196,304,99506,2,0,L|152:332,1,45
72,260,99665,2,0,L|116:232,1,45,0|0,0:0|0:0,0:0:0:0:
104,116,99825,6,0,P|164:100|216:128,1,90
408,268,100144,2,0,P|348:284|296:256,1,90
372,144,100463,1,0,0:0:0:0:
152,224,100623,1,0,0:0:0:0:
288,288,100782,2,0,L|288:192,1,90
208,96,101101,5,0,0:0:0:0:
40,228,101261,1,0,0:0:0:0:
256,208,101421,2,0,L|220:296,1,90
400,224,101740,2,0,B|435:153|435:153|411:102|376:101|376:101,1,135
272,36,102218,2,0,P|220:76|192:108,1,90
140,164,102538,1,0,0:0:0:0:
300,168,102697,6,0,P|296:236|268:260,1,90
164,304,103016,1,0,0:0:0:0:
296,308,103176,2,0,P|360:316|388:292,1,90
460,152,103495,2,0,P|396:144|368:168,1,90
224,100,103814,2,0,B|224:52|224:56|244:68|248:132|192:180|228:220,1,180
92,288,104293,2,0,B|92:336|92:332|72:320|68:256|124:208|88:168,1,180
96,208,104772,1,0,0:0:0:0:
256,276,105091,6,0,B|328:324|376:300|384:188,1,180
320,132,105570,1,0,0:0:0:0:
192,252,105729,1,0,0:0:0:0:
128,80,105889,1,0,0:0:0:0:
224,152,106048,1,0,0:0:0:0:
304,48,106208,1,0,0:0:0:0:
444,144,106367,5,0,0:0:0:0:
430,156,106446,1,0,0:0:0:0:
416,169,106526,1,0,0:0:0:0:
416,169,106607,2,0,L|368:209,1,45
204,212,106846,5,0,0:0:0:0:
216,226,106925,1,0,0:0:0:0:
229,240,107005,1,0,0:0:0:0:
229,240,107086,2,0,L|269:288,1,45
128,292,107325,1,0,0:0:0:0:
64,148,107484,1,0,0:0:0:0:
272,184,107644,5,0,0:0:0:0:
176,64,107804,1,0,0:0:0:0:
88,224,107963,1,0,0:0:0:0:
164,176,108123,1,0,0:0:0:0:
182,154,108202,1,0,0:0:0:0:
202,134,108282,5,0,0:0:0:0:
227,122,108362,1,0,0:0:0:0:
251,106,108442,1,0,0:0:0:0:
276,92,108521,1,0,0:0:0:0:
304,93,108601,1,0,0:0:0:0:
327,109,108681,1,0,0:0:0:0:
342,133,108761,5,0,0:0:0:0:
353,159,108841,1,0,0:0:0:0:
368,182,108920,1,0,0:0:0:0:
388,203,109000,1,0,0:0:0:0:
409,221,109080,2,0,L|372:268,1,45
256,304,109240,2,0,L|293:257,1,45
280,172,109399,5,0,0:0:0:0:
92,48,109559,1,0,0:0:0:0:
416,52,109878,1,0,0:0:0:0:
431,81,109957,1,0,0:0:0:0:
439,113,110037,5,0,0:0:0:0:
440,146,110117,1,0,0:0:0:0:
432,178,110197,1,0,0:0:0:0:
416,208,110276,1,0,0:0:0:0:
400,232,110357,2,0,P|331:255|313:247,1,90
136,156,110676,2,0,P|208:148|224:160,1,90
284,264,110995,6,0,B|229:244|243:206|243:306,1,101.250003862381
241,289,111474,1,0,0:0:0:0:
64,324,111633,1,0,0:0:0:0:
104,168,111793,2,0,P|169:150|176:122,1,90
248,64,112112,5,0,0:0:0:0:
264,320,112271,1,0,0:0:0:0:
128,200,112431,1,0,0:0:0:0:
384,184,112590,1,0,0:0:0:0:
192,112,112750,1,0,0:0:0:0:
216,136,112909,5,0,0:0:0:0:
191,113,112988,1,0,0:0:0:0:
168,96,113068,1,0,0:0:0:0:
364,264,113228,2,0,L|292:208,1,90
244,60,113547,1,0,0:0:0:0:
80,64,113707,1,0,0:0:0:0:
160,192,113867,5,0,0:0:0:0:
336,64,114027,2,0,B|404:132|400:172|308:220|320:208,1,180
376,128,114506,1,0,0:0:0:0:
412,300,114825,1,0,0:0:0:0:
328,328,114984,1,0,0:0:0:0:
240,304,115144,5,0,0:0:0:0:
84,312,115304,1,0,0:0:0:0:
84,312,115383,1,0,0:0:0:0:
84,312,115463,1,0,0:0:0:0:
152,188,115623,1,0,0:0:0:0:
288,208,115782,2,0,P|352:204|384:216,1,90
464,152,116101,5,0,0:0:0:0:
304,64,116261,2,0,P|364:84|396:60,1,90
192,96,116580,2,0,P|132:76|100:100,1,90
384,72,116899,1,0,0:0:0:0:
112,88,117059,1,0,0:0:0:0:
136,224,117219,5,0,0:0:0:0:
141,238,117298,1,0,0:0:0:0:
149,252,117378,1,0,0:0:0:0:
312,204,117538,1,0,0:0:0:0:
304,184,117617,1,0,0:0:0:0:
291,166,117697,1,0,0:0:0:0:
412,156,117857,5,0,0:0:0:0:
228,88,118016,2,0,P|280:68|324:80,1,90
228,88,118335,2,0,P|160:108|132:96,1,90
144,102,118655,2,0,P|212:82|240:94,1,90
248,220,118974,2,0,P|180:240|164:264,1,90
368,280,119293,1,0,0:0:0:0:
380,256,119373,5,0,0:0:0:0:
432,148,119532,1,0,0:0:0:0:
272,196,119612,2,0,L|316:184,1,45
236,72,119772,2,0,L|192:84,1,45
136,228,119931,5,0,0:0:0:0:
360,204,120090,2,0,B|324:240|316:252|300:272|312:272|320:260|304:252|244:260,1,135
276,56,120409,2,0,B|312:92|332:84|324:108|340:128|308:120|268:140|308:168|276:192,1,135
291,159,120728,1,0,0:0:0:0:
88,80,120888,2,0,L|124:176,1,90,0|0,0:0|0:0,0:0:0:0:
120,172,121128,5,0,0:0:0:0:
131,201,121208,1,0,0:0:0:0:
304,320,121367,1,0,0:0:0:0:
432,232,121526,1,0,0:0:0:0:
216,240,121686,6,0,B|252:204|260:192|276:172|264:172|256:184|272:192|332:184,1,135
144,228,122005,2,0,B|132:280|128:284|160:288|184:300,1,90
344,268,122324,5,0,0:0:0:0:
388,152,122484,6,0,L|292:188,1,90,0|0,0:0|0:0,0:0:0:0:
303,183,122723,5,0,0:0:0:0:
296,164,122803,5,0,0:0:0:0:
100,64,122963,2,0,B|48:108|52:128|176:108|56:164|168:160|64:160|116:228|124:184,1,135
76,80,123282,2,0,L|112:164,1,90
132,288,123601,1,0,0:0:0:0:
108,308,123680,1,0,0:0:0:0:
208,224,123760,1,0,0:0:0:0:
232,108,123920,6,0,B|196:172|204:196|192:196,1,90
304,256,124239,1,0,0:0:0:0:
428,252,124319,2,0,B|371:230|380:213|359:261|344:212|319:226|302:257,1,135
396,240,124718,1,0,0:0:0:0:
416,136,124877,1,0,0:0:0:0:
324,304,125037,5,0,0:0:0:0:
220,152,125197,1,0,0:0:0:0:
144,300,125356,1,0,0:0:0:0:
136,288,125436,1,0,0:0:0:0:
132,276,125516,1,0,0:0:0:0:
132,276,125596,1,0,0:0:0:0:
132,264,125676,1,0,0:0:0:0:
216,260,125835,5,0,0:0:0:0:
380,96,125994,1,0,0:0:0:0:
140,104,126154,1,0,0:0:0:0:
360,236,126314,1,0,0:0:0:0:
268,72,126473,5,0,0:0:0:0:
272,104,126552,1,0,0:0:0:0:
284,124,126632,1,0,0:0:0:0:
136,276,126792,1,0,0:0:0:0:
140,72,126952,1,0,0:0:0:0:
408,200,127111,5,0,0:0:0:0:
192,180,127271,2,0,B|192:228|212:232|228:224|192:240|236:252|224:260|224:272|272:264,1,135
288,76,127590,2,0,B|280:124|272:124|288:128|328:104,1,90
112,88,127909,1,0,0:0:0:0:
96,104,127988,1,0,0:0:0:0:
83,122,128068,1,0,0:0:0:0:
70,141,128148,5,0,0:0:0:0:
61,161,128228,1,0,0:0:0:0:
52,180,128308,2,0,L|96:208,1,45
228,200,128468,2,0,L|184:172,1,45
116,304,128627,2,0,L|144:260,1,45
156,112,128787,2,0,L|128:156,1,45
216,288,129026,5,0,0:0:0:0:
360,176,129186,1,0,0:0:0:0:
232,60,129346,1,0,0:0:0:0:
72,124,129505,2,0,L|120:168,1,45
288,144,129665,2,0,L|336:196,1,45
156,256,129825,2,0,L|120:284,1,45
176,320,129984,1,0,0:0:0:0:
160,164,130144,5,0,0:0:0:0:
288,248,130304,2,0,B|332:208|364:212|368:216|332:280|340:316|356:300|372:304|320:368,1,180
444,272,130783,1,0,0:0:0:0:
388,84,130942,5,0,0:0:0:0:
388,84,131021,1,0,0:0:0:0:
388,84,131101,2,0,P|296:148|292:148,1,90
264,180,131341,1,0,0:0:0:0:
200,208,131421,2,0,B|204:274|242:304|238:320|190:307|180:293|107:284|120:310|112:324|112:333,1,180
324,292,131900,5,0,0:0:0:0:
120,336,132059,1,0,0:0:0:0:
208,160,132219,1,0,0:0:0:0:
224,136,132298,1,0,0:0:0:0:
248,140,132378,1,0,0:0:0:0:
100,168,132538,5,0,0:0:0:0:
228,276,132698,1,0,0:0:0:0:
352,96,132857,2,0,P|404:100|436:124,1,90
160,88,133176,2,0,P|108:84|76:60,1,90
60,48,133495,1,0,0:0:0:0:
76,61,133574,1,0,0:0:0:0:
93,75,133654,1,0,0:0:0:0:
296,80,133815,6,0,B|364:92|364:172|312:232,1,180
220,164,134293,1,0,0:0:0:0:
412,128,134453,2,0,P|432:196|424:216,1,90
426,210,134693,5,0,0:0:0:0:
407,198,134772,1,0,0:0:0:0:
403,177,134852,1,0,0:0:0:0:
402,154,134932,1,0,0:0:0:0:
268,128,135091,1,0,0:0:0:0:
232,120,135170,1,0,0:0:0:0:
196,108,135250,1,0,0:0:0:0:
160,224,135410,6,0,P|224:287|277:295,1,135
260,292,135729,2,0,L|195:272,2,45,0|0|0,0:0|0:0|0:0,0:0:0:0:
80,276,136049,2,0,P|52:228|52:192,1,90
111,74,136288,1,0,0:0:0:0:
111,74,136368,1,0,0:0:0:0:
140,108,136447,1,0,0:0:0:0:
168,143,136527,5,0,0:0:0:0:
376,96,136607,1,0,0:0:0:0:
384,92,136687,2,0,L|296:148,1,90
173,80,136926,1,0,0:0:0:0:
173,80,137006,1,0,0:0:0:0:
136,104,137085,1,0,0:0:0:0:
98,129,137165,5,0,0:0:0:0:
147,255,137245,1,0,0:0:0:0:
172,272,137325,2,0,L|235:204,1,90
352,288,137644,1,0,0:0:0:0:
384,184,137804,1,0,0:0:0:0:
399,158,137883,5,0,0:0:0:0:
408,130,137963,1,0,0:0:0:0:
401,100,138043,1,0,0:0:0:0:
396,71,138123,5,0,0:0:0:0:
372,54,138202,1,0,0:0:0:0:
342,52,138282,5,0,0:0:0:0:
313,58,138362,1,0,0:0:0:0:
285,71,138442,5,0,0:0:0:0:
260,88,138522,2,0,P|216:124|212:128,1,45,0|0,0:0|0:0,0:0:0:0:
64,144,138681,2,0,P|100:188|104:192,1,45,0|0,0:0|0:0,0:0:0:0:
304,232,138841,2,0,P|268:188|264:184,1,45,0|0,0:0|0:0,0:0:0:0:
104,240,139000,2,0,P|140:284|144:288,1,45,0|0,0:0|0:0,0:0:0:0:
316,128,139399,2,0,P|275:233|319:281,1,180
316,128,139878,5,0,0:0:0:0:
452,200,140038,1,0,0:0:0:0:
308,276,140197,1,0,0:0:0:0:
408,112,140357,1,0,0:0:0:0:
408,112,140676,2,0,L|372:176,2,45,0|0|0,0:0|0:0|0:0,0:0:0:0:
272,200,140995,6,0,L|216:288,1,90
144,320,141314,1,0,0:0:0:0:
80,256,141474,1,0,0:0:0:0:
44,80,141793,1,0,0:0:0:0:
220,36,142112,1,0,0:0:0:0:
172,160,142431,2,0,L|128:56,1,90
156,120,142750,5,0,0:0:0:0:
268,168,142910,1,0,0:0:0:0:
280,280,143070,1,0,0:0:0:0:
176,312,143229,6,0,P|120:296|92:264,1,90
68,148,143548,1,0,0:0:0:0:
184,40,143707,1,0,0:0:0:0:
244,188,143867,1,0,0:0:0:0:
360,80,144026,1,0,0:0:0:0:
480,352,144346,1,0,0:0:0:0:
480,352,144665,6,0,B|455:297|458:293|450:286|432:271|422:296|443:258|415:257|369:277|391:255|382:252|370:253|348:267|338:292|320:269|330:292|328:268,1,180
196,328,145144,2,0,P|152:288|132:248,1,90
92,100,145463,1,0,0:0:0:0:
228,84,145623,1,0,0:0:0:0:
239,102,145702,1,0,0:0:0:0:
251,120,145782,6,0,L|275:168|283:184,1,45,0|0,0:0|0:0,0:0:0:0:
408,168,145942,2,0,L|384:120|376:104,1,45
328,248,146101,1,0,0:0:0:0:
152,240,146261,2,0,P|172:296|232:288,1,90
44,200,146580,1,0,0:0:0:0:
36,344,146899,5,0,0:0:0:0:
36,344,147218,2,0,P|98:329|125:356,2,90,0|0|0,0:0|0:0|0:0,0:0:0:0:
40,40,147857,1,0,0:0:0:0:
160,180,148016,1,0,0:0:0:0:
32,236,148176,1,0,0:0:0:0:
144,68,148335,1,0,0:0:0:0:
271,53,148495,5,0,0:0:0:0:
312,72,148574,1,0,0:0:0:0:
352,90,148655,2,0,L|396:128,1,45
328,208,148814,2,0,P|352:224|384:248,1,45
268,312,148974,2,0,B|208:264|180:228|164:240,1,90
216,112,149452,5,0,0:0:0:0:
64,52,149772,1,0,0:0:0:0:
56,240,150250,2,0,B|52:244|76:292|76:292|112:300|112:300|132:284|136:288|136:288,1,90
188,136,150490,1,0,0:0:0:0:
188,136,150570,1,0,0:0:0:0:
316,180,150729,2,0,L|316:288,1,90
316,200,151048,5,0,0:0:0:0:
432,296,151208,1,0,0:0:0:0:
445,260,151287,1,0,0:0:0:0:
428,228,151367,1,0,0:0:0:0:
424,108,151527,1,0,0:0:0:0:
280,56,151687,6,0,B|220:60|212:56|212:44|196:56|184:40|188:68|184:100|200:104|176:116|212:144,1,180
88,256,152165,2,0,B|140:236|148:232|140:224|160:244|160:224|168:212,1,90
316,200,152484,2,0,P|288:144|276:132,1,45
316,200,152644,1,0,0:0:0:0:
184,316,152804,1,0,0:0:0:0:
364,316,152963,6,0,B|440:296|464:280|472:244|372:212,1,180
324,136,153442,1,0,0:0:0:0:
172,232,153601,1,0,0:0:0:0:
352,232,153761,1,0,0:0:0:0:
208,68,153921,1,0,0:0:0:0:
252,212,154080,5,0,0:0:0:0:
248,248,154159,1,0,0:0:0:0:
256,280,154239,1,0,0:0:0:0:
144,328,154399,1,0,0:0:0:0:
372,328,154559,1,0,0:0:0:0:
252,128,154718,1,0,0:0:0:0:
436,128,154878,6,0,L|424:200|424:200,1,45
400,260,155038,1,0,0:0:0:0:
436,128,155197,1,0,0:0:0:0:
436,128,155277,1,0,0:0:0:0:
436,128,155357,1,0,0:0:0:0:
296,56,155516,1,0,0:0:0:0:
148,56,155676,6,0,B|76:72|72:72|100:56|104:88|72:92|48:88|68:64|92:80|68:92|40:108|64:140|80:120|16:116|68:120|72:152|92:144|116:136,1,180
120,144,156075,1,0,0:0:0:0:
128,148,156155,2,0,B|136:192|152:208|224:180,1,90
136,320,156474,2,0,B|128:276|112:260|40:288,1,90
220,232,156793,1,0,0:0:0:0:
300,280,156952,6,0,P|352:288|380:264,1,90
204,200,157272,2,0,P|152:192|124:216,1,90
48,116,157591,1,0,0:0:0:0:
79,83,157671,1,0,0:0:0:0:
119,75,157750,5,0,0:0:0:0:
163,77,157830,1,0,0:0:0:0:
198,105,157910,2,0,L|240:132,1,45
300,48,158070,2,0,L|341:74,1,45
404,112,158229,2,0,B|440:148|436:208|436:248|388:252,1,135
424,216,158548,2,0,B|388:180|392:120|392:80|440:76,1,135
324,116,158867,5,0,0:0:0:0:
296,232,159027,1,0,0:0:0:0:
128,152,159187,5,0,0:0:0:0:
192,276,159346,5,0,0:0:0:0:
236,100,159506,1,0,0:0:0:0:
400,248,159665,5,0,0:0:0:0:
164,176,159825,5,0,0:0:0:0:
356,144,159984,1,0,0:0:0:0:
252,308,160144,1,0,0:0:0:0:
222,308,160223,1,0,0:0:0:0:
193,303,160303,1,0,0:0:0:0:
165,291,160383,1,0,0:0:0:0:
141,274,160463,1,0,0:0:0:0:
121,252,160542,5,0,0:0:0:0:
106,227,160622,1,0,0:0:0:0:
96,199,160702,1,0,0:0:0:0:
93,169,160782,1,0,0:0:0:0:
95,140,160862,1,0,0:0:0:0:
104,112,160941,1,0,0:0:0:0:
118,86,161021,1,0,0:0:0:0:
128,68,161101,6,0,L|188:84,1,45
220,192,161261,2,0,L|160:176,1,45
272,76,161421,2,0,L|324:96,1,45
352,232,161580,2,0,L|292:200,1,45
392,96,161740,2,0,L|372:148,1,45,0|0,0:0|0:0,0:0:0:0:
412,276,161899,2,0,L|436:212,1,45
392,96,162059,6,0,L|368:152,1,45
412,276,162218,2,0,L|436:224,1,45
372,136,162379,1,0,0:0:0:0:
369,167,162458,1,0,0:0:0:0:
363,198,162538,1,0,0:0:0:0:
351,227,162618,1,0,0:0:0:0:
332,252,162698,5,0,0:0:0:0:
304,265,162777,1,0,0:0:0:0:
273,260,162857,1,0,0:0:0:0:
252,238,162937,1,0,0:0:0:0:
243,208,163017,1,0,0:0:0:0:
242,176,163097,1,0,0:0:0:0:
243,145,163176,1,0,0:0:0:0:
242,113,163256,5,0,0:0:0:0:
230,85,163336,1,0,0:0:0:0:
201,77,163416,1,0,0:0:0:0:
171,86,163496,1,0,0:0:0:0:
144,102,163575,1,0,0:0:0:0:
119,122,163655,1,0,0:0:0:0:
98,145,163735,1,0,0:0:0:0:
83,172,163815,5,0,0:0:0:0:
72,202,163894,1,0,0:0:0:0:
63,232,163974,2,0,L|64:288,1,45
168,320,164133,2,0,L|168:240,1,45
244,188,164293,2,0,L|244:243,1,45
168,320,164452,2,0,L|167:264,1,45
160,188,164612,5,0,0:0:0:0:
169,159,164691,1,0,0:0:0:0:
181,132,164771,1,0,0:0:0:0:
197,107,164851,1,0,0:0:0:0:
219,88,164931,1,0,0:0:0:0:
247,78,165010,1,0,0:0:0:0:
276,81,165090,5,0,0:0:0:0:
302,95,165170,1,0,0:0:0:0:
324,116,165250,2,0,B|368:156|424:168|456:216|416:272|356:276,1,225
328,288,165729,6,0,P|202:309|150:272,1,180,0|0,0:0|0:0,3:0:0:0:
162,285,166208,1,0,0:0:0:0:
256,176,166367,1,0,0:0:0:0:
256,60,166527,6,0,B|328:48|364:40|380:68|356:164,1,180
362,135,166926,1,0,0:0:0:0:
362,135,167006,1,0,0:0:0:0:
360,152,167085,1,0,0:0:0:0:
338,169,167164,1,0,0:0:0:0:
315,183,167244,1,0,0:0:0:0:
291,196,167324,1,0,0:0:0:0:
273,216,167404,1,0,0:0:0:0:
276,243,167483,5,0,0:0:0:0:
295,263,167563,1,0,0:0:0:0:
317,278,167643,1,0,0:0:0:0:
340,294,167723,1,0,0:0:0:0:
346,317,167803,1,0,0:0:0:0:
340,344,167883,2,0,L|241:344,1,90
250,344,168123,1,0,0:0:0:0:
233,330,168202,1,0,0:0:0:0:
216,316,168282,5,0,0:0:0:0:
196,300,168362,1,0,0:0:0:0:
166,284,168441,1,0,0:0:0:0:
142,261,168521,1,0,0:0:0:0:
140,229,168601,1,0,0:0:0:0:
153,198,168681,1,0,0:0:0:0:
168,168,168760,5,0,0:0:0:0:
168,136,168840,1,0,0:0:0:0:
141,118,168920,1,0,0:0:0:0:
108,115,169000,1,0,0:0:0:0:
77,127,169080,1,0,0:0:0:0:
64,144,169160,6,0,L|64:204,1,45
64,328,169320,2,0,L|64:268,1,45
64,152,169479,2,0,L|64:212,1,45
64,332,169639,2,0,L|64:272,1,45
164,184,169798,2,0,L|212:236,1,45
236,344,169958,2,0,L|188:292,1,45
164,184,170117,2,0,L|212:236,1,45
332,240,170277,2,0,L|284:188,1,45,0|0,0:0|0:0,0:0:0:0:
252,72,170437,6,0,L|328:96,1,45
372,188,170596,6,0,L|348:264,1,45
140,196,170756,6,0,L|164:120,1,45
248,212,170915,6,0,L|272:136,1,45
388,92,171075,2,0,B|464:140|464:140|456:200|456:200|436:232|436:232|396:276|396:276,1,236.250009012223
212,312,171793,1,0,0:0:0:0:
124,292,171952,1,0,0:0:0:0:
68,220,172112,2,0,L|136:156,1,90
216,88,172431,5,0,0:0:0:0:
300,44,172591,2,0,L|368:132|368:132,1,90,0|0,0:0|0:0,0:0:0:0:
412,176,172910,1,0,0:0:0:0:
412,176,173070,1,0,0:0:0:0:
380,304,173229,6,0,L|308:236,1,90
314,242,173548,1,0,0:0:0:0:
314,242,173708,1,0,0:0:0:0:
216,152,173867,1,0,0:0:0:0:
68,232,174506,2,0,P|140:256|176:255,1,90
300,152,174825,5,0,0:0:0:0:
204,304,174984,1,0,0:0:0:0:
384,288,175144,1,0,0:0:0:0:
252,208,175304,2,0,B|308:162|331:198|276:120|323:199|244:217|229:151|359:152|400:202|319:106|242:142|333:150|366:186|261:215|312:168|336:95|377:159,1,180
264,68,175782,2,0,P|236:132|220:148,1,90
116,228,176101,5,0,0:0:0:0:
236,288,176261,1,0,0:0:0:0:
372,300,176421,1,0,0:0:0:0:
428,180,176580,2,0,B|392:112|324:88|280:120|276:120,1,180
277,119,177059,1,0,0:0:0:0:
300,100,177138,1,0,0:0:0:0:
324,76,177218,5,0,0:0:0:0:
144,56,177378,2,0,P|144:120|160:144,1,90
236,216,177697,1,0,0:0:0:0:
420,248,177857,2,0,B|324:196|312:192|396:120,1,180
240,56,178335,6,0,P|192:120|200:148,1,90
324,156,178655,2,0,P|292:226|264:241,1,90
176,292,178974,1,0,0:0:0:0:
104,200,179133,1,0,0:0:0:0:
112,184,179213,1,0,0:0:0:0:
124,168,179293,6,0,L|64:276,1,90
48,132,179612,2,0,P|76:64|104:52,1,90
220,72,179931,2,0,B|260:168|188:252|188:252|196:240,1,180
316,172,180410,1,0,0:0:0:0:
392,96,180570,1,0,0:0:0:0:
452,188,180729,2,0,L|420:276,2,90,0|0|0,0:0|0:0|0:0,0:0:0:0:
288,268,181208,6,0,B|184:272|184:252|228:196|176:216|128:292,1,180
76,100,181687,2,0,B|180:96|180:116|136:172|188:152|236:76,1,180
352,76,182165,1,0,0:0:0:0:
364,93,182244,1,0,0:0:0:0:
377,110,182324,1,0,0:0:0:0:
288,188,182484,5,0,0:0:0:0:
300,205,182563,1,0,0:0:0:0:
313,222,182643,1,0,0:0:0:0:
220,292,182804,1,0,0:0:0:0:
124,228,182963,5,0,0:0:0:0:
124,228,183043,1,0,0:0:0:0:
124,228,183123,1,0,0:0:0:0:
124,112,183282,1,0,0:0:0:0:
228,56,183442,1,0,0:0:0:0:
228,56,183522,1,0,0:0:0:0:
228,56,183601,1,0,0:0:0:0:
336,152,183761,5,0,0:0:0:0:
220,292,183921,1,0,0:0:0:0:
380,284,184080,1,0,0:0:0:0:
464,144,184240,2,0,P|404:88|396:84,1,90
256,196,184559,5,0,0:0:0:0:
144,336,184718,1,0,0:0:0:0:
112,160,184878,1,0,0:0:0:0:
120,148,184958,1,0,0:0:0:0:
128,136,185038,2,0,P|160:84|184:56,1,90
360,60,185357,5,0,0:0:0:0:
424,232,185516,1,0,0:0:0:0:
248,192,185676,1,0,0:0:0:0:
256,192,185756,12,0,188070,0:0:0:0:
100,72,197645,5,0,0:0:0:0:
112,84,197724,1,0,0:0:0:0:
112,100,197804,2,0,B|80:124|60:124|96:144|88:168|104:180|128:172|112:196|132:200|124:184,1,90
56,268,198123,1,0,0:0:0:0:
156,312,198282,2,0,B|168:304|152:268|180:332|164:264|196:328|172:260|208:328|184:256|220:320|160:268|184:336|220:252|192:252|224:256|224:316|200:248|232:308|228:264|208:248|236:256|232:292|248:300|260:268|208:236|260:320|268:304|276:272|284:236,1,180
284,235,198761,5,0,0:0:0:0:
273,253,198840,1,0,0:0:0:0:
261,271,198921,1,0,0:0:0:0:
336,160,199080,2,0,L|268:256,1,90
408,288,199399,1,0,0:0:0:0:
452,160,199559,6,0,B|432:108|428:100|428:108|432:124|448:104|436:108|420:120|444:120|428:144|436:116|368:104|400:72|400:60|376:68|368:84|360:92|360:64|376:56|348:64|340:92,1,180
237,163,200038,1,0,0:0:0:0:
224,152,200117,1,0,0:0:0:0:
176,80,200197,1,0,0:0:0:0:
108,228,200357,1,0,0:0:0:0:
120,236,200436,1,0,0:0:0:0:
164,304,200516,1,0,0:0:0:0:
300,288,200676,1,0,0:0:0:0:
400,224,200835,6,0,B|428:176|432:168|426:173|416:186|441:186|431:179|411:174|426:193|397:195|424:184|392:123|437:128|446:121|425:107|408:111|396:109|419:92|435:100|411:82|384:93,1,180
316,184,201314,1,0,0:0:0:0:
232,264,201474,1,0,0:0:0:0:
172,164,201633,1,0,0:0:0:0:
96,252,201793,1,0,0:0:0:0:
226,92,201952,1,0,0:0:0:0:
368,68,202112,6,0,B|396:140|444:108|360:144|444:96|456:112|424:192|400:172|444:188|392:212,1,180
344,264,202511,1,0,0:0:0:0:
394,210,202591,1,0,0:0:0:0:
232,196,202750,1,0,0:0:0:0:
224,204,202830,1,0,0:0:0:0:
216,212,202910,2,0,P|179:266|156:276,1,90
56,148,203229,1,0,0:0:0:0:
148,76,203389,5,0,0:0:0:0:
181,72,203468,1,0,0:0:0:0:
215,68,203548,1,0,0:0:0:0:
248,64,203628,1,0,0:0:0:0:
282,60,203708,1,0,0:0:0:0:
408,128,203867,5,0,0:0:0:0:
384,272,204027,1,0,0:0:0:0:
296,160,204187,5,0,0:0:0:0:
252,296,204346,1,0,0:0:0:0:
172,176,204506,5,0,0:0:0:0:
120,308,204665,1,0,0:0:0:0:
68,172,204825,5,0,0:0:0:0:
184,256,204984,1,0,0:0:0:0:
456,200,205144,1,0,0:0:0:0:
320,244,205304,1,0,0:0:0:0:
368,72,205463,1,0,0:0:0:0:
276,160,205623,5,0,0:0:0:0:
168,96,205782,1,0,0:0:0:0:
252,272,205942,1,0,0:0:0:0:
356,320,206101,2,0,B|393:299|400:322|425:286|428:271,1,90
428,252,206341,1,0,0:0:0:0:
416,227,206420,1,0,0:0:0:0:
405,201,206500,5,0,0:0:0:0:
394,176,206580,1,0,0:0:0:0:
377,155,206660,1,0,0:0:0:0:
374,133,206739,1,0,0:0:0:0:
358,125,206819,1,0,0:0:0:0:
351,103,206899,5,0,0:0:0:0:
324,108,206979,1,0,0:0:0:0:
296,106,207059,1,0,0:0:0:0:
269,105,207138,1,0,0:0:0:0:
243,114,207218,1,0,0:0:0:0:
220,129,207298,5,0,0:0:0:0:
201,148,207378,2,0,L|204:208,1,45
296,276,207538,2,0,L|293:216,1,45
200,144,207697,1,0,0:0:0:0:
84,312,208016,5,0,0:0:0:0:
84,312,208176,2,0,P|74:240|78:219,1,90
108,92,208495,1,0,0:0:0:0:
126,132,208574,1,0,0:0:0:0:
145,173,208654,1,0,0:0:0:0:
163,214,208734,1,0,0:0:0:0:
182,255,208814,1,0,0:0:0:0:
200,280,208894,1,0,0:0:0:0:
224,304,208974,2,0,B|252:204|252:204|264:196,1,90
284,104,209293,5,0,0:0:0:0:
408,160,209452,1,0,0:0:0:0:
392,192,209531,1,0,0:0:0:0:
372,224,209611,1,0,0:0:0:0:
424,132,209772,2,0,B|360:236|360:236|332:276|332:276,1,144
216,160,210250,1,0,0:0:0:0:
216,205,210329,1,0,0:0:0:0:
216,250,210409,1,0,0:0:0:0:
216,204,210570,5,0,0:0:0:0:
216,159,210649,1,0,0:0:0:0:
216,114,210729,1,0,0:0:0:0:
320,96,210889,2,0,B|364:148|384:144|364:20|420:140|416:28|416:132|484:80|440:72,1,135
432,56,211208,2,0,L|435:147,1,90
404,256,211527,1,0,0:0:0:0:
380,276,211606,1,0,0:0:0:0:
308,324,211686,1,0,0:0:0:0:
72,304,211846,6,0,B|143:320|164:306|167:318,1,90
132,200,212165,1,0,0:0:0:0:
128,76,212245,2,0,B|106:133|89:124|137:145|88:160|102:185|133:202,1,135
260,216,212644,1,0,0:0:0:0:
340,56,212803,1,0,0:0:0:0:
428,188,212963,5,0,0:0:0:0:
248,84,213123,1,0,0:0:0:0:
104,140,213282,1,0,0:0:0:0:
112,152,213362,1,0,0:0:0:0:
116,164,213442,1,0,0:0:0:0:
116,164,213522,1,0,0:0:0:0:
116,176,213602,1,0,0:0:0:0:
220,288,213761,5,0,0:0:0:0:
356,120,213920,1,0,0:0:0:0:
168,88,214080,1,0,0:0:0:0:
348,252,214240,1,0,0:0:0:0:
268,72,214399,5,0,0:0:0:0:
272,104,214478,1,0,0:0:0:0:
284,124,214558,1,0,0:0:0:0:
136,276,214718,1,0,0:0:0:0:
140,72,214878,1,0,0:0:0:0:
408,200,215037,5,0,0:0:0:0:
192,180,215197,2,0,B|192:228|212:232|228:224|192:240|236:252|224:260|224:272|272:264,1,135
288,76,215516,2,0,B|280:124|272:124|288:128|328:104,1,90
112,88,215835,1,0,0:0:0:0:
96,104,215914,1,0,0:0:0:0:
83,122,215994,1,0,0:0:0:0:
70,141,216074,5,0,0:0:0:0:
61,161,216154,1,0,0:0:0:0:
52,180,216234,2,0,L|96:208,1,45
228,200,216394,2,0,L|184:172,1,45
116,304,216553,2,0,L|144:260,1,45
156,112,216713,2,0,L|128:156,1,45
216,288,216952,5,0,0:0:0:0:
360,176,217112,1,0,0:0:0:0:
232,60,217272,1,0,0:0:0:0:
72,124,217431,2,0,L|120:168,1,45
252,192,217591,2,0,L|208:220,1,45
60,256,217750,2,0,L|96:296,1,45
176,320,217910,1,0,0:0:0:0:
160,164,218070,5,0,0:0:0:0:
288,248,218230,2,0,B|332:208|364:212|368:216|332:280|340:316|356:300|372:304|320:368,1,180
444,272,218709,1,0,0:0:0:0:
388,84,218868,5,0,0:0:0:0:
388,84,218947,1,0,0:0:0:0:
388,84,219027,1,0,0:0:0:0:
388,84,219028,2,0,P|296:148|292:148,1,90
264,180,219267,1,0,0:0:0:0:
200,208,219347,2,0,B|204:274|242:304|238:320|190:307|180:293|107:284|120:310|112:324|112:333,1,180
324,292,219826,5,0,0:0:0:0:
120,336,219985,1,0,0:0:0:0:
208,160,220145,1,0,0:0:0:0:
224,136,220224,1,0,0:0:0:0:
248,140,220304,1,0,0:0:0:0:
100,168,220464,5,0,0:0:0:0:
228,276,220624,1,0,0:0:0:0:
404,228,220783,2,0,P|400:280|376:312,1,90
360,128,221102,2,0,P|364:76|388:44,1,90
380,52,221421,1,0,0:0:0:0:
367,68,221500,1,0,0:0:0:0:
353,85,221580,1,0,0:0:0:0:
256,248,221741,6,0,B|244:316|164:316|104:264,1,180
184,128,222219,1,0,0:0:0:0:
412,128,222378,2,0,P|432:196|424:216,1,90
426,210,222619,5,0,0:0:0:0:
407,198,222698,1,0,0:0:0:0:
403,177,222778,1,0,0:0:0:0:
402,154,222858,1,0,0:0:0:0:
268,128,223017,1,0,0:0:0:0:
232,120,223096,1,0,0:0:0:0:
196,108,223176,1,0,0:0:0:0:
160,224,223336,6,0,P|224:287|277:295,1,135
260,292,223655,2,0,L|195:272,2,45,0|0|0,0:0|0:0|0:0,0:0:0:0:
392,212,223974,1,0,0:0:0:0:
240,188,224133,1,0,0:0:0:0:
80,276,224293,2,0,P|52:228|52:192,1,90
111,74,224532,1,0,0:0:0:0:
111,74,224612,1,0,0:0:0:0:
140,108,224691,1,0,0:0:0:0:
168,143,224771,5,0,0:0:0:0:
376,96,224851,1,0,0:0:0:0:
384,92,224931,2,0,L|296:148,1,90
376,220,225170,1,0,0:0:0:0:
376,220,225250,1,0,0:0:0:0:
339,244,225329,1,0,0:0:0:0:
301,269,225409,5,0,0:0:0:0:
157,223,225489,1,0,0:0:0:0:
140,248,225569,2,0,L|208:311,1,90
140,248,225888,1,0,0:0:0:0:
92,124,226048,5,0,0:0:0:0:
125,111,226127,1,0,0:0:0:0:
158,99,226207,1,0,0:0:0:0:
192,87,226287,1,0,0:0:0:0:
225,75,226367,1,0,0:0:0:0:
259,65,226446,5,0,0:0:0:0:
293,55,226526,1,0,0:0:0:0:
329,50,226606,1,0,0:0:0:0:
363,55,226686,1,0,0:0:0:0:
391,77,226766,1,0,0:0:0:0:
393,111,226846,5,0,0:0:0:0:
363,130,226925,1,0,0:0:0:0:
363,130,226926,2,0,L|376:192,1,45
256,292,227085,2,0,L|232:236,1,45
152,156,227245,2,0,L|220:168,1,45
420,228,227405,2,0,L|358:240,1,45
232,304,228921,6,0,B|152:280|156:312|192:224|156:268|116:252|88:272|88:220,1,180
84,212,229320,1,0,0:0:0:0:
80,200,229400,2,0,B|112:160|112:132|140:160|152:128,1,90
260,72,229718,1,0,0:0:0:0:
384,124,229878,1,0,0:0:0:0:
384,168,229958,1,0,0:0:0:0:
384,212,230038,2,0,L|384:116,1,90
204,132,230357,5,0,0:0:0:0:
245,289,230516,1,0,0:0:0:0:
208,264,230595,1,0,0:0:0:0:
170,238,230675,1,0,0:0:0:0:
152,224,230835,2,0,L|276:316,1,135
280,320,231155,2,0,L|288:224,1,90
428,204,231474,5,0,0:0:0:0:
421,170,231553,1,0,0:0:0:0:
408,140,231633,2,0,L|352:108,1,45
296,252,231793,2,0,L|228:244,1,45
152,108,231952,2,0,L|176:176,1,45
112,320,232112,2,0,L|144:264,1,45
248,156,232272,5,0,0:0:0:0:
384,272,232431,1,0,0:0:0:0:
204,300,232591,1,0,0:0:0:0:
336,180,232750,1,0,0:0:0:0:
256,340,232910,1,0,0:0:0:0:
256,44,233070,1,0,0:0:0:0:
256,44,233389,5,0,0:0:0:0:
256,340,233708,1,0,0:0:0:0:
256,340,234027,1,0,0:0:0:0:
225,325,234106,1,0,0:0:0:0:
194,311,234186,1,0,0:0:0:0:
163,297,234266,1,0,0:0:0:0:
133,283,234346,1,0,0:0:0:0:
100,304,234426,5,0,0:0:0:0:
100,344,234506,2,0,P|174:326|221:318,1,90
300,236,234825,1,0,0:0:0:0:
167,179,234984,1,0,0:0:0:0:
176,164,235063,1,0,0:0:0:0:
232,96,235143,1,0,0:0:0:0:
396,80,235304,1,0,0:0:0:0:
388,92,235383,1,0,0:0:0:0:
340,152,235463,1,0,0:0:0:0:
408,248,235623,5,0,0:0:0:0:
316,316,235782,1,0,0:0:0:0:
200,308,235942,1,0,0:0:0:0:
104,240,236101,1,0,0:0:0:0:
104,240,236261,1,0,0:0:0:0:
204,180,236421,6,0,P|276:156|284:140,1,90
280,148,236740,1,0,0:0:0:0:
280,148,236820,1,0,0:0:0:0:
280,148,236899,1,0,0:0:0:0:
420,76,237059,5,0,0:0:0:0:
348,208,237218,1,0,0:0:0:0:
292,64,237378,1,0,0:0:0:0:
144,112,237538,1,0,0:0:0:0:
216,228,237697,5,0,0:0:0:0:
216,240,237777,1,0,0:0:0:0:
216,252,237857,1,0,0:0:0:0:
72,320,238016,1,0,0:0:0:0:
72,308,238096,1,0,0:0:0:0:
72,296,238176,1,0,0:0:0:0:
68,168,238335,5,0,0:0:0:0:
204,48,238495,1,0,0:0:0:0:
292,204,238655,1,0,0:0:0:0:
416,56,238814,2,0,B|444:136|432:172|432:172|380:132,1,180,0|0,0:0|0:0,0:0:0:0:
412,312,239293,1,0,0:0:0:0:
232,312,239452,1,0,0:0:0:0:
180,140,239612,5,0,0:0:0:0:
208,132,239692,1,0,0:0:0:0:
280,100,239772,1,0,0:0:0:0:
180,140,239931,2,0,L|288:96,1,90
328,224,240250,2,0,L|272:256,1,45
136,292,240410,2,0,L|160:240,1,45
52,136,240570,2,0,L|84:192,1,45
168,220,240729,1,0,0:0:0:0:
292,304,240889,5,0,0:0:0:0:
328,312,240968,1,0,0:0:0:0:
368,304,241048,1,0,0:0:0:0:
456,164,241208,1,0,0:0:0:0:
424,152,241287,1,0,0:0:0:0:
388,156,241367,1,0,0:0:0:0:
260,140,241527,5,0,0:0:0:0:
140,76,241687,1,0,0:0:0:0:
168,220,241846,1,0,0:0:0:0:
295,81,242006,1,0,0:0:0:0:
313,123,242085,1,0,0:0:0:0:
331,164,242165,1,0,0:0:0:0:
346,206,242245,1,0,0:0:0:0:
316,220,242325,1,0,0:0:0:0:
292,236,242405,6,0,L|248:256,1,45
120,216,242564,2,0,L|164:196,1,45
220,96,242724,2,0,L|176:116,1,45
288,192,242883,2,0,L|344:160,1,45
404,76,243043,2,0,L|436:128,1,45
404,268,243282,5,0,0:0:0:0:
256,312,243442,1,0,0:0:0:0:
212,164,243601,1,0,0:0:0:0:
476,32,243921,1,0,0:0:0:0:
376,192,244240,6,0,B|324:176|292:188|292:188|296:140|296:140|264:152|280:148,1,135
296,180,244559,1,0,0:0:0:0:
172,76,244718,1,0,0:0:0:0:
92,216,244878,1,0,0:0:0:0:
244,272,245038,1,0,0:0:0:0:
96,336,245197,1,0,0:0:0:0:
184,200,245357,1,0,0:0:0:0:
284,76,245516,5,0,0:0:0:0:
312,87,245595,1,0,0:0:0:0:
342,93,245675,1,0,0:0:0:0:
370,105,245755,1,0,0:0:0:0:
389,129,245835,1,0,0:0:0:0:
356,288,245995,5,0,0:0:0:0:
244,168,246155,1,0,0:0:0:0:
84,164,246314,1,0,0:0:0:0:
156,308,246474,1,0,0:0:0:0:
168,116,246633,1,0,0:0:0:0:
324,200,246793,5,0,0:0:0:0:
280,252,246872,1,0,0:0:0:0:
232,300,246952,1,0,0:0:0:0:
100,244,247112,1,0,0:0:0:0:
96,100,247272,1,0,0:0:0:0:
240,92,247431,1,0,0:0:0:0:
324,200,247591,1,0,0:0:0:0:
180,188,247750,1,0,0:0:0:0:
348,60,247910,6,0,B|428:96|376:136|356:124|292:124|444:188|396:196,1,180
412,216,248309,1,0,0:0:0:0:
420,236,248389,2,0,P|376:280|336:284,1,90
128,312,248708,1,0,0:0:0:0:
216,312,248787,1,0,0:0:0:0:
308,312,248867,1,0,0:0:0:0:
288,188,249027,1,0,0:0:0:0:
200,188,249106,1,0,0:0:0:0:
108,188,249186,1,0,0:0:0:0:
40,312,249346,5,0,0:0:0:0:
320,44,249506,2,0,L|252:128,1,90
368,312,249825,1,0,0:0:0:0:
44,48,249984,2,0,L|124:116,1,90
260,192,250304,1,0,0:0:0:0:
256,148,250463,2,0,L|260:260,1,90
256,192,250782,12,0,252059,0:0:0:0:
