osu file format v14

[General]
AudioFilename: Song_Dimension tripper!!!!.mp3
AudioLeadIn: 0
PreviewTime: 59105
Countdown: 0
SampleSet: Soft
StackLeniency: 0.5
Mode: 0
LetterboxInBreaks: 0
WidescreenStoryboard: 0

[Editor]
DistanceSpacing: 0.6
BeatDivisor: 4
GridSize: 32
TimelineZoom: 1

[Metadata]
Title:Dimension tripper!!!!
TitleUnicode:Dimension tripper!!!!
Artist:nao
ArtistUnicode:nao
Creator:Karia
Version:Beyond the Dimension
Source:超次元ゲイム ネプテューヌ
Tags:ディメンション・トリッパー Hyperdimension Neptunia: The Animation Choujigen Game Neptune TV Size Yogurtt
BeatmapID:1280829
BeatmapSetID:606258

[Difficulty]
HPDrainRate:6.5
CircleSize:4.3
OverallDifficulty:9
ApproachRate:9.3
SliderMultiplier:1.9
SliderTickRate:1

[Events]
//Background and Video events
Video,0,"VIDEO.avi"
0,0,"BG.jpg",0,0
//Break Periods
//Storyboard Layer 0 (Background)
//Storyboard Layer 1 (Fail)
//Storyboard Layer 2 (Pass)
//Storyboard Layer 3 (Foreground)
//Storyboard Sound Samples

[TimingPoints]
1082,318.809776833156,4,2,1,50,1,0
1082,-133.333333333333,4,2,1,50,0,0
1321,-133.333333333333,4,2,1,5,0,0
1400,-133.333333333333,4,2,1,50,0,0
3632,-133.333333333333,4,2,1,55,0,0
5470,-133.333333333333,4,2,1,5,0,0
5545,-100,4,2,1,60,0,0
5625,-100,4,2,1,5,0,0
5704,-100,4,2,1,60,0,0
5784,-100,4,2,1,5,0,0
5864,-100,4,2,1,60,0,0
5943,-100,4,2,1,5,0,0
6023,-100,4,2,1,70,0,0
7537,-100,4,2,1,5,0,0
7617,-100,4,2,1,70,0,0
7697,-100,4,2,1,5,0,0
7777,-100,4,2,1,70,0,0
10088,-100,4,2,1,5,0,0
10168,-100,4,2,1,70,0,0
10247,-100,4,2,1,5,0,0
10327,-100,4,2,1,70,0,0
13276,-100,4,2,1,5,0,0
13356,-100,4,2,1,70,0,0
13435,-100,4,2,1,5,0,0
13515,-100,4,2,1,70,0,0
13595,-100,4,2,1,5,0,0
13674,-100,4,2,1,70,0,0
15747,-66.6666666666667,4,2,1,70,0,0
15826,-66.6666666666667,4,2,1,5,0,0
15906,-66.6666666666667,4,2,1,70,0,0
15986,-66.6666666666667,4,2,1,5,0,0
16066,-66.6666666666667,4,2,1,70,0,0
16145,-66.6666666666667,4,2,1,5,0,0
16225,-100,4,2,1,70,0,0
17739,-100,4,2,1,5,0,0
17819,-100,4,2,1,70,0,0
17899,-100,4,2,1,5,0,0
17978,-100,4,2,1,70,0,0
20290,-100,4,2,1,5,0,0
20369,-100,4,2,1,70,0,0
20449,-100,4,2,1,5,0,0
20529,-100,4,2,1,70,0,0
23478,-100,4,2,1,5,0,0
23558,-100,4,2,1,70,0,0
23637,-100,4,2,1,5,0,0
23717,-100,4,2,1,70,0,0
23797,-100,4,2,1,5,0,0
23876,-100,4,2,1,70,0,0
26427,-153.846153846154,4,2,1,70,0,0
27144,-153.846153846154,4,2,1,5,0,0
27224,-153.846153846154,4,2,1,70,0,0
27383,-83.3333333333333,4,2,1,70,0,0
27702,-133.333333333333,4,2,1,70,0,0
28260,-133.333333333333,4,2,1,5,0,0
28340,-100,4,2,1,70,0,0
28579,-100,4,2,1,5,0,0
28659,-166.666666666667,4,2,1,70,0,0
29057,-166.666666666667,4,2,1,5,0,0
29137,-117.647058823529,4,2,1,60,0,0
37107,-90.9090909090909,4,2,1,60,0,0
38621,-90.9090909090909,4,2,1,5,0,0
38701,-83.3333333333333,4,2,1,60,0,0
39259,-83.3333333333333,4,2,1,5,0,0
39339,-100,4,2,1,60,0,0
48345,-100,4,2,1,5,0,0
48425,-100,4,2,1,60,0,0
48504,-100,4,2,1,5,0,0
48584,-100,4,2,1,60,0,0
48823,-100,4,2,1,5,0,0
48903,-100,4,2,1,60,0,0
49142,-100,4,2,1,5,0,0
49222,-133.333333333333,4,2,1,60,0,0
49780,-133.333333333333,4,2,1,5,0,0
49859,-100,4,2,1,60,0,0
50099,-100,4,2,1,5,0,0
50178,-100,4,2,1,60,0,0
50338,-100,4,2,99,60,0,0
50497,-100,4,2,1,60,0,0
50656,-83.3333333333333,4,2,1,60,0,0
51613,-133.333333333333,4,2,1,60,0,0
54881,-133.333333333333,4,2,1,5,0,0
54960,-100,4,2,1,60,0,0
55199,-100,4,2,1,5,0,0
55279,-80,4,2,1,60,0,0
55518,-80,4,2,1,5,0,0
55598,-100,4,2,1,60,0,0
57272,-100,4,2,1,5,0,0
57351,-100,4,2,1,60,0,0
58467,-71.4285714285714,4,2,1,70,0,0
58547,-71.4285714285714,4,2,1,5,0,0
58627,-71.4285714285714,4,2,1,70,0,0
58706,-71.4285714285714,4,2,1,5,0,0
58786,-71.4285714285714,4,2,1,70,0,0
58866,-71.4285714285714,4,2,1,5,0,0
59105,-100,4,2,1,60,0,0
59185,-100,4,2,1,5,0,0
59264,-117.647058823529,4,2,1,60,0,0
59503,-117.647058823529,4,2,1,5,0,0
59583,-86.9565217391304,4,2,1,75,0,1
60779,-86.9565217391304,4,2,1,5,0,1
60858,-86.9565217391304,4,2,1,75,0,1
62054,-86.9565217391304,4,2,1,5,0,1
62134,-86.9565217391304,4,2,1,75,0,1
64445,-86.9565217391304,4,2,1,5,0,1
64525,-86.9565217391304,4,2,1,75,0,1
64604,-86.9565217391304,4,2,1,5,0,1
64684,-86.9565217391304,4,2,1,75,0,1
64923,-86.9565217391304,4,2,1,5,0,1
65003,-86.9565217391304,4,2,1,75,0,1
66198,-86.9565217391304,4,2,1,5,0,1
66278,-86.9565217391304,4,2,1,75,0,1
68510,-80,4,2,1,75,0,1
68749,-86.9565217391304,4,2,1,5,0,1
68829,-86.9565217391304,4,2,1,75,0,1
69307,-86.9565217391304,4,2,1,75,0,0
69785,-86.9565217391304,4,2,1,75,0,1
70981,-86.9565217391304,4,2,1,5,0,1
71060,-86.9565217391304,4,2,1,75,0,1
72256,-86.9565217391304,4,2,1,5,0,1
72335,-86.9565217391304,4,2,1,75,0,1
73850,-86.9565217391304,4,2,1,5,0,1
73930,-86.9565217391304,4,2,1,75,0,1
75125,-86.9565217391304,4,2,1,5,0,1
75205,-86.9565217391304,4,2,1,75,0,1
78712,-142.857142857143,4,2,1,75,0,0
79429,-142.857142857143,4,2,1,5,0,0
79509,-100,4,2,1,75,0,0
79588,-100,4,2,1,5,0,0
79668,-86.9565217391304,4,2,1,75,0,0
79907,-86.9565217391304,4,2,1,5,0,0
79987,-100,4,2,1,70,0,0
81501,-100,4,2,1,5,0,0
81581,-100,4,2,1,70,0,0
81661,-100,4,2,1,5,0,0
81740,-100,4,2,1,70,0,0
84052,-100,4,2,1,5,0,0
84131,-100,4,2,1,70,0,0
84211,-100,4,2,1,5,0,0
84291,-100,4,2,1,70,0,0
87240,-100,4,2,1,5,0,0
87320,-100,4,2,1,70,0,0
87399,-100,4,2,1,5,0,0
87479,-100,4,2,1,70,0,0
87559,-100,4,2,1,5,0,0
87638,-100,4,2,1,70,0,0
89153,-100,4,2,1,5,0,0
89232,-100,4,2,1,70,0,0
92261,-100,4,2,1,50,0,0
92580,-100,4,2,1,30,0,0
92899,-100,4,2,1,10,0,0
93058,-100,4,2,1,5,0,0

[Colours]
Combo1 : 62,158,255
Combo2 : 179,102,255
Combo3 : 255,255,108
Combo4 : 185,115,115

[HitObjects]
67,218,1082,6,0,P|41:173|75:110,1,106.875004076958
54,89,1400,2,0,P|88:96|150:102,1,71.2500027179719
293,158,1719,2,0,P|226:165|123:183,1,142.500005435944
151,177,2197,1,0,0:0:0:0:
325,83,2357,5,0,0:0:0:0:
274,260,2516,1,0,0:0:0:0:
201,88,2676,1,0,0:0:0:0:
350,210,2835,1,0,0:0:0:0:
487,50,2994,5,0,0:0:0:0:
489,68,3154,1,0,0:0:0:0:
429,252,3313,5,0,0:0:0:0:
431,234,3473,1,0,0:0:0:0:
326,43,3632,6,0,P|334:78|341:113,1,71.2500027179719
508,159,3951,2,0,P|473:150|437:143,1,71.2500027179719
234,220,4270,2,0,P|294:249|350:208,1,142.500005435944
349,209,4748,1,0,0:0:0:0:
170,154,4907,5,0,0:0:0:0:
349,209,5067,1,0,0:0:0:0:
218,337,5226,2,0,P|193:295|214:235,1,106.875004076958
311,279,5545,6,0,L|264:284,1,47.5,8|0,0:0|0:0,0:0:0:0:
88,221,5704,2,0,L|143:228,1,47.5,8|0,0:0|0:0,0:0:0:0:
308,151,5864,2,0,L|253:158,1,47.5,8|0,0:0|0:0,0:0:0:0:
97,39,6023,6,0,B|105:106|105:106|78:152|78:152|89:229,1,190,6|4,0:0|0:3,0:0:0:0:
188,38,6501,2,0,P|233:25|275:44,1,95,10|0,0:0|0:0,0:0:0:0:
384,235,6820,1,6,0:3:0:0:
477,38,6979,1,2,0:0:0:0:
384,235,7139,2,0,B|362:191|362:191|379:140,1,95,10|0,0:0|0:0,0:0:0:0:
487,348,7458,6,0,L|439:339,1,47.5,6|0,0:3|0:0,0:0:0:0:
264,286,7617,2,0,L|313:278,1,47.5,2|0,0:0|0:0,0:0:0:0:
473,185,7777,1,8,0:0:0:0:
349,358,7936,1,10,0:0:0:0:
349,358,8016,1,8,0:0:0:0:
349,358,8095,1,12,0:3:0:0:
308,151,8255,1,6,0:3:0:0:
492,268,8414,1,8,0:0:0:0:
242,358,8574,6,0,P|188:297|256:209,1,190,6|4,0:0|0:3,0:0:0:0:
140,26,9052,2,0,P|147:80|153:141,1,95,10|0,0:0|0:0,0:0:0:0:
49,305,9371,1,6,0:3:0:0:
236,213,9530,1,2,0:0:0:0:
15,132,9689,1,10,0:0:0:0:
15,132,9849,1,2,0:0:0:0:
236,213,10008,6,0,L|188:206,1,47.5,6|0,0:3|0:0,0:0:0:0:
15,132,10168,2,0,L|62:126,1,47.5,6|0,0:3|0:0,0:0:0:0:
237,57,10327,1,8,0:0:0:0:
128,269,10486,1,2,0:0:0:0:
157,46,10646,1,4,0:3:0:0:
157,46,10725,1,4,0:3:0:0:
157,46,10805,5,10,0:0:0:0:
171,70,10885,1,8,0:0:0:0:
174,98,10965,1,8,0:0:0:0:
165,124,11044,1,8,0:0:0:0:
119,183,11124,6,0,B|183:167|183:167|232:195|232:195|311:182,1,190,6|4,0:0|0:3,0:0:0:0:
378,132,11523,1,4,0:3:0:0:
378,132,11602,2,0,P|397:179|380:230,1,95,10|0,0:0|0:0,0:0:0:0:
177,273,11921,1,10,0:0:0:0:
386,220,12080,2,0,L|284:205,1,95,6|0,0:3|0:0,0:0:0:0:
479,107,12399,1,6,0:3:0:0:
479,107,12479,1,4,0:3:0:0:
479,107,12559,6,0,L|369:120,1,95,4|4,0:3|0:3,0:0:0:0:
492,322,12877,2,0,B|511:280|511:280|492:225,1,95,10|0,0:0|0:0,0:0:0:0:
287,333,13196,2,0,P|314:335|337:337,1,47.5,10|0,0:0|0:0,0:0:0:0:
230,236,13356,2,0,P|203:238|180:240,1,47.5,10|0,0:0|0:0,0:0:0:0:
68,329,13515,2,0,P|95:331|118:333,1,47.5,10|0,0:0|0:0,0:0:0:0:
54,122,13674,6,0,B|12:96|12:96|26:249,1,190,6|4,0:0|0:3,0:0:0:0:
108,186,14073,1,4,0:3:0:0:
108,186,14153,2,0,P|150:165|218:192,1,95,10|4,0:0|0:3,0:0:0:0:
334,336,14472,1,10,0:0:0:0:
289,122,14631,2,0,P|282:175|272:247,1,95,6|0,0:3|0:0,0:0:0:0:
51,106,14950,1,6,0:3:0:0:
51,106,15029,1,4,0:3:0:0:
51,106,15109,5,4,0:3:0:0:
278,36,15269,1,0,0:0:0:0:
204,282,15428,1,10,0:0:0:0:
437,172,15587,5,0,0:0:0:0:
434,167,15667,1,0,0:0:0:0:
430,162,15747,2,0,B|340:176,1,71.2500027179719,10|0,0:0|0:0,0:0:0:0:
118,138,15906,2,0,B|208:124,1,71.2500027179719,10|0,0:0|0:0,0:0:0:0:
390,256,16066,2,0,B|300:270,1,71.2500027179719,10|0,0:0|0:0,0:0:0:0:
90,213,16225,6,0,P|37:160|101:60,1,190,6|4,0:0|0:3,0:0:0:0:
206,249,16703,2,0,L|194:363,1,95,10|0,0:0|0:0,0:0:0:0:
118,138,17022,1,6,0:3:0:0:
312,195,17181,1,2,0:0:0:0:
118,138,17341,2,0,B|162:116|162:116|215:130,1,95,10|0,0:0|0:0,0:0:0:0:
390,16,17660,6,0,L|384:65,1,47.5,6|0,0:3|0:0,0:0:0:0:
317,242,17819,2,0,L|312:195,1,47.5,2|0,0:0|0:0,0:0:0:0:
241,20,17978,1,8,0:0:0:0:
429,137,18138,1,10,0:0:0:0:
429,137,18218,1,8,0:0:0:0:
429,137,18297,1,12,0:3:0:0:
233,215,18457,1,6,0:3:0:0:
454,150,18616,1,8,0:0:0:0:
209,204,18775,6,0,B|171:167|171:167|192:24,1,190,6|4,0:0|0:3,0:0:0:0:
9,189,19254,2,0,P|47:166|109:186,1,95,10|0,0:0|0:0,0:0:0:0:
254,334,19572,1,6,0:3:0:0:
63,240,19732,1,2,0:0:0:0:
280,144,19891,1,10,0:0:0:0:
280,144,20051,1,2,0:0:0:0:
154,349,20210,6,0,L|147:301,1,47.5,6|0,0:3|0:0,0:0:0:0:
334,217,20369,2,0,L|328:264,1,47.5,6|0,0:3|0:0,0:0:0:0:
139,134,20529,1,8,0:0:0:0:
254,334,20688,1,10,0:0:0:0:
254,334,20768,1,8,0:0:0:0:
254,334,20848,1,8,0:0:0:0:
345,96,21007,1,10,0:0:0:0:
330,97,21087,1,8,0:0:0:0:
315,98,21167,1,8,0:0:0:0:
300,100,21246,1,8,0:0:0:0:
231,68,21326,6,0,B|263:28|263:28|436:16,1,190,6|4,0:0|0:3,0:0:0:0:
482,68,21724,1,4,0:3:0:0:
482,68,21804,2,0,P|498:114|484:161,1,95,10|0,0:0|0:0,0:0:0:0:
278,220,22123,1,10,0:0:0:0:
486,157,22282,2,0,P|444:135|380:159,1,95,6|0,0:3|0:0,0:0:0:0:
255,306,22601,5,6,0:3:0:0:
255,306,22681,1,4,0:3:0:0:
255,306,22761,2,0,P|209:314|167:292,1,95,4|4,0:3|0:3,0:0:0:0:
51,111,23079,2,0,B|97:96|97:96|139:117,1,95,10|0,0:0|0:0,0:0:0:0:
65,326,23398,2,0,L|63:302|61:278,1,47.5,10|0,0:0|0:0,0:0:0:0:
139,117,23558,2,0,P|137:144|135:167,1,47.5,10|0,0:0|0:0,0:0:0:0:
3,216,23717,2,0,P|1:189|-1:166,1,47.5,10|0,0:0|0:0,0:0:0:0:
220,125,23876,6,0,L|211:220|202:315,1,190,6|4,0:0|0:3,0:0:0:0:
271,368,24275,1,4,0:3:0:0:
271,368,24355,2,0,P|314:348|369:367,1,95,10|0,0:0|0:0,0:0:0:0:
166,248,24673,1,10,0:0:0:0:
371,164,24833,2,0,P|363:210|357:257,1,95,2|0,0:0|0:0,0:0:0:0:
163,175,25152,5,6,0:3:0:0:
163,175,25231,1,4,0:3:0:0:
163,175,25311,1,4,0:3:0:0:
368,272,25470,1,0,0:0:0:0:
136,332,25630,5,10,0:0:0:0:
381,286,25789,1,0,0:0:0:0:
73,234,25949,5,10,0:0:0:0:
345,375,26108,1,10,0:0:0:0:
345,375,26267,1,0,0:0:0:0:
230,70,26427,6,0,B|148:209|318:199|214:347,1,277.874987279893,6|0,0:0|0:0,0:0:0:0:
225,329,27224,5,8,0:0:0:0:
301,139,27383,2,0,P|343:129|308:156,1,113.999996520996,4|0,0:3|0:0,0:0:0:0:
110,272,27702,6,0,P|37:229|125:248,1,249.375009512902,4|0,0:3|0:0,0:0:0:0:
197,219,28340,5,4,0:3:0:0:
198,231,28419,1,4,0:3:0:0:
199,244,28499,2,0,L|203:291,1,47.5,8|0,0:0|0:0,0:0:0:0:
309,350,28659,6,0,L|325:182,1,142.499995651245,4|0,0:0|0:0,0:0:0:0:
267,138,29137,6,0,P|235:123|179:138,1,80.750001540184,4|0,0:0|0:0,0:0:0:0:
322,208,29456,1,4,0:3:0:0:
386,146,29615,1,0,0:0:0:0:
464,186,29774,1,4,0:3:0:0:
397,65,29934,2,0,L|386:146,1,80.750001540184,0|4,0:0|0:3,0:0:0:0:
474,266,30253,1,0,0:0:0:0:
474,266,30332,1,0,0:0:0:0:
474,266,30412,6,0,L|463:185,1,80.750001540184,4|0,0:3|0:0,0:0:0:0:
408,339,30731,1,4,0:3:0:0:
344,232,30890,1,0,0:0:0:0:
335,233,30970,1,0,0:0:0:0:
326,234,31050,1,4,0:3:0:0:
187,319,31209,1,0,0:0:0:0:
233,244,31368,1,4,0:3:0:0:
287,315,31528,1,0,0:0:0:0:
141,243,31687,5,4,0:3:0:0:
284,167,31847,2,0,P|296:129|281:85,1,80.750001540184,0|4,0:0|0:3,0:0:0:0:
419,224,32165,2,0,P|379:216|343:231,1,80.750001540184,0|4,0:0|0:3,0:0:0:0:
284,167,32484,1,0,0:0:0:0:
389,304,32644,1,4,0:3:0:0:
463,135,32803,1,0,0:0:0:0:
463,135,32883,1,0,0:0:0:0:
463,135,32962,5,4,0:3:0:0:
343,230,33122,1,0,0:0:0:0:
379,64,33281,1,4,0:3:0:0:
343,230,33441,1,0,0:0:0:0:
351,229,33520,1,0,0:0:0:0:
359,228,33600,1,4,0:3:0:0:
270,85,33760,2,0,B|252:123|252:123|273:172,1,80.750001540184,2|4,0:0|0:3,0:0:0:0:
207,333,34078,1,0,0:0:0:0:
207,333,34158,1,0,0:0:0:0:
207,333,34238,6,0,P|202:285|197:234,1,80.750001540184,4|0,0:0|0:0,0:0:0:0:
40,201,34557,2,0,P|77:187|123:194,1,80.750001540184,4|0,0:3|0:0,0:0:0:0:
221,346,34875,1,4,0:3:0:0:
196,160,35035,2,0,L|191:200|186:240,1,80.750001540184,0|4,0:0|0:3,0:0:0:0:
371,259,35354,1,0,0:0:0:0:
371,259,35433,1,0,0:0:0:0:
371,259,35513,6,0,P|331:265|291:272,1,80.750001540184,4|0,0:3|0:0,0:0:0:0:
467,332,35832,1,4,0:3:0:0:
382,178,35991,1,0,0:0:0:0:
382,178,36071,1,0,0:0:0:0:
382,178,36151,1,4,0:3:0:0:
488,37,36310,2,0,P|483:91|479:132,1,80.750001540184,0|6,0:0|0:3,0:0:0:0:
383,263,36629,1,0,0:0:0:0:
289,67,36788,5,4,0:3:0:0:
485,140,36948,1,4,0:3:0:0:
241,195,37107,2,0,P|215:163|265:188,1,156.750004783631,8|4,0:0|0:3,0:0:0:0:
285,257,37426,1,4,0:3:0:0:
391,42,37585,1,4,0:3:0:0:
391,42,37665,1,4,0:3:0:0:
391,42,37745,5,8,0:0:0:0:
386,82,37824,1,8,0:0:0:0:
381,123,37904,1,8,0:0:0:0:
378,164,37984,1,8,0:0:0:0:
374,205,38063,5,4,0:3:0:0:
146,100,38223,1,4,0:3:0:0:
374,205,38382,2,0,B|321:218|321:218|272:195|272:195|207:208,1,156.750004783631,8|0,0:0|0:0,0:0:0:0:
60,201,38701,5,4,0:3:0:0:
310,97,38860,1,4,0:3:0:0:
60,201,39020,2,0,B|113:214|113:214|170:193|170:193|231:205,1,170.999994781494,8|0,0:0|0:0,0:0:0:0:
366,292,39339,6,0,P|385:250|374:205,1,95,4|0,0:0|0:0,0:0:0:0:
228,74,39657,1,8,0:0:0:0:
264,278,39817,1,0,0:0:0:0:
228,74,39976,1,4,0:3:0:0:
449,124,40136,2,0,P|398:130|340:139,1,95,0|8,0:0|0:0,0:0:0:0:
142,262,40455,6,0,P|191:247|163:134,1,190,4|4,0:3|0:3,0:0:0:0:
12,20,40933,2,0,P|22:82|27:121,1,95,8|0,0:0|0:0,0:0:0:0:
54,283,41252,1,4,0:3:0:0:
246,197,41411,1,0,0:0:0:0:
26,113,41570,1,8,0:0:0:0:
157,279,41730,1,0,0:0:0:0:
224,64,41889,5,4,0:3:0:0:
157,279,42049,2,0,P|134:246|143:191,1,95,0|8,0:0|0:0,0:0:0:0:
331,340,42367,2,0,P|275:347|227:354,1,95,0|4,0:0|0:3,0:0:0:0:
433,198,42686,2,0,P|385:203|338:210,1,95,0|8,0:0|0:0,0:0:0:0:
502,357,43005,1,4,0:3:0:0:
265,269,43164,5,8,0:0:0:0:
510,185,43324,1,4,0:3:0:0:
265,269,43483,1,8,0:0:0:0:
510,185,43643,1,4,0:3:0:0:
257,104,43802,5,8,0:0:0:0:
360,338,43961,1,8,0:0:0:0:
360,338,44041,1,8,0:0:0:0:
360,338,44121,1,8,0:0:0:0:
480,114,44280,6,0,P|441:50|332:96,1,190,4|4,0:0|0:3,0:0:0:0:
116,150,44758,1,8,0:0:0:0:
315,223,44918,1,0,0:0:0:0:
204,45,45077,1,4,0:3:0:0:
124,261,45237,2,0,P|175:254|227:248,1,95,4|8,0:3|0:0,0:0:0:0:
52,54,45555,6,0,B|15:87|15:87|35:247,1,190,4|4,0:0|0:3,0:0:0:0:
238,340,46034,1,8,0:0:0:0:
306,140,46193,1,0,0:0:0:0:
238,340,46352,2,0,P|231:273|226:226,1,95,4|4,0:3|0:3,0:0:0:0:
287,44,46671,1,8,0:0:0:0:
78,184,46831,6,0,P|139:122|230:175,1,190,4|4,0:0|0:3,0:0:0:0:
324,353,47309,1,8,0:0:0:0:
394,148,47468,1,0,0:0:0:0:
228,245,47628,1,4,0:3:0:0:
228,245,47787,1,4,0:3:0:0:
460,292,47947,1,8,0:0:0:0:
394,72,48106,1,4,0:3:0:0:
318,265,48265,6,0,L|308:200,1,47.5,8|0,0:0|0:0,0:0:0:0:
473,61,48425,2,0,L|465:107,1,47.5,8|0,0:0|0:0,0:0:0:0:
438,249,48584,5,2,0:0:0:0:
438,249,48664,1,2,0:0:0:0:
438,249,48744,2,0,L|485:255,1,47.5,10|0,0:0|0:0,0:0:0:0:
319,112,48903,1,6,0:3:0:0:
319,112,48983,1,2,0:0:0:0:
319,112,49063,2,0,L|272:118,1,47.5,10|0,0:0|0:0,0:0:0:0:
168,301,49222,1,8,0:0:0:0:
93,64,49381,5,8,0:0:0:0:
93,64,49461,1,8,0:0:0:0:
93,64,49541,2,0,L|85:192,1,106.875004076958,4|0,0:0|0:0,0:0:0:0:
103,280,49859,6,0,L|112:137,1,142.5,8|0,0:0|0:0,0:0:0:0:
175,82,50178,5,4,0:3:0:0:
103,280,50338,1,4,0:3:0:0:
175,82,50497,1,4,0:3:0:0:
310,243,50656,6,0,P|327:270|287:252,1,113.999996520996,8|0,0:0|0:0,0:0:0:0:
175,82,50975,2,0,P|210:57|193:97,1,113.999996520996,8|0,0:0|0:0,0:0:0:0:
103,280,51294,2,0,P|64:261|106:256,1,113.999996520996,8|0,0:0|0:0,0:0:0:0:
307,148,51613,5,8,0:0:0:0:
255,344,51772,1,8,0:0:0:0:
480,301,51932,2,0,L|332:275,1,142.500005435944,4|0,0:0|0:0,0:0:0:0:
158,190,52410,1,8,0:0:0:0:
330,93,52569,1,8,0:0:0:0:
330,93,52649,1,8,0:0:0:0:
330,93,52729,1,8,0:0:0:0:
227,265,52888,1,4,0:3:0:0:
256,49,53047,1,8,0:0:0:0:
428,200,53207,6,0,B|393:173|393:173|294:197,1,142.500005435944,6|4,0:3|0:3,0:0:0:0:
63,138,53685,1,10,0:0:0:0:
297,196,53845,1,8,0:0:0:0:
297,196,53924,1,8,0:0:0:0:
297,196,54004,1,10,0:0:0:0:
96,269,54163,1,8,0:0:0:0:
273,90,54323,1,10,0:0:0:0:
225,319,54482,1,8,0:0:0:0:
63,138,54642,6,0,L|190:123,1,106.875004076958,4|0,0:0|0:0,0:0:0:0:
273,90,54960,6,0,L|130:105,1,142.5,8|0,0:0|0:0,0:0:0:0:
1,98,55279,6,0,L|178:78,1,178.125
277,175,55598,1,8,0:0:0:0:
472,16,55757,6,0,B|455:77|455:77|480:125|480:125|460:211,1,190,4|8,0:3|0:0,0:0:0:0:
268,276,56236,1,4,0:3:0:0:
469,335,56395,1,4,0:3:0:0:
383,103,56554,1,8,0:0:0:0:
316,357,56714,1,8,0:0:0:0:
512,259,56873,1,8,0:0:0:0:
211,159,57033,6,0,P|159:205|194:280,1,142.5,4|0,0:0|0:0,0:0:0:0:
223,352,57351,5,8,0:0:0:0:
311,97,57511,1,8,0:0:0:0:
223,352,57670,1,8,0:0:0:0:
239,37,57830,5,8,0:0:0:0:
281,304,57989,1,8,0:0:0:0:
239,37,58148,1,8,0:0:0:0:
10,275,58308,5,4,0:3:0:0:
10,275,58388,1,4,0:3:0:0:
10,275,58467,2,0,B|41:284|41:284|82:267,1,66.4999979705811,8|0,0:0|0:0,0:0:0:0:
239,37,58627,2,0,B|215:59|215:59|209:103,1,66.4999979705811,8|0,0:0|0:0,0:0:0:0:
316,357,58786,2,0,B|308:325|308:325|273:298,1,66.4999979705811,8|0,0:0|0:0,0:0:0:0:
134,231,59105,6,0,P|159:228|186:219,1,47.5,8|0,0:0|0:0,0:0:0:0:
205,112,59264,6,0,P|197:173|190:247,1,121.125002310276,4|0,0:3|0:0,0:0:0:0:
241,331,59583,6,0,P|178:258|76:318,1,218.500004167557,4|4,0:0|0:3,0:0:0:0:
316,253,60061,2,0,P|342:212|316:139,1,109.250002083778,8|0,0:0|0:0,0:0:0:0:
239,37,60380,1,4,0:3:0:0:
316,253,60540,1,4,0:3:0:0:
476,61,60699,2,0,P|448:46|419:42,1,54.6250010418892,10|0,0:0|0:0,0:0:0:0:
205,112,60858,6,0,B|280:103|280:103|336:135|336:135|416:121,1,218.500004167557,6|4,0:0|0:3,0:0:0:0:
195,204,61337,2,0,P|147:176|84:202,1,109.250002083778,8|0,0:0|0:0,0:0:0:0:
239,37,61655,1,4,0:3:0:0:
97,188,61815,1,4,0:3:0:0:
339,135,61974,2,0,L|283:120,1,54.6250010418892,10|0,0:0|0:0,0:0:0:0:
74,51,62134,6,0,B|23:78|23:78|33:273,1,218.500004167557,6|4,0:0|0:3,0:0:0:0:
239,363,62612,2,0,L|250:237,1,109.250002083778,8|0,0:0|0:0,0:0:0:0:
248,254,62851,1,0,0:0:0:0:
248,254,62931,1,4,0:3:0:0:
16,318,63090,1,4,0:3:0:0:
203,114,63249,1,8,0:0:0:0:
401,339,63409,6,0,B|359:326|349:270|349:270|314:340|216:321,1,218.500004167557,4|4,0:0|0:3,0:0:0:0:
453,200,63887,1,8,0:0:0:0:
203,114,64046,1,8,0:0:0:0:
206,152,64126,1,8,0:0:0:0:
210,190,64206,1,8,0:0:0:0:
447,53,64365,2,0,L|385:45,1,54.6250010418892,8|0,0:0|0:0,0:0:0:0:
264,183,64525,2,0,L|202:191,1,54.6250010418892,8|0,0:0|0:0,0:0:0:0:
27,59,64684,6,0,B|74:13|133:39|133:39|126:68|81:73,1,163.875003125668,4|0,0:0|0:0,0:0:0:0:
55,131,65003,1,4,0:3:0:0:
277,36,65162,1,8,0:0:0:0:
214,235,65322,1,0,0:0:0:0:
134,40,65481,1,4,0:3:0:0:
373,73,65640,2,0,P|394:129|366:183,1,109.250002083778,4|8,0:3|0:0,0:0:0:0:
129,295,65959,6,0,P|197:285|303:273,1,163.875003125668,4|0,0:0|0:0,0:0:0:0:
372,269,66278,1,4,0:3:0:0:
134,184,66438,1,8,0:0:0:0:
274,366,66597,1,0,0:0:0:0:
356,152,66756,1,4,0:3:0:0:
188,296,66916,2,0,P|242:290|297:284,1,109.250002083778,4|8,0:3|0:0,0:0:0:0:
478,73,67235,6,0,P|471:138|457:306,1,218.500004167557,4|4,0:0|0:3,0:0:0:0:
220,211,67713,1,8,0:0:0:0:
407,29,67872,1,8,0:0:0:0:
407,29,67952,1,8,0:0:0:0:
407,29,68032,1,8,0:0:0:0:
332,256,68191,1,4,0:3:0:0:
139,101,68350,1,8,0:0:0:0:
433,172,68510,6,0,B|379:153|370:112|370:112|343:151|272:146,1,178.125,4|0,0:3|0:0,0:0:0:0:
224,113,68829,1,4,0:3:0:0:
490,53,68988,1,8,0:0:0:0:
407,313,69147,1,8,0:0:0:0:
285,20,69307,5,8,0:0:0:0:
332,256,69466,1,8,0:0:0:0:
285,20,69626,1,8,0:0:0:0:
69,184,69785,6,0,P|177:169|286:157,1,218.500004167557,4|4,0:0|0:3,0:0:0:0:
133,354,70263,2,0,P|108:315|130:242,1,109.250002083778,8|0,0:0|0:0,0:0:0:0:
285,157,70582,1,4,0:3:0:0:
50,97,70742,1,4,0:3:0:0:
199,294,70901,2,0,L|193:231,1,54.6250010418892,10|0,0:0|0:0,0:0:0:0:
311,53,71060,6,0,P|379:137|301:231,1,218.500004167557,6|4,0:0|0:3,0:0:0:0:
127,109,71539,2,0,P|179:103|239:96,1,109.250002083778,8|0,0:0|0:0,0:0:0:0:
235,96,71778,1,0,0:0:0:0:
235,96,71857,1,4,0:3:0:0:
340,314,72017,1,4,0:3:0:0:
455,103,72176,2,0,P|461:134|459:165,1,54.6250010418892,10|0,0:0|0:0,0:0:0:0:
224,216,72335,6,0,B|300:206|300:206|352:240|352:240|431:230,1,218.500004167557,6|4,0:0|0:3,0:0:0:0:
177,150,72814,2,0,P|156:98|186:31,1,109.250002083778,8|0,0:0|0:0,0:0:0:0:
370,158,73133,1,4,0:3:0:0:
148,270,73292,1,4,0:3:0:0:
259,53,73451,1,8,0:0:0:0:
309,304,73611,6,0,P|356:249|308:165,1,163.875003125668,4|4,0:0|0:0,0:0:0:0:
250,132,73930,1,4,0:3:0:0:
474,240,74089,1,8,0:0:0:0:
405,20,74248,1,8,0:0:0:0:
402,58,74328,1,8,0:0:0:0:
398,96,74408,1,8,0:0:0:0:
312,342,74567,1,8,0:0:0:0:
309,304,74647,1,8,0:0:0:0:
305,266,74727,1,8,0:0:0:0:
101,64,74886,6,0,P|166:20|236:54,1,163.875003125668,4|0,0:0|0:0,0:0:0:0:
294,114,75205,1,4,0:3:0:0:
26,173,75364,5,8,0:0:0:0:
301,230,75524,1,4,0:3:0:0:
12,287,75683,5,8,0:0:0:0:
172,98,75842,1,4,0:3:0:0:
172,98,75922,1,4,0:3:0:0:
172,98,76002,1,8,0:0:0:0:
62,359,76161,1,4,0:3:0:0:
88,43,76321,5,8,0:0:0:0:
177,325,76480,1,4,0:3:0:0:
410,128,76639,5,8,0:0:0:0:
124,229,76799,1,4,0:3:0:0:
410,128,76958,1,8,0:0:0:0:
88,43,77118,5,4,0:3:0:0:
66,86,77197,1,4,0:3:0:0:
86,130,77277,1,8,0:0:0:0:
373,198,77436,1,4,0:3:0:0:
10,283,77596,5,8,0:0:0:0:
54,313,77676,1,4,0:3:0:0:
106,315,77755,1,4,0:3:0:0:
154,290,77835,1,4,0:3:0:0:
183,244,77915,1,8,0:0:0:0:
234,226,77994,1,4,0:3:0:0:
287,232,78074,1,4,0:3:0:0:
332,261,78154,1,4,0:3:0:0:
355,310,78233,6,0,L|351:374,1,54.6250010418892,8|0,0:0|0:0,0:0:0:0:
230,171,78393,2,0,L|234:235,1,54.6250010418892,8|0,0:0|0:0,0:0:0:0:
369,53,78552,1,4,0:3:0:0:
40,116,78712,6,0,B|86:66|186:73|163:155|252:176|315:121,1,299.249990867615,8|0,0:0|0:0,0:0:0:0:
369,53,79509,6,0,P|381:86|366:125,1,47.5,8|0,0:0|0:0,0:0:0:0:
373,285,79668,6,0,B|332:219|366:174|366:174|388:189|382:226,1,163.875003125668,4|0,0:3|0:0,0:0:0:0:
472,314,79987,6,0,B|405:306|405:306|359:333|359:333|282:322,1,190,6|4,0:0|0:3,0:0:0:0:
105,235,80465,2,0,P|145:211|196:222,1,95,10|0,0:0|0:0,0:0:0:0:
26,346,80784,1,6,0:3:0:0:
58,131,80943,1,2,0:0:0:0:
26,346,81103,2,0,B|1:302|1:302|15:250,1,95,10|0,0:0|0:0,0:0:0:0:
208,353,81422,6,0,L|160:357,1,47.5,6|0,0:3|0:0,0:0:0:0:
286,226,81581,2,0,L|334:230,1,47.5,2|0,0:0|0:0,0:0:0:0:
434,362,81741,1,8,0:0:0:0:
504,134,81900,1,10,0:0:0:0:
504,134,81980,1,8,0:0:0:0:
504,134,82059,1,12,0:3:0:0:
371,308,82219,1,6,0:3:0:0:
286,110,82378,1,8,0:0:0:0:
475,210,82538,6,0,P|410:216|282:226,1,190,6|4,0:0|0:3,0:0:0:0:
75,174,83016,2,0,P|127:168|190:161,1,95,10|0,0:0|0:0,0:0:0:0:
321,17,83335,1,6,0:3:0:0:
285,225,83494,1,2,0:0:0:0:
122,78,83653,1,10,0:0:0:0:
122,78,83813,1,2,0:0:0:0:
331,138,83972,6,0,L|283:145,1,47.5,6|0,0:3|0:0,0:0:0:0:
120,244,84132,2,0,L|167:250,1,47.5,6|0,0:3|0:0,0:0:0:0:
340,328,84291,1,8,0:0:0:0:
195,165,84450,1,8,0:0:0:0:
195,165,84530,1,8,0:0:0:0:
195,165,84610,1,8,0:0:0:0:
118,367,84769,1,10,0:0:0:0:
300,238,84929,1,8,0:0:0:0:
87,132,85088,6,0,B|151:116|151:116|200:144|200:144|279:131,1,190,6|8,0:0|0:0,0:0:0:0:
433,19,85566,2,0,P|427:75|422:126,1,95,2|4,0:0|0:3,0:0:0:0:
389,299,85885,1,10,0:0:0:0:
423,113,86044,2,0,P|429:169|434:220,1,95,6|0,0:3|0:0,0:0:0:0:
251,87,86363,1,6,0:3:0:0:
251,87,86443,1,4,0:3:0:0:
251,87,86523,6,0,P|302:82|365:77,1,95,4|4,0:3|0:3,0:0:0:0:
159,145,86841,2,0,P|114:140|61:135,1,95,10|0,0:0|0:0,0:0:0:0:
236,266,87160,2,0,L|240:218,1,47.5,10|0,0:0|0:0,0:0:0:0:
155,97,87320,2,0,L|159:147,1,47.5,10|0,0:0|0:0,0:0:0:0:
321,242,87479,2,0,L|325:194,1,47.5,10|0,0:0|0:0,0:0:0:0:
225,29,87638,6,0,B|242:247,1,190,6|4,0:0|0:3,0:0:0:0:
396,344,88117,2,0,L|296:335,1,95,10|0,0:0|0:0,0:0:0:0:
116,301,88436,1,10,0:0:0:0:
301,335,88595,2,0,L|201:344,1,95,6|0,0:3|0:0,0:0:0:0:
91,159,88914,6,0,P|132:199|213:170,1,142.5,4|0,0:0|0:0,0:0:0:0:
264,116,89232,1,8,0:0:0:0:
183,330,89392,1,8,0:0:0:0:
264,116,89551,1,8,0:0:0:0:
312,369,89711,5,8,0:0:0:0:
95,237,89870,1,8,0:0:0:0:
352,141,90029,1,8,0:0:0:0:
347,178,90109,1,4,0:3:0:0:
343,216,90189,1,4,0:3:0:0:
339,254,90269,1,4,0:3:0:0:
335,291,90348,5,8,0:0:0:0:
139,174,90508,1,4,0:3:0:0:
139,174,90667,1,4,0:3:0:0:
412,207,90826,5,8,0:0:0:0:
174,279,90986,1,4,0:3:0:0:
174,279,91145,1,4,0:3:0:0:
469,316,91305,5,8,0:0:0:0:
226,208,91464,1,8,0:0:0:0:
256,192,91544,12,0,93058,0:0:0:0:
