osu file format v14

[General]
AudioFilename: Dimension tripper!!!!.mp3
AudioLeadIn: 0
PreviewTime: 119772
Countdown: 0
SampleSet: Soft
StackLeniency: 0.7
Mode: 0
LetterboxInBreaks: 1
WidescreenStoryboard: 1

[Editor]
Bookmarks: 28655,161421,174187,188229,197644,206261
DistanceSpacing: 1.2
BeatDivisor: 2
GridSize: 4
TimelineZoom: 3.163999

[Metadata]
Title:Dimension tripper!!!!
TitleUnicode:Dimension tripper!!!!
Artist:nao
ArtistUnicode:nao
Creator:AtHeoN
Version:iMega's Expert
Source:Choujigen Game Neptune
Tags:Hyperdimension Neptunia the animation compile heart 5pb
BeatmapID:738371
BeatmapSetID:325512

[Difficulty]
HPDrainRate:6
CircleSize:4
OverallDifficulty:8.4
ApproachRate:9.2
SliderMultiplier:1.8
SliderTickRate:1

[Events]
//Background and Video events
0,0,"BG.jpg",0,0
//Break Periods
2,90290,91914
2,92843,94468
2,185876,197074
//Storyboard Layer 0 (Background)
//Storyboard Layer 1 (Fail)
//Storyboard Layer 2 (Pass)
//Storyboard Layer 3 (Foreground)
//Storyboard Sound Samples

[TimingPoints]
570,319.148936170213,4,2,0,70,1,0
5516,-76.9230769230769,4,1,0,65,0,0
5835,-100,4,2,0,65,0,0
8070,-76.9230769230769,4,2,0,65,0,0
8389,-100,4,2,0,65,0,0
28655,-111.111111111111,4,2,0,66,0,0
37431,-90.9090909090909,4,2,0,66,0,0
54187,-133.333333333333,4,2,0,66,0,0
56101,-66.6666666666667,4,2,0,66,0,0
56580,-83.3333333333333,4,2,0,65,0,0
59133,-100,4,2,0,80,0,1
78282,-100,4,2,0,70,0,0
100144,-83.3333333333333,4,1,1,60,0,0
115782,-100,4,1,0,65,0,0
117378,-66.6666666666667,4,1,0,65,0,0
117857,-100,4,1,0,65,0,0
120410,-100,4,2,0,80,0,1
139559,-100,4,2,0,70,0,0
149133,-133.333333333333,4,2,0,70,0,0
150250,-200,4,2,0,60,0,0
150729,-100,4,2,0,65,0,0
197644,-125,4,2,0,65,0,0
203389,-100,4,2,0,65,0,0
208495,-83.3333333333333,4,2,0,80,0,1
227644,-200,4,2,0,70,0,0
228282,-83.3333333333333,4,2,0,65,0,0
228601,-100,4,2,0,65,0,0
234027,-125,4,2,0,65,0,0
239133,-100,4,2,0,65,0,0
244240,-125,4,2,0,65,0,0

[Colours]
Combo1 : 128,0,255
Combo2 : 255,213,128
Combo3 : 242,121,97
Combo4 : 255,140,179

[HitObjects]
48,96,570,6,0,P|112:72|172:184,1,180
144,228,1048,1,0,0:0:0:0:
176,312,1208,2,0,B|236:328|236:328|368:336,1,180
432,292,1687,1,0,0:0:0:0:
364,232,1846,2,0,L|376:136,1,90
416,64,2165,2,0,P|451:36|494:27,1,90
328,76,2484,2,0,P|272:88|168:12,1,180
36,172,2963,5,0,0:0:0:0:
48,260,3123,2,0,L|64:360,1,90
124,204,3442,2,0,L|140:304,1,90
200,112,3761,2,0,L|216:12,1,90
304,180,4080,2,0,L|320:80,1,90
384,248,4399,2,0,L|484:244,1,90
284,328,4718,2,0,L|184:332,1,90
88,200,5038,5,0,1:0:0:0:
80,172,5197,1,0,1:0:0:0:
72,144,5357,1,0,1:0:0:0:
64,116,5516,2,0,P|144:72|232:192,1,233.999989288331,0|0,1:0|0:0,0:0:0:0:
260,244,5995,2,0,P|304:256|356:244,1,90,0|0,1:0|0:0,0:0:0:0:
176,228,6314,2,0,B|136:248|136:248|92:292,1,90,0|0,1:0|0:0,0:0:0:0:
424,296,6633,2,0,P|440:248|428:204,1,90,0|0,1:0|0:0,0:0:0:0:
459,102,6952,5,0,0:0:0:0:
351,74,7112,1,0,0:0:0:0:
323,182,7272,1,0,0:0:0:0:
431,210,7431,1,0,0:0:0:0:
392,140,7591,5,0,0:0:0:0:
284,112,7751,1,0,0:0:0:0:
256,220,7911,1,0,0:0:0:0:
364,248,8070,2,0,P|336:304|184:300,1,233.999989288331
128,232,8548,2,0,L|32:216,1,90
284,112,8867,2,0,L|380:128,1,90
456,88,9187,1,0,0:0:0:0:
232,44,9346,1,0,0:0:0:0:
232,44,9426,1,0,0:0:0:0:
232,44,9506,6,0,P|204:80|204:144,1,90
256,192,9825,1,0,0:0:0:0:
172,300,9984,1,0,0:0:0:0:
172,300,10064,1,0,0:0:0:0:
172,300,10144,2,0,B|124:308|124:308|84:300,1,90
64,196,10463,5,0,0:0:0:0:
176,204,10623,2,0,P|224:220|248:340,1,180
116,112,11101,2,0,L|26:115,1,90
264,216,11421,2,0,L|353:212,1,90
448,304,11740,1,0,0:0:0:0:
468,288,11899,2,0,P|492:220|420:116,1,180
284,64,12378,2,0,P|228:56|192:32,1,90
24,136,12697,2,0,P|80:128|116:104,1,90
168,220,13016,1,0,0:0:0:0:
168,220,13096,1,0,0:0:0:0:
168,220,13176,2,0,P|173:272|308:284,1,180
184,340,13655,6,0,L|64:344,1,90
281,307,13974,2,0,L|401:303,1,90
460,240,14293,1,0,0:0:0:0:
468,220,14452,2,0,B|484:184|484:184|452:28,1,180
332,100,14931,1,0,0:0:0:0:
204,52,15091,1,0,0:0:0:0:
68,108,15250,2,0,P|40:156|56:224,1,90
88,316,15570,2,0,L|28:320,1,45
200,232,15729,2,0,P|235:228|272:356,1,180
196,344,16208,6,0,L|285:338,1,90
484,272,16527,2,0,L|394:277,1,90
308,196,16846,1,0,0:0:0:0:
448,112,17006,1,0,0:0:0:0:
280,208,17165,2,0,P|232:216|188:204,1,90
460,196,17484,1,0,0:0:0:0:
240,136,17644,1,0,0:0:0:0:
384,44,17804,1,0,0:0:0:0:
356,272,17963,1,0,0:0:0:0:
196,328,18123,5,0,0:0:0:0:
152,336,18202,1,0,0:0:0:0:
108,344,18282,2,0,P|60:336|40:212,1,180
80,64,18761,2,0,P|88:116|64:164,1,90
116,224,19080,2,0,L|208:240,1,90
364,280,19399,2,0,L|272:296,1,90
196,328,19718,5,0,0:0:0:0:
264,192,19878,1,0,0:0:0:0:
360,356,20038,1,0,0:0:0:0:
428,220,20198,1,0,0:0:0:0:
360,100,20357,2,0,P|340:60|344:12,1,90
428,48,20676,5,0,0:0:0:0:
428,48,20756,1,0,0:0:0:0:
428,48,20835,2,0,L|244:76,1,180
100,124,21314,2,0,L|200:136,1,90
348,168,21633,2,0,L|248:180,1,90
160,232,21952,1,0,0:0:0:0:
160,232,22032,1,0,0:0:0:0:
160,232,22112,2,0,B|116:252|116:252|252:268,1,180
68,320,22591,6,0,P|36:268|48:212,1,90
148,48,22910,1,0,0:0:0:0:
24,152,23070,1,0,0:0:0:0:
180,40,23229,1,0,0:0:0:0:
328,160,23389,2,0,P|408:148|484:76,1,180
183,160,23867,2,0,P|139:158|96:144,1,90
256,224,24187,2,0,B|256:268|256:268|236:320,1,90
68,310,24506,1,0,0:0:0:0:
68,310,24585,1,0,0:0:0:0:
68,310,24665,6,0,P|152:286|244:314,1,180
324,336,25144,2,0,L|420:344,1,90
456,196,25463,1,0,0:0:0:0:
376,40,25623,1,0,0:0:0:0:
464,204,25782,1,0,0:0:0:0:
472,212,25862,1,0,0:0:0:0:
480,220,25942,6,0,B|424:236|424:236|276:204,1,180
168,64,26421,2,0,P|126:44|77:48,1,90
119,171,26740,2,0,P|77:190|48:230,1,90
171,277,27059,1,0,0:0:0:0:
171,277,27218,2,0,P|159:321|171:369,1,90
440,248,27538,2,0,L|332:256,1,90
468,144,27857,1,0,0:0:0:0:
456,100,27937,1,0,0:0:0:0:
420,72,28016,1,0,0:0:0:0:
376,68,28096,1,0,0:0:0:0:
332,80,28176,2,0,P|276:104|176:40,1,180
72,216,28655,6,0,L|52:304,1,80.9999975280763
136,264,28974,2,0,L|116:352,1,80.9999975280763
440,216,29293,2,0,L|460:304,1,80.9999975280763
376,264,29612,2,0,L|396:352,1,80.9999975280763
268,116,29931,5,0,0:0:0:0:
160,88,30091,1,0,0:0:0:0:
132,196,30250,1,0,0:0:0:0:
240,224,30410,1,0,0:0:0:0:
264,48,30570,5,0,0:0:0:0:
92,92,30729,1,0,0:0:0:0:
136,264,30889,1,0,0:0:0:0:
308,220,31048,1,0,0:0:0:0:
400,96,31208,2,0,P|448:92|492:104,1,80.9999975280763
268,116,31527,2,0,P|220:120|176:108,1,80.9999975280763
336,296,31846,1,0,0:0:0:0:
160,336,32006,1,0,0:0:0:0:
208,176,32165,5,0,0:0:0:0:
316,236,32325,1,0,0:0:0:0:
156,284,32484,1,0,0:0:0:0:
312,352,32644,1,0,0:0:0:0:
208,176,32804,2,0,P|176:164|112:188,1,80.9999975280763
316,236,33123,2,0,P|348:248|412:224,1,80.9999975280763
164,248,33442,2,0,L|128:336,1,80.9999975280763
56,228,33761,2,0,P|44:160|124:80,1,161.999995056153
284,44,34240,5,0,0:0:0:0:
180,64,34399,1,0,0:0:0:0:
352,120,34559,1,0,0:0:0:0:
152,160,34718,2,0,L|128:240,1,80.9999975280763
372,216,35038,2,0,L|396:296,1,80.9999975280763
204,324,35357,2,0,P|144:324|112:308,1,80.9999975280763
296,284,35676,2,0,P|326:335|328:371,1,80.9999975280763
220,224,35995,2,0,P|250:172|279:152,1,80.9999975280763
310,29,36314,6,0,P|326:89|258:161,1,161.999995056153
236,76,36793,2,0,L|148:64,1,80.9999975280763
39,138,37112,2,0,L|80:144,1,40.4999987640381
152,268,37272,2,0,L|111:262,1,40.4999987640381
264,344,37431,1,0,0:0:0:0:
404,264,37591,2,0,L|424:156,1,99.0000030212403
344,84,37910,1,0,0:0:0:0:
344,84,38229,5,0,0:0:0:0:
124,48,38389,1,0,0:0:0:0:
196,240,38548,1,0,0:0:0:0:
412,272,38708,1,0,0:0:0:0:
412,272,38788,1,0,0:0:0:0:
412,272,38867,2,0,L|296:296,1,99.0000030212403
124,320,39187,2,0,L|240:344,1,99.0000030212403
48,352,39506,2,0,P|40:304|160:248,1,198.000006042481
256,168,39984,5,0,0:0:0:0:
336,112,40144,2,0,L|336:12,1,99.0000030212403
332,232,40463,1,0,0:0:0:0:
332,232,40623,1,0,0:0:0:0:
180,120,40782,2,0,L|76:120,1,99.0000030212403
24,224,41101,2,0,P|15:274|24:336,1,99.0000030212403
208,196,41421,2,0,P|260:124|192:40,1,198.000006042481
205,43,41899,5,0,0:0:0:0:
160,260,42059,2,0,P|208:276|256:260,1,99.0000030212403
340,164,42378,1,0,0:0:0:0:
340,164,42538,2,0,L|372:268,1,99.0000030212403
456,344,42857,2,0,L|488:236,1,99.0000030212403
248,328,43176,1,0,0:0:0:0:
132,352,43335,2,0,L|4:316,1,99.0000030212403
28,316,43814,5,0,0:0:0:0:
20,308,44133,1,0,0:0:0:0:
76,204,44293,2,0,B|128:200|128:200|180:176,1,99.0000030212403
308,48,44612,2,0,B|256:52|256:52|204:76,1,99.0000030212403
288,164,44931,1,0,0:0:0:0:
288,164,45091,2,0,P|316:224|232:336,1,198.000006042481
131,232,45570,2,0,B|176:224|176:224|228:236,1,99.0000030212403
476,323,45889,2,0,B|432:332|432:332|380:320,1,99.0000030212403
92,312,46208,1,0,0:0:0:0:
92,312,46367,6,0,P|52:272|104:148,1,198.000006042481
384,72,46846,2,0,L|284:88,1,99.0000030212403
92,152,47165,2,0,L|192:168,1,99.0000030212403
376,232,47484,2,0,L|276:248,1,99.0000030212403
76,308,47804,2,0,L|176:324,1,99.0000030212403
292,316,48123,5,0,0:0:0:0:
112,236,48282,1,0,0:0:0:0:
448,104,48601,1,0,0:0:0:0:
180,68,49080,2,0,P|120:68|64:104,1,99.0000030212403
24,208,49399,1,0,0:0:0:0:
216,256,49559,1,0,0:0:0:0:
108,308,49718,2,0,P|96:252|108:204,1,99.0000030212403
220,260,50038,5,0,0:0:0:0:
112,312,50197,2,0,P|100:244|188:148,1,198.000006042481
224,264,50676,1,0,0:0:0:0:
228,268,50995,1,0,0:0:0:0:
320,304,51155,1,0,0:0:0:0:
400,236,51314,1,0,0:0:0:0:
284,116,51474,2,0,P|224:76|88:92,1,198.000006042481
236,184,51952,2,0,P|288:196|336:184,1,99.0000030212403
136,232,52272,2,0,P|84:244|36:232,1,99.0000030212403
220,276,52591,1,0,0:0:0:0:
356,84,52750,6,0,L|392:278,1,198.000006042481
304,360,53229,2,0,L|280:248,1,99.0000030212403
215,87,53548,2,0,L|239:199,1,99.0000030212403
168,280,53867,1,0,0:0:0:0:
44,348,54027,1,0,0:0:0:0:
44,348,54107,1,0,0:0:0:0:
44,348,54187,2,0,P|28:280|48:216,1,135.000005149842
104,160,54665,1,0,0:0:0:0:
104,160,54825,6,0,P|120:96|104:16,1,135.000005149842
128,240,55304,2,0,P|196:256|280:232,1,135.000005149842
368,192,55782,2,0,P|384:180|360:148,1,67.5000025749208
436,240,56101,2,0,P|464:176|440:104,1,135.000005149842
304,40,56421,5,0,0:0:0:0:
160,112,56580,2,0,B|136:136|128:172|128:172|88:88|136:32,1,215.999993408203
200,184,57059,2,0,P|168:232|100:244,1,107.999996704102
32,276,57378,2,0,P|64:324|132:336,1,107.999996704102
292,148,57697,2,0,P|260:100|192:88,1,107.999996704102
100,172,58016,5,0,0:0:0:0:
319,234,58176,5,0,0:0:0:0:
264,13,58335,5,0,0:0:0:0:
280,316,58655,5,0,0:0:0:0:
404,272,58814,1,0,0:0:0:0:
360,148,58974,1,0,0:0:0:0:
236,192,59133,2,0,P|232:100|312:32,1,180
195,145,59612,6,0,L|103:189,1,90
8,328,59931,2,0,L|100:284,1,90
192,320,60250,1,0,0:0:0:0:
192,320,60410,2,0,P|192:244|92:184,1,180
192,320,60889,6,0,P|235:329|279:320,1,90
408,252,61208,2,0,P|364:242|320:252,1,90
460,324,61527,1,0,0:0:0:0:
460,324,61687,2,0,P|496:248|452:168,1,180
364,112,62165,2,0,B|320:104|320:104|268:124,1,90
172,100,62484,2,0,P|144:52|140:12,1,90
212,200,62804,1,0,0:0:0:0:
212,200,62963,2,0,B|212:256|164:304|164:304|136:240,1,180
68,332,63442,1,0,0:0:0:0:
76,336,63761,5,0,0:0:0:0:
240,344,63921,2,0,L|336:348,1,90
420,288,64240,2,0,P|440:236|412:96,1,180
324,80,64718,2,0,P|316:132|336:192,1,90
244,240,65038,1,0,0:0:0:0:
216,52,65197,1,0,0:0:0:0:
72,164,65357,1,0,0:0:0:0:
72,164,65437,1,0,0:0:0:0:
72,164,65516,2,0,L|96:344,1,180
116,236,65995,6,0,P|140:184|168:160,1,90
396,148,66314,2,0,P|372:200|344:224,1,90
252,268,66633,1,0,0:0:0:0:
252,268,66793,2,0,P|304:316|432:296,1,180
201,86,67272,2,0,L|112:80,1,90
348,70,67591,2,0,P|392:59|436:68,1,90
280,136,67910,1,0,0:0:0:0:
112,176,68070,2,0,P|80:228|140:332,1,180
168,248,68548,1,0,0:0:0:0:
204,164,68708,1,0,0:0:0:0:
232,316,68867,5,0,0:0:0:0:
251,327,68946,1,0,0:0:0:0:
271,336,69026,1,0,0:0:0:0:
293,343,69106,1,0,0:0:0:0:
315,347,69186,1,0,0:0:0:0:
337,348,69265,1,0,0:0:0:0:
360,348,69346,2,0,P|412:320|448:184,1,180
412,64,69825,1,0,0:0:0:0:
252,100,69984,1,0,0:0:0:0:
356,200,70144,5,0,0:0:0:0:
312,24,70304,1,0,0:0:0:0:
184,176,70463,1,0,0:0:0:0:
109,100,70623,2,0,P|75:180|112:260,1,180
336,332,71101,1,0,0:0:0:0:
176,332,71261,1,0,0:0:0:0:
304,248,71421,2,0,P|352:248|392:268,1,90
444,336,71740,1,0,0:0:0:0:
484,256,71899,2,0,L|460:72,1,180
444,168,72378,6,0,P|416:208|360:224,1,90
300,71,72697,2,0,P|318:111|356:136,1,90
220,40,73016,1,0,0:0:0:0:
220,40,73176,2,0,P|148:36|72:140,1,180
85,200,73655,2,0,P|127:185|156:152,1,90
104,296,73974,1,0,0:0:0:0:
104,296,74054,1,0,0:0:0:0:
104,296,74133,1,0,0:0:0:0:
104,296,74213,1,0,0:0:0:0:
104,296,74293,1,0,0:0:0:0:
104,296,74373,1,0,0:0:0:0:
104,296,74452,6,0,L|288:332,1,180
468,232,74931,1,0,0:0:0:0:
372,300,75091,1,0,0:0:0:0:
420,148,75250,1,0,0:0:0:0:
304,208,75410,1,0,0:0:0:0:
404,60,75570,1,0,0:0:0:0:
268,96,75729,1,0,0:0:0:0:
488,120,75889,5,0,0:0:0:0:
336,168,76048,1,0,0:0:0:0:
472,32,76208,1,0,0:0:0:0:
396,236,76367,1,0,0:0:0:0:
220,168,76527,1,0,0:0:0:0:
328,40,76687,1,0,0:0:0:0:
328,40,76766,1,0,0:0:0:0:
328,40,76846,1,0,0:0:0:0:
120,136,77006,1,0,0:0:0:0:
304,260,77165,5,0,0:0:0:0:
304,260,77245,1,0,0:0:0:0:
304,260,77325,1,0,0:0:0:0:
304,260,77405,1,0,0:0:0:0:
304,260,77484,1,0,0:0:0:0:
304,260,77564,1,0,0:0:0:0:
304,260,77644,6,0,L|259:267,1,45
180,352,77804,2,0,L|224:344,1,45
152,280,77964,2,0,L|107:287,1,45
28,364,78124,2,0,L|72:356,1,45
132,192,78282,2,0,P|148:144|76:40,1,180
168,112,78761,6,0,P|212:128|280:120,1,90
434,91,79080,2,0,P|392:75|348:76,1,90
348,184,79399,1,0,0:0:0:0:
348,184,79559,2,0,B|360:248|360:248|384:304|448:340,1,180
328,344,80038,2,0,L|220:352,1,90
132,332,80357,2,0,P|88:288|76:248,1,90
100,156,80676,5,0,0:0:0:0:
148,60,80835,1,0,0:0:0:0:
196,156,80995,1,0,0:0:0:0:
148,60,81155,1,0,0:0:0:0:
92,188,81314,1,0,0:0:0:0:
148,60,81474,1,0,0:0:0:0:
196,212,81633,2,0,P|248:232|292:224,1,90
388,80,81952,1,0,0:0:0:0:
388,80,82112,2,0,L|416:272,1,180
352,320,82591,6,0,B|304:340|304:340|236:336,1,90
176,328,82910,1,0,0:0:0:0:
176,328,83070,1,0,0:0:0:0:
228,256,83229,6,0,B|248:208|248:208|245:170,1,90
236,80,83548,1,0,0:0:0:0:
236,80,83708,1,0,0:0:0:0:
164,132,83867,2,0,P|104:152|64:140,1,90
245,170,84187,1,0,0:0:0:0:
264,181,84266,1,0,0:0:0:0:
285,188,84346,1,0,0:0:0:0:
307,189,84426,1,0,0:0:0:0:
329,185,84506,1,0,0:0:0:0:
452,56,84665,6,0,L|480:244,1,180
424,304,85144,2,0,P|384:320|324:328,1,90
198,211,85463,2,0,P|238:195|298:187,1,90
212,352,85782,1,0,0:0:0:0:
212,352,85942,2,0,P|172:368|48:292,1,180
64,224,86421,2,0,P|66:268|55:312,1,90
112,148,86741,1,0,0:0:0:0:
120,145,86820,1,0,0:0:0:0:
129,143,86900,1,0,0:0:0:0:
138,141,86980,1,0,0:0:0:0:
147,139,87060,1,0,0:0:0:0:
228,100,87218,6,0,B|272:84|292:28|292:28|348:24|388:88,1,180
396,140,87697,2,0,L|412:236,2,90
320,188,88176,2,0,L|308:284,1,90
236,332,88495,2,0,P|180:344|88:296,1,135
80,284,88814,2,0,L|72:180,1,90
256,192,89054,12,0,89851,0:0:0:0:
160,96,89931,6,0,L|256:64,1,90,8|0,1:0|0:0,1:0:0:0:
352,288,92484,6,8,L|256:320,1,90,8|8,1:0|1:0,1:0:0:0:
160,96,95038,6,0,P|144:128|140:176,1,45,8|0,1:0|0:0,0:0:0:0:
104,164,95197,2,0,P|160:160|204:204,1,90,8|0,1:0|0:0,0:0:0:0:
140,252,95516,2,0,P|188:264|276:180,1,180,8|0,1:0|0:0,0:0:0:0:
440,40,96793,2,0,L|460:188,1,135,8|0,1:0|0:0,0:0:0:0:
420,152,97112,2,0,B|384:136|384:136|328:192|376:296,1,180,8|0,1:0|0:0,0:0:0:0:
296,324,97591,6,0,P|240:356|144:336,1,135,8|0,1:0|0:0,0:0:0:0:
136,328,97910,2,0,L|100:284,1,45
104,192,98070,2,0,P|160:160|256:180,1,135,8|0,1:0|0:0,0:0:0:0:
264,192,98389,1,0,0:0:0:0:
336,56,98548,5,0,0:0:0:0:
452,168,98708,1,0,0:0:0:0:
449,199,98787,1,0,0:0:0:0:
446,230,98867,1,0,0:0:0:0:
444,262,98947,1,0,0:0:0:0:
441,293,99027,1,0,0:0:0:0:
356,328,99187,2,0,P|308:296|188:312,1,180,8|0,1:0|0:0,0:0:0:0:
152,328,99585,1,0,0:0:0:0:
109,315,99664,1,0,0:0:0:0:
74,287,99744,1,0,0:0:0:0:
52,248,99825,2,0,L|64:80,1,135,8|0,1:0|0:0,0:0:0:0:
96,84,100144,5,0,0:0:0:0:
240,40,100304,1,0,0:0:0:0:
196,184,100463,2,0,B|248:200|248:200|312:184,1,107.999996704102
467,103,100782,2,0,B|415:87|415:87|364:100,1,107.999996704102
372,272,101101,2,0,B|424:288|424:288|476:276,1,107.999996704102
308,348,101421,1,0,0:0:0:0:
236,268,101580,1,0,0:0:0:0:
164,348,101740,1,0,0:0:0:0:
92,268,101899,1,0,0:0:0:0:
36,176,102059,6,0,L|68:68,1,107.999996704102
132,160,102378,2,0,P|168:176|240:160,1,107.999996704102
304,84,102697,1,0,0:0:0:0:
408,52,102857,1,0,0:0:0:0:
364,152,103016,1,0,0:0:0:0:
471,138,103176,1,0,0:0:0:0:
416,228,103335,2,0,P|412:296|384:328,1,107.999996704102
308,248,103655,1,0,0:0:0:0:
268,348,103814,2,0,P|211:310|197:270,1,107.999996704102
148,180,104133,1,0,0:0:0:0:
84,268,104293,1,0,0:0:0:0:
84,268,104612,5,0,0:0:0:0:
36,172,104772,1,0,0:0:0:0:
100,84,104931,1,0,0:0:0:0:
148,180,105091,2,0,P|192:144|160:-4,1,215.999993408203
244,80,105570,2,0,L|360:108,1,107.999996704102
452,296,105889,2,0,L|335:323,1,107.999996704102
344,212,106208,1,0,0:0:0:0:
256,272,106367,2,0,B|208:300|208:300|176:256|104:236|48:288,1,215.999993408203
120,368,106846,5,0,0:0:0:0:
48,288,107006,1,0,0:0:0:0:
56,180,107165,2,0,L|104:72,1,107.999996704102
196,36,107484,1,0,0:0:0:0:
196,144,107644,2,0,P|247:166|336:64,1,215.999993408203
436,372,108123,2,0,P|456:336|488:264,1,107.999996704102
440,96,108442,2,0,P|420:132|388:204,1,107.999996704102
340,288,108761,1,0,0:0:0:0:
240,332,108921,1,0,0:0:0:0:
136,304,109080,6,0,P|88:264|52:220,1,107.999996704102
48,120,109399,1,0,0:0:0:0:
144,68,109559,1,0,0:0:0:0:
368,200,109878,1,0,0:0:0:0:
368,200,110357,2,0,P|432:188|464:148,1,107.999996704102
368,68,110676,1,0,0:0:0:0:
128,184,110835,1,0,0:0:0:0:
244,104,110995,2,0,P|260:176|248:240,1,107.999996704102
120,180,111314,1,0,0:0:0:0:
248,100,111474,2,0,P|264:168|208:304,1,215.999993408203
112,176,111952,1,0,0:0:0:0:
104,172,112272,5,0,0:0:0:0:
48,252,112431,1,0,0:0:0:0:
100,336,112591,1,0,0:0:0:0:
196,348,112750,2,0,B|244:360|284:340|284:340|316:360|316:360|360:340|420:364,1,215.999993408203
476,252,113229,2,0,P|488:196|476:124,1,107.999996704102
380,68,113548,1,0,0:0:0:0:
356,196,113708,1,0,0:0:0:0:
236,244,113867,1,0,0:0:0:0:
264,116,114027,2,0,P|168:76|68:120,1,215.999993408203
21,239,114506,6,0,P|73:251|124:236,1,107.999996704102
183,352,114825,2,0,P|235:364|286:348,1,107.999996704102
384,264,115144,1,0,0:0:0:0:
476,172,115304,1,0,0:0:0:0:
464,152,115383,1,0,0:0:0:0:
452,132,115463,1,0,0:0:0:0:
300,36,115782,5,0,0:0:0:0:
232,96,115942,1,0,0:0:0:0:
144,84,116101,2,0,P|80:132|96:228,1,180
164,168,116580,2,0,P|212:232|308:216,1,180
372,164,117059,2,0,P|416:156|460:184,1,90
459,314,117378,2,0,P|400:344|340:320,1,135
244,344,117697,1,0,0:0:0:0:
144,332,117857,6,0,B|84:300|84:300|56:220,1,135,0|0,0:0|2:0,0:0:0:0:
80,196,118176,1,0,0:0:0:0:
160,96,118335,1,0,0:0:0:0:
288,52,118495,1,0,0:0:0:0:
264,184,118655,1,0,0:0:0:0:
208,24,118814,1,0,0:0:0:0:
352,120,118974,1,0,0:0:0:0:
264,264,119133,1,0,0:0:0:0:
116,176,119293,1,0,0:0:0:0:
108,156,119452,1,0,0:0:0:0:
100,140,119612,1,0,0:0:0:0:
104,320,119931,5,0,0:0:0:0:
104,320,120011,1,0,0:0:0:0:
104,320,120091,1,0,0:0:0:0:
104,320,120171,1,0,0:0:0:0:
104,320,120250,1,0,0:0:0:0:
104,320,120330,1,0,0:0:0:0:
104,320,120410,2,0,P|184:352|288:340,1,180
352,244,120889,2,0,P|400:240|448:256,1,90
220,232,121208,2,0,P|192:192|182:142,1,90
304,124,121527,5,0,0:0:0:0:
304,124,121687,2,0,B|352:132|352:132|404:72|488:120,1,180
204,64,122165,2,0,P|148:68|96:112,1,90
119,299,122484,2,0,P|159:319|204:320,1,90
256,192,122804,5,0,0:0:0:0:
256,192,122963,2,0,B|216:180|184:204|184:204|160:184|160:184|120:208|68:192,1,180
232,268,123442,2,0,P|239:311|227:354,1,90
112,120,123761,2,0,P|104:76|116:33,1,90
256,192,124080,1,0,0:0:0:0:
368,128,124240,2,0,B|396:104|404:72|404:72|436:132|396:200,1,180
360,296,124718,1,0,0:0:0:0:
352,304,125038,5,0,0:0:0:0:
228,324,125197,2,0,P|188:316|168:268,1,90
112,160,125516,2,0,P|124:228|108:348,1,180
68,92,125995,2,0,P|88:40|144:24,1,90
304,68,126314,5,0,0:0:0:0:
184,100,126474,1,0,0:0:0:0:
360,16,126633,1,0,0:0:0:0:
260,132,126793,2,0,P|260:196|376:232,1,180
400,124,127272,2,0,P|352:136|328:176,1,90
440,228,127591,5,0,0:0:0:0:
380,340,127750,1,0,0:0:0:0:
268,284,127910,1,0,0:0:0:0:
152,328,128070,2,0,P|76:316|56:224,1,180
148,140,128548,2,0,P|164:200|136:240,1,90
68,128,128867,2,0,P|56:85|73:44,1,90
196,76,129187,1,0,0:0:0:0:
316,56,129346,2,0,B|348:44|380:68|380:68|416:44|416:44|444:72|484:52,1,180
420,164,129825,2,0,P|412:216|436:264,1,90
328,328,130144,5,0,0:0:0:0:
323,329,130223,1,0,0:0:0:0:
319,331,130303,1,0,0:0:0:0:
315,333,130383,1,0,0:0:0:0:
311,334,130463,1,0,0:0:0:0:
307,336,130542,1,0,0:0:0:0:
302,340,130623,2,0,P|210:344|168:268,1,180
244,176,131101,6,0,P|272:228|252:268,1,90
152,192,131421,2,0,P|124:140|144:100,1,90
244,52,131740,1,0,0:0:0:0:
244,52,131899,2,0,P|324:48|384:128,1,180
312,224,132378,6,0,P|280:180|292:140,1,90
396,208,132697,2,0,P|428:252|416:292,1,90
304,332,133016,1,0,0:0:0:0:
304,332,133176,2,0,B|256:324|228:340|228:340|204:316|204:316|160:340|112:312,1,180
112,180,133655,6,0,P|148:200|152:260,1,90
60,324,133974,2,0,P|24:304|20:244,1,90
8,132,134293,1,0,0:0:0:0:
116,64,134452,2,0,L|324:48,1,180
488,40,134931,1,0,0:0:0:0:
348,248,135250,2,0,P|344:296|392:328,1,90
468,244,135570,1,0,0:0:0:0:
248,344,135729,2,0,P|196:352|96:268,1,180
96,152,136208,5,0,0:0:0:0:
136,28,136367,1,0,0:0:0:0:
196,196,136527,1,0,0:0:0:0:
228,32,136687,1,0,0:0:0:0:
296,236,136846,1,0,0:0:0:0:
316,36,137006,1,0,0:0:0:0:
396,272,137165,1,0,0:0:0:0:
408,44,137325,1,0,0:0:0:0:
296,236,137484,5,0,0:0:0:0:
228,32,137644,1,0,0:0:0:0:
96,152,137804,1,0,0:0:0:0:
136,28,137963,1,0,0:0:0:0:
196,196,138123,1,0,0:0:0:0:
316,36,138282,1,0,0:0:0:0:
396,272,138442,5,0,0:0:0:0:
284,132,138601,1,0,0:0:0:0:
468,96,138761,1,0,0:0:0:0:
408,284,138921,1,0,0:0:0:0:
408,284,139000,1,0,0:0:0:0:
408,284,139080,5,0,0:0:0:0:
328,324,139240,1,0,0:0:0:0:
240,336,139399,1,0,0:0:0:0:
160,292,139559,2,0,P|92:280|12:352,1,180
32,260,140038,2,0,P|48:216|44:152,1,90
92,96,140357,1,0,0:0:0:0:
172,60,140516,1,0,0:0:0:0:
348,104,140835,1,0,0:0:0:0:
428,144,140995,6,0,P|452:180|428:240,2,90
392,288,141474,2,0,P|336:284|288:352,1,135
276,296,141793,2,0,P|220:292|172:360,1,135
148,312,142112,1,0,0:0:0:0:
36,172,142431,6,0,L|22:83,1,90
104,44,142750,5,0,0:0:0:0:
192,32,142910,1,0,0:0:0:0:
172,120,143070,1,0,0:0:0:0:
260,108,143230,1,0,0:0:0:0:
236,196,143389,1,0,0:0:0:0:
324,184,143549,1,0,0:0:0:0:
392,128,143708,6,0,P|432:144|436:192,1,90
408,272,144027,2,0,P|380:336|304:336,1,135
320,300,144346,2,0,P|267:346|198:314,1,135
236,292,144665,1,0,0:0:0:0:
52,180,145144,6,0,L|32:64,1,90
116,44,145463,1,0,0:0:0:0:
200,80,145623,1,0,0:0:0:0:
243,90,145702,1,0,0:0:0:0:
288,90,145782,1,0,0:0:0:0:
332,79,145862,1,0,0:0:0:0:
371,58,145942,1,0,0:0:0:0:
432,124,146101,6,0,P|456:192|452:236,1,90
416,292,146421,1,0,0:0:0:0:
332,320,146580,2,0,L|168:300,1,135
172,340,146899,2,0,P|120:312|96:240,1,135
124,208,147218,1,0,0:0:0:0:
208,48,147538,6,0,P|256:36|316:36,1,90
440,144,147857,5,0,0:0:0:0:
384,216,148016,1,0,0:0:0:0:
400,340,148176,5,0,0:0:0:0:
456,268,148335,1,0,0:0:0:0:
312,352,148495,1,0,0:0:0:0:
312,352,148575,1,0,0:0:0:0:
312,352,148655,1,0,0:0:0:0:
240,296,148814,1,0,0:0:0:0:
240,296,148894,1,0,0:0:0:0:
240,296,148974,1,0,0:0:0:0:
164,344,149133,2,0,P|120:356|40:308,2,135
148,152,150250,6,0,P|120:116|180:120,1,135
316,236,151048,6,0,B|356:248|384:228|384:228|412:248|412:248|448:224|488:248,1,180
360,332,151527,2,0,P|320:340|260:328,1,90
224,100,151846,2,0,P|264:92|324:104,1,90
271,332,152165,2,0,P|231:340|171:328,1,90
135,100,152484,2,0,P|175:92|235:104,1,90
40,188,152804,5,0,0:0:0:0:
132,104,152963,1,0,0:0:0:0:
212,200,153123,1,0,0:0:0:0:
120,284,153282,1,0,0:0:0:0:
48,196,153442,5,0,0:0:0:0:
48,196,153522,1,0,0:0:0:0:
48,196,153601,2,0,B|24:168|28:116|40:92|40:92|80:72|96:24,1,180
312,60,154080,2,0,L|424:52,1,90
392,236,154399,2,0,L|504:228,1,90
248,160,154718,2,0,L|360:152,1,90
168,332,155038,2,0,L|280:324,1,90
72,72,155357,5,0,0:0:0:0:
196,56,155516,1,0,0:0:0:0:
168,236,155676,1,0,0:0:0:0:
44,252,155835,1,0,0:0:0:0:
196,56,155995,5,0,0:0:0:0:
304,124,156155,2,0,B|340:152|392:144|420:116|420:116|456:124|476:156,1,180
392,304,156633,1,0,0:0:0:0:
232,320,156793,1,0,0:0:0:0:
348,208,156952,1,0,0:0:0:0:
304,364,157112,1,0,0:0:0:0:
104,276,157272,5,0,0:0:0:0:
264,156,157431,1,0,0:0:0:0:
356,288,157591,1,0,0:0:0:0:
200,332,157750,1,0,0:0:0:0:
156,176,157910,1,0,0:0:0:0:
272,288,158070,1,0,0:0:0:0:
348,148,158229,2,0,P|368:96|368:52,1,90
208,40,158548,5,0,0:0:0:0:
208,40,158708,2,0,P|144:64|32:40,1,180
124,180,159187,2,0,P|116:228|72:268,1,90
92,352,159506,2,0,P|133:336|160:301,1,90
272,248,159825,2,0,P|264:296|220:336,1,90
400,352,160144,5,0,0:0:0:0:
402,348,160223,1,0,0:0:0:0:
405,345,160303,1,0,0:0:0:0:
408,341,160383,1,0,0:0:0:0:
411,338,160463,1,0,0:0:0:0:
414,335,160542,1,0,0:0:0:0:
417,331,160622,1,0,0:0:0:0:
420,328,160702,1,0,0:0:0:0:
423,325,160782,1,0,0:0:0:0:
426,321,160862,1,0,0:0:0:0:
429,318,160941,1,0,0:0:0:0:
432,315,161021,1,0,0:0:0:0:
435,311,161101,2,0,P|444:256|424:208,1,90
336,52,161421,5,0,0:0:0:0:
336,52,161500,1,0,0:0:0:0:
336,52,161580,1,0,0:0:0:0:
260,196,161740,5,0,0:0:0:0:
260,196,161819,1,0,0:0:0:0:
260,196,161899,1,0,0:0:0:0:
176,52,162059,5,0,0:0:0:0:
176,52,162138,1,0,0:0:0:0:
176,52,162218,1,0,0:0:0:0:
72,176,162378,6,0,L|20:184,2,45
160,292,162697,6,0,L|212:284,2,45
160,336,162937,1,0,0:0:0:0:
193,364,163016,1,0,0:0:0:0:
237,363,163096,1,0,0:0:0:0:
269,333,163176,1,0,0:0:0:0:
273,289,163256,1,0,0:0:0:0:
247,254,163335,1,0,0:0:0:0:
200,252,163415,5,0,0:0:0:0:
164,225,163494,1,0,0:0:0:0:
146,184,163574,1,0,0:0:0:0:
152,140,163654,1,0,0:0:0:0:
178,105,163734,1,0,0:0:0:0:
220,88,163813,1,0,0:0:0:0:
440,44,163974,5,0,0:0:0:0:
443,66,164053,1,0,0:0:0:0:
447,88,164133,1,0,0:0:0:0:
451,110,164213,1,0,0:0:0:0:
455,132,164293,1,0,0:0:0:0:
458,154,164372,1,0,0:0:0:0:
462,177,164452,1,0,0:0:0:0:
466,199,164532,1,0,0:0:0:0:
470,221,164612,5,0,0:0:0:0:
468,268,164692,1,0,0:0:0:0:
445,305,164771,1,0,0:0:0:0:
403,320,164851,1,0,0:0:0:0:
360,308,164931,2,0,P|316:300|270:316,1,90
188,344,165250,1,0,0:0:0:0:
104,312,165410,2,0,B|48:276|44:208|92:164|92:164|52:144|48:100|68:68,1,270
152,236,166048,6,0,P|208:232|248:188,1,90
236,124,166367,2,0,B|300:132|328:176|336:224|296:276|296:276|308:336|400:340|460:296|448:200,1,450
440,120,167325,1,0,0:0:0:0:
384,48,167484,1,0,0:0:0:0:
296,36,167644,1,0,0:0:0:0:
228,96,167804,6,0,L|180:100,3,45
116,168,168123,2,0,L|164:164,3,45
248,216,168442,2,0,L|200:220,3,45
120,280,168761,2,0,L|168:276,3,45
196,308,169080,1,0,0:0:0:0:
240,317,169159,1,0,0:0:0:0:
284,326,169239,1,0,0:0:0:0:
328,336,169319,1,0,0:0:0:0:
372,332,169399,5,0,0:0:0:0:
407,305,169478,1,0,0:0:0:0:
425,264,169558,1,0,0:0:0:0:
420,219,169638,1,0,0:0:0:0:
392,188,169718,5,0,0:0:0:0:
387,143,169797,1,0,0:0:0:0:
405,102,169877,1,0,0:0:0:0:
440,75,169957,1,0,0:0:0:0:
404,48,170038,1,0,0:0:0:0:
363,30,170117,1,0,0:0:0:0:
318,30,170197,1,0,0:0:0:0:
277,48,170277,1,0,0:0:0:0:
236,104,170357,6,0,L|168:96,3,45
292,168,170676,2,0,L|360:176,3,45
224,216,170995,2,0,L|156:208,3,45
284,268,171314,1,0,0:0:0:0:
156,296,171474,6,0,P|80:292|56:196,1,180
288,236,171952,2,0,P|324:276|324:320,1,90
244,352,172272,1,0,0:0:0:0:
244,352,172351,1,0,0:0:0:0:
244,352,172431,1,0,0:0:0:0:
326,310,172591,2,0,L|444:320,1,90
96,320,172910,5,0,0:0:0:0:
70,186,173070,1,0,0:0:0:0:
196,231,173229,1,0,0:0:0:0:
43,261,173389,1,0,0:0:0:0:
147,171,173549,1,0,0:0:0:0:
171,303,173708,1,0,0:0:0:0:
52,88,173867,1,0,0:0:0:0:
52,88,174027,1,0,0:0:0:0:
400,64,174506,6,0,L|420:232,1,135,2|0,0:0|0:0,0:0:0:0:
404,236,174825,1,2,0:0:0:0:
332,316,174984,1,0,0:0:0:0:
296,212,175144,1,0,0:0:0:0:
220,288,175304,2,0,L|128:304,1,90
52,232,175623,1,0,0:0:0:0:
196,160,175782,2,0,P|220:112|144:16,1,180
104,112,176261,1,0,0:0:0:0:
320,56,176421,5,0,0:0:0:0:
196,160,176580,2,0,P|172:208|248:304,1,180
280,136,177059,2,0,P|252:88|208:76,1,90
256,220,177378,2,0,P|311:219|343:187,1,90
432,64,177697,1,0,0:0:0:0:
420,264,177857,2,0,L|444:80,1,180
336,256,178335,6,0,L|320:356,1,90
256,220,178655,2,0,L|272:120,1,90
152,320,178974,1,0,0:0:0:0:
84,236,179133,2,0,L|36:224,1,45
112,216,179293,2,0,P|136:168|84:52,1,180
32,148,179772,1,0,0:0:0:0:
188,56,179931,6,0,B|236:36|280:56|280:56|320:76|372:52,1,180
436,136,180410,2,0,P|440:200|344:272,1,180
284,348,180889,2,0,P|248:288|252:252,1,90
216,168,181208,2,0,P|285:166|315:188,1,90
358,271,181527,1,0,0:0:0:0:
160,340,181687,2,0,P|76:320|40:220,1,180
124,48,182165,5,0,0:0:0:0:
156,208,182325,1,0,0:0:0:0:
48,88,182484,1,0,0:0:0:0:
208,56,182644,1,0,0:0:0:0:
84,160,182804,5,0,0:0:0:0:
244,132,182963,1,0,0:0:0:0:
260,292,183123,1,0,0:0:0:0:
164,164,183282,1,0,0:0:0:0:
288,60,183442,1,0,0:0:0:0:
336,212,183601,5,0,0:0:0:0:
336,212,183681,1,0,0:0:0:0:
336,212,183761,1,0,0:0:0:0:
180,252,183921,1,0,0:0:0:0:
192,92,184080,1,0,0:0:0:0:
352,124,184240,2,0,P|400:144|392:276,1,180
156,336,184718,5,0,0:0:0:0:
144,176,184878,1,0,0:0:0:0:
144,176,184958,1,0,0:0:0:0:
144,176,185038,1,0,0:0:0:0:
247,298,185197,1,0,0:0:0:0:
92,260,185356,1,0,0:0:0:0:
240,200,185516,1,0,0:0:0:0:
156,336,185676,1,0,0:0:0:0:
112,100,197644,5,0,0:0:0:0:
112,100,197724,1,0,0:0:0:0:
112,100,197804,1,0,0:0:0:0:
56,168,197963,1,0,0:0:0:0:
184,144,198123,1,0,0:0:0:0:
132,216,198282,2,0,P|128:280|192:328,1,144
292,304,198761,2,0,L|364:312,1,72
452,252,199080,5,0,0:0:0:0:
468,144,199240,1,0,0:0:0:0:
352,184,199399,1,0,0:0:0:0:
368,76,199559,2,0,P|300:48|224:56,1,144
72,120,200038,5,0,0:0:0:0:
60,228,200197,1,0,0:0:0:0:
156,180,200357,1,0,0:0:0:0:
72,120,200516,1,0,0:0:0:0:
152,280,200676,1,0,0:0:0:0:
260,268,200835,2,0,P|324:288|376:352,1,144
472,276,201314,2,0,L|496:200,1,72
441,59,201633,2,0,L|420:128,1,72
324,180,201952,5,0,0:0:0:0:
324,180,202112,2,0,P|256:168|216:92,1,144
128,48,202591,1,0,0:0:0:0:
56,128,202750,1,0,0:0:0:0:
60,144,202830,1,0,0:0:0:0:
64,160,202910,1,0,0:0:0:0:
84,268,203070,1,0,0:0:0:0:
180,320,203229,1,0,0:0:0:0:
188,212,203389,2,0,P|212:168|344:160,1,180
312,340,203867,5,0,0:0:0:0:
352,212,204027,1,0,0:0:0:0:
392,340,204187,1,0,0:0:0:0:
284,260,204346,5,0,0:0:0:0:
392,340,204506,1,0,0:0:0:0:
428,212,204665,1,0,0:0:0:0:
316,136,204825,5,0,0:0:0:0:
436,80,204984,1,0,0:0:0:0:
428,212,205144,1,0,0:0:0:0:
316,136,205304,5,0,0:0:0:0:
436,80,205463,1,0,0:0:0:0:
308,36,205623,1,0,0:0:0:0:
212,128,205782,5,0,0:0:0:0:
296,232,205942,1,0,0:0:0:0:
428,212,206101,1,0,0:0:0:0:
396,344,206261,6,0,L|472:356,12,45
260,324,207378,1,0,0:0:0:0:
237,326,207457,1,0,0:0:0:0:
215,328,207537,1,0,0:0:0:0:
192,330,207617,1,0,0:0:0:0:
170,332,207697,1,0,0:0:0:0:
64,252,208495,6,0,P|40:200|128:68,1,215.999993408203
111,72,208894,1,0,0:0:0:0:
111,72,208974,1,0,0:0:0:0:
204,160,209133,1,0,0:0:0:0:
300,72,209293,2,0,P|364:56|408:56,1,107.999996704102
464,172,209612,1,0,0:0:0:0:
464,172,209772,2,0,P|456:268|336:324,1,215.999993408203
212,288,210250,6,0,B|156:276|156:276|108:304,1,107.999996704102
40,192,210570,2,0,P|32:136|48:84,1,107.999996704102
168,32,210889,1,0,0:0:0:0:
168,32,211048,2,0,B|224:16|276:40|276:40|328:64|392:40,1,215.999993408203
487,204,211527,5,0,0:0:0:0:
321,258,211686,1,0,0:0:0:0:
424,117,211846,1,0,0:0:0:0:
424,292,212005,1,0,0:0:0:0:
321,150,212165,1,0,0:0:0:0:
424,292,212325,2,0,P|348:352|232:320,1,215.999993408203
136,248,212804,1,0,0:0:0:0:
136,248,213123,5,0,0:0:0:0:
48,140,213282,2,0,P|36:76|56:20,1,107.999996704102
172,132,213601,2,0,P|224:168|208:324,1,215.999993408203
100,348,214080,1,0,0:0:0:0:
28,240,214240,1,0,0:0:0:0:
172,132,214399,2,0,P|228:112|292:116,1,107.999996704102
396,164,214718,5,0,0:0:0:0:
396,164,214878,2,0,P|416:100|400:56,1,107.999996704102
280,232,215197,2,0,P|325:281|371:289,2,107.999996704102
288,104,215676,1,0,0:0:0:0:
160,84,215835,1,0,0:0:0:0:
140,212,215995,1,0,0:0:0:0:
196,328,216155,2,0,P|112:352|28:236,1,215.999993408203
244,232,216633,2,0,P|288:280|300:332,1,107.999996704102
132,240,216952,2,0,P|151:177|190:141,1,107.999996704102
432,72,217272,5,0,0:0:0:0:
436,76,217431,2,0,B|460:120|440:176|440:176|416:240|468:300,1,215.999993408203
352,128,217910,2,0,L|232:148,1,107.999996704102
160,256,218229,2,0,L|280:236,1,107.999996704102
72,344,218548,5,0,0:0:0:0:
28,224,218708,2,0,P|24:152|124:56,1,215.999993408203
240,104,219187,2,0,P|292:112|364:76,1,107.999996704102
452,164,219506,2,0,L|464:272,1,107.999996704102
356,340,219825,5,0,0:0:0:0:
356,340,219984,2,0,B|296:328|252:352|252:352|200:376|136:352,1,215.999993408203
56,204,220463,2,0,P|40:152|56:92,1,107.999996704102
200,168,220782,2,0,P|216:220|200:280,1,107.999996704102
156,72,221101,1,0,0:0:0:0:
284,40,221261,2,0,P|388:64|412:192,1,215.999993408203
422,298,221740,5,0,0:0:0:0:
339,184,221899,1,0,0:0:0:0:
472,228,222059,1,0,0:0:0:0:
339,271,222218,1,0,0:0:0:0:
422,158,222378,1,0,0:0:0:0:
422,298,222538,2,0,B|384:356|324:352|324:352|272:324|208:340,1,215.999993408203
100,352,223016,1,0,0:0:0:0:
100,352,223335,5,0,0:0:0:0:
68,224,223495,2,0,L|12:212,2,53.9999983520508
192,188,223814,2,0,P|260:148|244:8,1,215.999993408203
136,72,224293,5,0,0:0:0:0:
192,188,224452,1,0,0:0:0:0:
256,76,224612,1,0,0:0:0:0:
120,236,224772,5,0,0:0:0:0:
136,72,224931,1,0,0:0:0:0:
192,188,225091,1,0,0:0:0:0:
80,152,225250,1,0,0:0:0:0:
100,324,225410,5,0,0:0:0:0:
192,188,225570,1,0,0:0:0:0:
32,240,225729,1,0,0:0:0:0:
204,284,225889,5,0,0:0:0:0:
80,152,226048,1,0,0:0:0:0:
236,100,226208,1,0,0:0:0:0:
120,236,226367,5,0,0:0:0:0:
352,200,226527,2,0,L|408:192,3,53.9999983520508
312,272,226846,2,0,L|256:280,3,53.9999983520508
376,320,227165,2,0,L|432:312,3,53.9999983520508
320,372,227484,1,0,0:0:0:0:
136,352,227644,6,0,P|80:332|64:208,1,180
108,128,228442,6,0,L|216:120,1,107.999996704102
424,64,228921,6,0,B|448:104|424:144|424:144|444:168|444:168|416:200|448:248,1,180
372,312,229399,2,0,P|332:332|268:336,1,90
120,232,229718,2,0,P|160:212|224:208,1,90
300,212,230038,1,0,0:0:0:0:
176,328,230197,1,0,0:0:0:0:
300,212,230357,1,0,0:0:0:0:
72,312,230516,1,0,0:0:0:0:
24,196,230676,2,0,P|24:136|44:96,1,90
124,48,230995,1,0,0:0:0:0:
124,48,231155,1,0,0:0:0:0:
216,108,231314,5,0,0:0:0:0:
308,52,231474,2,0,B|368:40|408:68|408:68|392:112|424:164,1,180
428,316,231952,2,0,P|380:344|328:344,1,90
216,248,232272,1,0,0:0:0:0:
364,248,232431,1,0,0:0:0:0:
228,332,232591,1,0,0:0:0:0:
292,208,232750,1,0,0:0:0:0:
148,296,232910,2,0,P|104:304|40:296,1,90
24,200,233229,1,0,0:0:0:0:
92,116,233389,1,0,0:0:0:0:
92,116,233468,1,0,0:0:0:0:
92,116,233548,5,0,0:0:0:0:
188,68,233708,1,0,0:0:0:0:
180,176,233867,1,0,0:0:0:0:
276,124,234027,2,0,P|324:116|404:168,1,144
316,212,234506,1,0,0:0:0:0:
336,44,234665,2,0,P|372:48|420:80,1,72
464,128,234984,1,0,0:0:0:0:
484,212,235144,1,0,0:0:0:0:
448,292,235304,2,0,L|296:328,1,144
228,292,235782,5,0,0:0:0:0:
164,352,235942,1,0,0:0:0:0:
164,352,236022,1,0,0:0:0:0:
164,352,236101,1,0,0:0:0:0:
80,324,236261,1,0,0:0:0:0:
72,236,236421,1,0,0:0:0:0:
20,168,236580,2,0,P|80:152|152:208,1,144
260,56,237059,5,0,0:0:0:0:
304,132,237218,1,0,0:0:0:0:
216,132,237378,1,0,0:0:0:0:
260,56,237538,1,0,0:0:0:0:
348,60,237697,1,0,0:0:0:0:
383,61,237776,1,0,0:0:0:0:
419,63,237857,2,0,P|456:120|424:204,1,144
352,324,238335,6,0,P|300:332|252:320,1,72
160,232,238655,2,0,P|204:208|244:208,1,72
308,236,238974,1,0,0:0:0:0:
104,332,239133,2,0,P|48:276|60:172,1,180
156,68,239612,6,0,P|236:52|268:56,1,90
392,144,239931,1,0,0:0:0:0:
224,188,240091,1,0,0:0:0:0:
344,68,240250,1,0,0:0:0:0:
304,296,240410,1,0,0:0:0:0:
224,188,240570,2,0,P|172:208|144:236,1,90
304,296,240889,2,0,P|352:300|408:280,1,90
332,200,241208,1,0,0:0:0:0:
204,328,241367,1,0,0:0:0:0:
96,328,241527,5,0,0:0:0:0:
48,232,241687,2,0,B|36:188|56:160|56:160|36:128|36:128|64:84|48:40,1,180
232,96,242165,1,0,0:0:0:0:
140,196,242325,1,0,0:0:0:0:
152,64,242484,1,0,0:0:0:0:
224,180,242644,1,0,0:0:0:0:
232,96,242804,5,0,0:0:0:0:
140,196,242963,1,0,0:0:0:0:
92,128,243123,1,0,0:0:0:0:
224,180,243282,1,0,0:0:0:0:
200,284,243442,5,0,0:0:0:0:
292,340,243601,1,0,0:0:0:0:
317,349,243680,1,0,0:0:0:0:
343,353,243760,1,0,0:0:0:0:
370,351,243840,1,0,0:0:0:0:
396,343,243920,1,0,0:0:0:0:
419,329,243999,1,0,0:0:0:0:
439,311,244079,1,0,0:0:0:0:
452,292,244160,1,0,0:0:0:0:
464,272,244240,2,0,L|472:112,1,144
372,48,244718,5,0,0:0:0:0:
260,128,244878,1,0,0:0:0:0:
388,136,245038,1,0,0:0:0:0:
280,40,245197,1,0,0:0:0:0:
160,112,245357,1,0,0:0:0:0:
160,112,245516,2,0,P|68:116|32:72,1,144
8,200,245995,2,0,L|20:272,1,72
44,308,246234,1,0,0:0:0:0:
68,344,246314,2,0,L|148:344,1,72
212,296,246633,1,0,0:0:0:0:
288,340,246793,2,0,B|328:352|368:352|368:352|384:324|416:288,1,144
472,172,247272,5,0,0:0:0:0:
308,216,247431,1,0,0:0:0:0:
308,216,247511,1,0,0:0:0:0:
308,216,247591,1,0,0:0:0:0:
396,108,247750,1,0,0:0:0:0:
404,301,247910,1,0,0:0:0:0:
298,99,248070,2,0,B|222:87|222:87|150:115,1,144
159,251,248548,5,0,0:0:0:0:
76,137,248708,1,0,0:0:0:0:
209,181,248867,1,0,0:0:0:0:
76,224,249027,1,0,0:0:0:0:
159,111,249187,1,0,0:0:0:0:
159,251,249346,1,0,0:0:0:0:
160,112,249506,5,0,0:0:0:0:
234,315,249665,1,0,0:0:0:0:
373,148,249825,1,0,0:0:0:0:
138,235,249984,5,0,0:0:0:0:
277,68,250144,1,0,0:0:0:0:
352,272,250303,1,0,0:0:0:0:
256,192,250463,5,0,0:0:0:0:
256,192,250623,1,0,0:0:0:0:
256,192,250782,12,0,252059,0:0:0:0:
