osu file format v14

[General]
AudioFilename: Dimension tripper!!!!.mp3
AudioLeadIn: 0
PreviewTime: 119772
Countdown: 0
SampleSet: Soft
StackLeniency: 0.7
Mode: 0
LetterboxInBreaks: 1
WidescreenStoryboard: 1

[Editor]
Bookmarks: 8548,39187
DistanceSpacing: 0.7
BeatDivisor: 4
GridSize: 4
TimelineZoom: 2.564

[Metadata]
Title:Dimension tripper!!!!
TitleUnicode:Dimension tripper!!!!
Artist:nao
ArtistUnicode:nao
Creator:AtHeoN
Version:leth's Extra
Source:Choujigen Game Neptune
Tags:Hyperdimension Neptunia the animation compile heart 5pb
BeatmapID:738370
BeatmapSetID:325512

[Difficulty]
HPDrainRate:6
CircleSize:4
OverallDifficulty:8
ApproachRate:9
SliderMultiplier:1.85
SliderTickRate:1

[Events]
//Background and Video events
0,0,"BG.jpg",0,0
//Break Periods
//Storyboard Layer 0 (Background)
//Storyboard Layer 1 (Fail)
//Storyboard Layer 2 (Pass)
//Storyboard Layer 3 (Foreground)
//Storyboard Sound Samples

[TimingPoints]
570,319.148936170213,4,2,1,70,1,0
570,-125,4,2,1,60,0,0
5038,-83.3333333333333,4,2,1,70,0,0
5516,-76.9230769230769,4,2,1,70,0,0
26740,-83.3333333333333,4,2,1,70,0,0
27218,-125,4,2,1,70,0,0
28176,-166.666666666667,4,2,1,70,0,0
28655,-100,4,2,1,70,0,0
39187,-100,4,2,1,70,0,0
43335,-83.3333333333333,4,2,1,70,0,0
43814,-100,4,2,1,70,0,0
58016,-66.6666666666667,4,2,1,70,0,0
58335,-125,4,2,1,70,0,0
58655,-100,4,2,1,70,0,0
59133,-90.9090909090909,4,2,1,80,0,1
75729,-83.3333333333333,4,2,1,80,0,1
77006,-90.9090909090909,4,2,1,80,0,1
78282,-100,4,2,1,70,0,0
88974,-166.666666666667,4,2,1,70,0,0
89931,-100,4,2,1,70,0,0
97591,-90.9090909090909,4,2,1,70,0,0
98389,-100,4,2,1,70,0,0
99187,-125,4,2,1,70,0,0
99506,-100,4,2,1,70,0,0
99825,-125,4,2,1,70,0,0
100144,-100,4,2,1,70,0,0
100707,-100,4,2,1,70,0,0
104612,-83.3333333333333,4,2,1,70,0,0
105091,-100,4,2,1,70,0,0
119293,-66.6666666666667,4,2,1,70,0,0
119612,-125,4,2,1,70,0,0
120410,-90.9090909090909,4,2,1,80,0,1
137006,-83.3333333333333,4,2,1,80,0,1
138282,-90.9090909090909,4,2,1,80,0,1
139559,-100,4,2,1,70,0,0
150250,-125,4,2,1,70,0,0
151048,-100,4,2,1,70,0,0
168921,-90.9090909090909,4,2,1,70,0,0
170357,-83.3333333333333,4,2,1,70,0,0
171314,-100,4,2,1,70,0,0
182644,-83.3333333333333,4,2,1,70,0,0
183123,-71.4285714285714,4,2,1,70,0,0
183601,-62.5,4,2,1,70,0,0
184240,-100,4,2,1,70,0,0
184559,-66.6666666666667,4,2,1,70,0,0
185197,-50,4,2,1,70,0,0
185676,-200,4,2,1,60,0,0
188229,-166.666666666667,4,2,1,40,0,0
197644,-100,4,2,1,70,0,0
208016,-66.6666666666667,4,2,1,70,0,0
208495,-83.3333333333333,4,2,1,80,0,1
225091,-76.9230769230769,4,2,1,80,0,1
226367,-83.3333333333333,4,2,1,80,0,1
227644,-100,4,2,1,70,0,0
228921,-100,4,2,1,70,0,0
249506,-66.6666666666667,4,2,1,70,0,0
250463,-50,4,2,1,70,0,0

[Colours]
Combo1 : 128,0,255
Combo2 : 255,213,128
Combo3 : 242,121,97
Combo4 : 255,140,179

[HitObjects]
78,202,570,6,0,P|147:178|216:223,1,148
139,274,1048,1,0,0:0:0:0:
317,232,1208,2,0,L|311:127,1,74
188,141,1527,2,0,L|194:36,1,74
397,279,1846,6,0,P|331:326|248:293,1,148
223,160,2325,1,0,0:0:0:0:
437,131,2484,2,0,L|364:124,1,74
216,178,2804,2,0,L|289:171,1,74
160,253,3123,2,0,P|121:179|148:112,1,148
274,84,3601,1,0,0:0:0:0:
298,286,3761,2,0,L|304:203,1,74
190,338,4080,2,0,L|184:255,1,74
256,97,4399,2,0,P|326:126|410:83,1,148
417,247,4878,1,0,0:0:0:0:
174,156,5038,6,0,L|185:200,1,27.7499991531372
257,222,5197,2,0,L|262:263,1,27.7499991531372
344,295,5357,2,0,L|344:346,1,27.7499991531372
112,339,5516,6,0,P|169:326|259:361,1,120.249994495392
180,182,5835,1,0,0:0:0:0:
429,128,5995,2,0,P|372:141|282:106,1,120.249994495392
150,172,6314,1,0,0:0:0:0:
150,172,6394,1,0,0:0:0:0:
150,172,6474,2,0,L|144:278,1,60.1249972476961
246,318,6633,2,0,L|242:257,1,60.1249972476961
85,302,6793,1,0,0:0:0:0:
261,66,6952,1,0,0:0:0:0:
261,66,7032,1,0,0:0:0:0:
261,66,7112,2,0,P|243:129|287:207,1,120.249994495392
413,145,7431,1,0,0:0:0:0:
327,278,7591,2,0,B|295:253|295:253|256:273|191:242,1,120.249994495392
140,322,7910,1,0,0:0:0:0:
183,153,8070,2,0,P|200:96|178:41,1,120.249994495392
143,65,8309,1,0,0:0:0:0:
117,100,8389,2,0,P|99:144|110:193,1,60.1249972476961
198,308,8548,2,0,P|216:264|205:215,1,60.1249972476961
137,256,8708,1,0,0:0:0:0:
422,211,8867,1,0,0:0:0:0:
422,211,9027,2,0,B|371:220|371:220|288:201,1,120.249994495392
161,136,9346,2,0,L|83:143,1,60.1249972476961
210,70,9506,2,0,P|241:137|203:211,1,120.249994495392
189,205,9745,1,0,0:0:0:0:
189,205,9825,1,0,0:0:0:0:
376,300,9984,2,0,P|316:285|229:315,1,120.249994495392
239,341,10224,1,0,0:0:0:0:
239,341,10304,1,0,0:0:0:0:
341,136,10463,1,0,0:0:0:0:
341,136,10623,2,0,P|401:151|488:121,1,120.249994495392
457,175,10862,1,0,0:0:0:0:
456,211,10942,1,0,0:0:0:0:
454,247,11022,1,0,0:0:0:0:
452,282,11101,2,0,L|457:369,1,60.1249972476961
318,267,11261,2,0,L|323:180,1,60.1249972476961
380,323,11421,1,0,0:0:0:0:
380,323,11580,2,0,P|317:348|238:284,1,120.249994495392
170,157,11899,2,0,B|162:207|162:207|174:290,1,120.249994495392
287,306,12218,1,0,0:0:0:0:
140,361,12378,1,0,0:0:0:0:
252,184,12538,1,0,0:0:0:0:
255,142,12617,1,0,0:0:0:0:
237,103,12697,1,0,0:0:0:0:
201,79,12777,1,0,0:0:0:0:
156,84,12857,2,0,B|58:98|58:98|107:63,1,120.249994495392
133,249,13176,2,0,B|46:263,1,60.1249972476961
221,329,13335,1,0,0:0:0:0:
221,329,13415,1,0,0:0:0:0:
221,329,13495,2,0,B|175:333|175:333|150:328|150:328|101:334,1,120.249994495392
