osu file format v14

[General]
AudioFilename: Dimension tripper!!!!.mp3
AudioLeadIn: 0
PreviewTime: 119772
Countdown: 0
SampleSet: Soft
StackLeniency: 0.7
Mode: 0
LetterboxInBreaks: 1
WidescreenStoryboard: 1

[Editor]
DistanceSpacing: 1.2
BeatDivisor: 4
GridSize: 4
TimelineZoom: 1.664

[Metadata]
Title:Dimension tripper!!!!
TitleUnicode:Dimension tripper!!!!
Artist:nao
ArtistUnicode:nao
Creator:AtHeoN
Version:SakiZ's Insane
Source:Choujigen Game Neptune
Tags:Hyperdimension Neptunia the animation compile heart 5pb
BeatmapID:728016
BeatmapSetID:325512

[Difficulty]
HPDrainRate:6
CircleSize:4
OverallDifficulty:7.5
ApproachRate:9
SliderMultiplier:1.5
SliderTickRate:1

[Events]
//Background and Video events
0,0,"BG.jpg",0,0
//Break Periods
2,79759,88055
2,141035,149650
2,188429,197044
//Storyboard Layer 0 (Background)
//Storyboard Layer 1 (Fail)
//Storyboard Layer 2 (Pass)
//Storyboard Layer 3 (Foreground)
//Storyboard Sound Samples

[TimingPoints]
570,319.148936170213,4,2,1,70,1,0
4399,-100,4,2,1,5,0,0
5038,-100,4,2,1,100,0,0
25942,-133.333333333333,4,2,1,100,0,0
27857,-100,4,2,1,100,0,0
59133,-100,4,2,1,80,0,1
78282,-133.333333333333,4,2,1,70,0,0
79240,-100,4,2,1,70,0,0
90250,-133.333333333333,4,2,1,70,0,0
97591,-200,4,2,1,70,0,0
98708,-100,4,2,1,70,0,0
120410,-100,4,2,1,80,0,1
139559,-133.333333333333,4,2,1,70,0,0
140516,-100,4,2,1,70,0,0
150250,-80,4,2,1,70,0,0
151048,-100,4,2,1,70,0,0
160144,-100,4,2,1,50,0,0
163814,-100,4,2,1,70,0,0
167804,-100,4,2,1,50,0,0
171474,-100,4,2,1,70,0,0
174027,-133.333333333333,4,2,1,80,0,0
174506,-100,4,2,1,80,0,0
188229,-100,4,2,1,5,0,0
197644,-100,4,2,1,70,0,0
208016,-133.333333333333,4,2,1,80,0,0
208495,-100,4,2,1,80,0,1
227644,-100,4,2,1,70,0,0
231474,-100,4,2,1,5,0,0

[Colours]
Combo1 : 128,0,255
Combo2 : 255,213,128
Combo3 : 242,121,97
Combo4 : 255,140,179

[HitObjects]
256,192,570,12,0,4399,0:0:0:0:
196,164,5038,5,2,0:0:0:0:
188,72,5197,1,2,0:0:0:0:
280,64,5357,1,2,0:0:0:0:
288,156,5516,2,0,L|304:308,1,150,2|0,0:0|0:0,0:0:0:0:
400,344,5995,2,0,P|400:270|448:215,1,150
456,112,6474,2,0,L|312:64,1,150
108,112,6952,5,0,0:0:0:0:
224,200,7112,1,0,0:0:0:0:
244,60,7272,1,0,0:0:0:0:
124,184,7431,1,0,0:0:0:0:
248,304,7591,1,0,0:0:0:0:
368,180,7750,1,0,0:0:0:0:
372,188,7830,1,0,0:0:0:0:
376,196,7910,1,0,0:0:0:0:
284,304,8070,6,0,P|208:320|132:272,1,150,2|0,0:0|0:0,0:0:0:0:
168,108,8548,2,0,P|244:92|320:140,1,150
160,204,9027,2,0,B|96:160|96:160|72:80,1,150
288,48,9506,6,0,P|324:36|364:40,1,75
404,180,9825,2,0,P|364:192|328:188,1,75
112,188,10144,1,0,0:0:0:0:
220,80,10304,1,0,0:0:0:0:
220,80,10383,1,0,0:0:0:0:
220,80,10463,1,0,0:0:0:0:
220,80,10543,1,0,0:0:0:0:
220,80,10623,6,0,P|208:144|264:200,1,150,2|0,0:0|0:0,0:0:0:0:
352,228,11101,2,0,P|304:284|212:276,1,150
96,188,11580,2,0,L|188:156,1,75
400,152,11899,6,0,L|256:212,1,150,2|0,0:0|0:0,0:0:0:0:
44,224,12378,1,0,0:0:0:0:
148,64,12538,1,0,0:0:0:0:
148,64,12617,1,0,0:0:0:0:
148,64,12697,2,0,P|188:80|240:84,1,75
428,180,13016,1,0,0:0:0:0:
428,180,13176,6,0,P|372:280|264:268,1,225,2|0,0:0|0:0,0:0:0:0:
96,192,13814,2,0,P|100:152|120:112,1,75
348,116,14133,2,0,P|344:156|324:196,1,75
148,276,14452,6,0,P|192:168|168:124,1,150,2|0,0:0|0:0,0:0:0:0:
112,92,14931,2,0,P|168:56|200:60,1,75
188,56,15171,1,0,0:0:0:0:
200,60,15250,1,0,0:0:0:0:
388,148,15410,1,0,0:0:0:0:
212,244,15570,1,0,0:0:0:0:
292,36,15729,6,0,P|372:68|448:60,1,150,2|0,0:0|0:0,0:0:0:0:
480,148,16208,2,0,P|436:192|416:284,1,150
308,292,16687,2,0,L|224:156,1,150
108,72,17165,5,0,0:0:0:0:
160,220,17325,1,0,0:0:0:0:
264,96,17484,1,0,0:0:0:0:
100,152,17644,1,0,0:0:0:0:
156,316,17804,1,0,0:0:0:0:
320,260,17963,1,0,0:0:0:0:
328,268,18043,1,0,0:0:0:0:
336,276,18123,1,0,0:0:0:0:
200,260,18282,6,0,P|160:220|172:108,1,150,2|0,0:0|0:0,0:0:0:0:
352,80,18761,2,0,P|392:120|380:232,1,150
224,84,19240,2,0,B|156:64|156:64|84:100,1,150
224,224,19718,6,0,P|252:248|312:268,1,75
415,113,20038,2,0,P|384:88|327:69,1,75
132,96,20357,1,0,0:0:0:0:
260,208,20516,1,0,0:0:0:0:
260,208,20596,1,0,0:0:0:0:
260,208,20676,1,0,0:0:0:0:
260,208,20756,1,0,0:0:0:0:
260,208,20835,6,0,P|272:136|224:80,1,150,2|0,0:0|0:0,0:0:0:0:
100,248,21314,2,0,P|112:296|192:352,1,150
380,240,21793,2,0,P|404:204|440:180,1,75
268,64,22112,6,0,P|176:76|144:128,1,150,2|0,0:0|0:0,0:0:0:0:
256,220,22591,2,0,P|328:184|340:160,1,75
328,180,22830,1,0,0:0:0:0:
332,168,22910,1,0,0:0:0:0:
428,184,23070,1,0,0:0:0:0:
300,328,23229,1,0,0:0:0:0:
240,148,23389,6,0,P|192:92|112:76,1,150,2|0,0:0|0:0,0:0:0:0:
124,204,23867,2,0,P|144:240|188:264,2,75
188,72,24346,1,0,0:0:0:0:
324,76,24506,1,0,0:0:0:0:
336,80,24585,1,0,0:0:0:0:
344,88,24665,6,0,P|384:168|340:244,1,150,2|0,0:0|0:0,0:0:0:0:
220,228,25144,2,0,P|244:192|280:168,1,75
96,232,25463,2,0,P|96:192|124:148,1,75
160,40,25782,1,0,0:0:0:0:
336,96,25942,6,0,P|381:206|272:176,1,281.250010728836,2|0,0:0|0:0,0:0:0:0:
240,96,26899,5,4,0:0:0:0:
440,332,27218,1,4,0:0:0:0:
440,332,27857,6,0,L|488:304,2,37.5
436,328,28176,2,0,B|392:288|392:288|344:312|304:276|304:276|236:296,1,225
96,244,28814,5,0,0:0:0:0:
200,156,28974,2,0,P|232:112|228:76,1,75
92,172,29293,2,0,P|116:228|216:264,1,150
288,192,29772,1,0,0:0:0:0:
384,268,29931,2,0,P|443:244|459:220,1,75
332,88,30250,2,0,P|273:112|257:136,1,75
220,232,30570,6,0,P|184:272|64:272,1,150
120,176,31048,1,0,0:0:0:0:
204,92,31208,2,0,P|284:116|352:92,1,150
460,132,31687,2,0,B|432:172|432:172|452:228|452:228|416:280,1,150
260,292,32165,5,0,0:0:0:0:
352,324,32325,1,0,0:0:0:0:
252,204,32484,1,0,0:0:0:0:
188,340,32644,2,0,P|148:356|104:356,1,75
124,176,32963,2,0,P|160:160|208:160,1,75
344,116,33282,2,0,L|328:72,4,37.5,2|0|0|0|0,0:0|0:0|0:0|0:0|0:0,0:0:0:0:
352,140,33681,1,0,0:0:0:0:
360,164,33761,6,0,P|304:240|256:268,1,150
208,108,34240,1,0,0:0:0:0:
208,108,34399,2,0,P|144:68|72:100,1,150
64,268,34878,2,0,P|128:308|200:276,1,150
280,148,35357,1,0,0:0:0:0:
376,292,35516,2,0,P|352:324|308:348,1,75
136,224,35835,2,0,P|160:192|204:168,1,75
308,76,36155,1,0,0:0:0:0:
256,64,36314,6,0,L|288:32,3,37.5,2|0|2|0,0:0|0:0|0:0|0:0,0:0:0:0:
192,76,36633,2,0,L|196:36,3,37.5
120,112,36952,2,0,L|96:72,3,37.5
76,192,37272,2,0,L|24:160,3,37.5
92,260,37591,5,2,0:0:0:0:
199,183,37750,1,2,0:0:0:0:
216,316,37910,2,0,P|280:336|360:292,1,150,0|2,0:0|0:0,0:0:0:0:
264,184,38389,1,2,0:0:0:0:
408,152,38548,2,0,P|436:100|372:104,1,150
284,56,39027,6,0,P|240:76|200:72,1,75,0|8,0:0|0:0,0:0:0:0:
48,120,39346,1,0,0:0:0:0:
48,120,39426,1,0,0:0:0:0:
48,120,39506,2,0,P|36:172|64:216,1,75
252,176,39825,2,0,P|264:228|236:272,1,75,8|0,0:0|0:0,0:0:0:0:
368,272,40144,6,0,L|420:116,1,150,0|8,0:0|0:0,0:0:0:0:
252,76,40623,2,0,P|232:116|220:176,1,75
232,296,40942,1,0,0:0:0:0:
312,180,41101,1,8,0:0:0:0:
176,220,41261,1,0,0:0:0:0:
324,272,41421,6,0,P|368:272|440:180,1,150,0|8,0:0|0:0,0:0:0:0:
296,76,41899,2,0,P|252:76|180:168,1,150
384,116,42378,2,0,P|424:88|440:52,1,75,8|0,0:0|0:0,0:0:0:0:
324,272,42697,2,0,P|356:288|408:284,1,75
164,288,43016,1,8,0:0:0:0:
76,156,43176,1,0,0:0:0:0:
80,148,43256,1,0,0:0:0:0:
84,140,43335,6,0,P|116:108|164:108,1,75
152,108,43814,2,0,P|256:164|364:144,1,225,0|8,0:0|0:0,0:0:0:0:
312,72,44452,1,0,0:0:0:0:
268,148,44612,2,0,P|252:204|280:308,1,150,0|8,0:0|0:0,0:0:0:0:
184,340,45091,6,0,P|148:236|104:212,1,150
64,136,45570,2,0,P|84:96|112:76,1,75,8|0,0:0|0:0,0:0:0:0:
192,112,45889,2,0,P|232:108|264:84,1,75
380,92,46208,1,8,0:0:0:0:
316,176,46367,6,0,P|292:280|320:328,1,150
200,192,46846,2,0,P|232:88|280:60,1,150,8|0,0:0|0:0,0:0:0:0:
444,92,47325,1,0,0:0:0:0:
344,224,47484,1,8,0:0:0:0:
352,56,47644,1,0,0:0:0:0:
456,212,47804,5,2,0:0:0:0:
460,216,47963,1,2,0:0:0:0:
204,96,48282,6,0,L|268:136,1,75,2|0,0:0|0:0,0:0:0:0:
228,228,48601,2,0,P|160:220|64:268,1,150
220,308,49080,6,0,P|288:284|304:260,1,75,8|0,0:0|0:0,0:0:0:0:
360,192,49399,2,0,P|336:124|312:108,1,75
244,52,49718,2,0,P|176:76|160:100,1,75,8|0,0:0|0:0,0:0:0:0:
104,168,50038,2,0,P|128:236|152:252,1,75
136,240,50516,1,0,0:0:0:0:
212,252,50676,2,0,P|288:228|364:280,1,150,8|0,0:0|0:0,0:0:0:0:
412,200,51155,1,0,0:0:0:0:
412,200,51314,1,0,0:0:0:0:
360,120,51474,6,0,P|296:100|236:40,1,150,8|0,0:0|0:0,0:0:0:0:
136,164,51952,1,0,0:0:0:0:
216,40,52112,1,0,0:0:0:0:
160,172,52272,1,0,0:0:0:0:
192,36,52431,1,0,0:0:0:0:
184,180,52591,1,8,0:0:0:0:
312,104,52750,6,0,P|360:120|412:200,1,150
280,348,53229,2,0,P|236:340|208:308,1,75
240,176,53548,2,0,P|276:184|312:216,1,75
144,236,53867,1,8,0:0:0:0:
104,132,54027,1,0,0:0:0:0:
108,120,54107,1,0,0:0:0:0:
112,108,54187,6,0,B|132:56|132:56|236:36,1,150
380,80,54665,1,0,0:0:0:0:
380,80,54825,2,0,P|336:136|340:220,1,150,8|0,0:0|0:0,0:0:0:0:
396,304,55304,2,0,P|440:248|436:164,1,150
296,132,55782,2,0,P|236:144|196:120,1,75,8|0,0:0|0:0,0:0:0:0:
252,68,56101,1,0,0:0:0:0:
252,68,56261,2,0,L|272:252,1,150
256,192,56660,12,0,58016,0:0:0:0:
96,212,58655,6,0,B|140:192|140:192|148:140|196:132|196:132|204:64,1,187.5
248,36,59133,6,0,P|304:116|372:128,1,150,2|0,0:0|0:0,0:0:0:0:
460,220,59612,2,0,P|440:256|388:292,1,75
212,204,59931,2,0,P|232:168|284:132,1,75
408,72,60250,1,0,0:0:0:0:
408,72,60410,6,0,B|384:120|384:120|388:160|388:160|352:232,1,150,2|0,0:0|0:0,0:0:0:0:
328,312,60889,2,0,P|244:304|192:252,1,150
196,148,61367,1,0,0:0:0:0:
292,208,61527,1,0,0:0:0:0:
100,248,61687,6,0,P|56:184|84:92,1,150,2|0,0:0|0:0,0:0:0:0:
156,44,62165,2,0,P|236:72|312:64,1,150
400,56,62644,2,0,B|436:56|464:56|464:56|452:96|452:104,1,112.5
448,132,62963,6,0,P|440:216|452:296,1,150,2|0,0:0|0:0,0:0:0:0:
352,332,63442,1,0,0:0:0:0:
192,264,63601,1,0,0:0:0:0:
352,228,63761,1,0,0:0:0:0:
248,352,63921,1,0,0:0:0:0:
260,188,64080,1,0,0:0:0:0:
248,352,64240,6,0,P|192:264|128:256,1,150,2|0,0:0|0:0,0:0:0:0:
112,148,64718,2,0,P|152:120|180:116,1,75
392,140,65038,2,0,P|360:164|324:172,1,75
200,340,65357,1,0,0:0:0:0:
200,340,65516,6,0,L|342:278,1,150,2|0,0:0|0:0,0:0:0:0:
448,140,65995,2,0,P|476:172|484:228,1,75
324,160,66314,2,0,P|296:128|288:72,1,75
160,24,66633,1,0,0:0:0:0:
132,176,66793,6,0,P|200:244|200:308,1,150,2|0,0:0|0:0,0:0:0:0:
112,304,67272,2,0,P|188:264|324:280,1,225
444,328,67910,1,0,0:0:0:0:
420,216,68070,2,0,P|400:168|424:76,1,150
320,88,68548,2,0,P|272:164|200:188,1,150
76,156,69027,1,0,0:0:0:0:
112,288,69187,1,0,0:0:0:0:
112,288,69266,1,0,0:0:0:0:
112,288,69346,6,0,P|188:336|252:320,1,150,2|0,0:0|0:0,0:0:0:0:
352,264,69825,2,0,P|376:224|384:176,1,75
280,76,70144,2,0,P|260:108|248:164,1,75
244,308,70463,1,0,0:0:0:0:
184,164,70623,6,0,P|148:112|68:68,1,150,2|0,0:0|0:0,0:0:0:0:
124,228,71101,2,0,P|176:252|224:244,1,75
324,236,71421,2,0,P|380:216|408:176,1,75
376,80,71740,1,0,0:0:0:0:
372,76,71899,6,0,P|284:80|228:124,1,150,2|0,0:0|0:0,0:0:0:0:
176,228,72378,2,0,P|216:276|268:224,1,150
168,152,72857,1,0,0:0:0:0:
104,196,73016,1,0,0:0:0:0:
112,272,73176,6,0,P|220:348|264:340,1,150,2|0,0:0|0:0,0:0:0:0:
320,316,73655,1,0,0:0:0:0:
296,160,73814,1,0,0:0:0:0:
400,264,73974,1,0,0:0:0:0:
224,216,74133,2,0,L|176:264,2,37.5,2|0|0,0:0|0:0|0:0,0:0:0:0:
296,160,74452,6,0,P|364:120|436:112,1,150
280,72,74931,2,0,P|208:96|124:80,1,150
120,192,75410,1,0,0:0:0:0:
120,192,75490,1,0,0:0:0:0:
120,192,75570,1,0,0:0:0:0:
124,196,75649,1,0,0:0:0:0:
124,196,75729,6,0,P|180:204|220:232,1,75,2|8,0:0|0:0,0:0:0:0:
372,116,76048,2,0,P|316:108|280:84,1,75,0|8,0:0|0:0,0:0:0:0:
248,256,76367,2,0,P|292:272|348:276,1,75,0|8,0:0|0:0,0:0:0:0:
244,64,76687,2,0,P|200:48|144:44,1,75,0|8,0:0|0:0,0:0:0:0:
319,276,77006,1,0,0:0:0:0:
319,276,77165,6,0,L|283:320,3,37.5,8|0|0|0,0:0|0:0|0:0|0:0,0:0:0:0:
344,192,77484,2,0,L|323:138,3,37.5,8|0|0|0,0:0|0:0|0:0|0:0,0:0:0:0:
404,255,77804,2,0,L|460:264,4,37.5,8|0|0|0|0,0:0|0:0|0:0|0:0|0:0,0:0:0:0:
224,276,78282,2,0,P|156:200|216:220,1,281.250010728836,2|0,0:0|0:0,0:0:0:0:
276,224,79240,6,0,P|340:204|384:136,1,150,0|4,0:0|0:0,0:0:0:0:
256,192,88655,12,0,89931,0:0:0:0:
128,148,90250,6,0,P|172:112|248:112,1,112.500004291535,2|0,0:0|0:0,0:0:0:0:
208,200,90729,2,0,L|324:220,1,112.500004291535,2|0,0:0|0:0,0:0:0:0:
420,236,91208,5,0,0:0:0:0:
328,56,91527,1,0,0:0:0:0:
200,208,91846,1,0,0:0:0:0:
424,152,92165,1,0,0:0:0:0:
188,68,92484,2,8,L|120:108,1,56.2500021457673
56,144,92804,5,0,0:0:0:0:
172,300,93123,1,0,0:0:0:0:
272,132,93442,1,0,0:0:0:0:
148,148,93601,2,0,L|160:216,1,56.2500021457673,2|0,0:0|0:0,0:0:0:0:
248,224,93921,2,2,L|284:284,1,56.2500021457673
372,256,94240,2,2,L|424:292,1,56.2500021457673
468,196,94559,5,2,0:0:0:0:
464,188,94639,1,2,0:0:0:0:
460,180,94718,1,2,0:0:0:0:
420,68,94878,1,0,0:0:0:0:
328,164,95038,2,8,L|256:192,1,56.2500021457673
172,104,95357,2,0,L|244:76,1,56.2500021457673,0|8,0:0|0:0,0:0:0:0:
320,44,95676,5,0,0:0:0:0:
384,236,95995,1,0,0:0:0:0:
176,200,96314,1,0,0:0:0:0:
400,140,96633,1,0,0:0:0:0:
468,204,96793,2,0,P|472:260|464:280,1,56.2500021457673,8|0,0:0|0:0,0:0:0:0:
300,268,97112,2,0,P|296:212|304:192,1,56.2500021457673,8|0,0:0|0:0,0:0:0:0:
356,100,97431,1,0,0:0:0:0:
228,132,97591,6,0,B|220:144|220:144|140:100|92:200|92:200|48:156,1,225.000008583069,2|0,0:0|0:0,0:0:0:0:
108,64,98708,6,0,L|64:92,4,37.5,2|0|0|0|0,0:0|0:0|0:0|0:0|0:0,0:0:0:0:
132,52,99107,1,0,0:0:0:0:
160,56,99187,2,0,P|212:72|312:40,1,150,2|0,0:0|0:0,0:0:0:0:
324,44,99585,1,0,0:0:0:0:
348,44,99665,1,0,0:0:0:0:
372,52,99745,1,0,0:0:0:0:
392,64,99825,2,0,P|372:144|400:208,1,150,2|0,0:0|0:0,0:0:0:0:
468,248,100304,5,0,0:0:0:0:
392,292,100463,2,0,P|328:316|300:308,1,75,8|0,0:0|0:0,0:0:0:0:
232,200,100782,2,0,P|296:176|324:184,1,75
332,80,101101,2,0,P|240:76|204:36,1,150,8|0,0:0|0:0,0:0:0:0:
44,136,101580,1,0,0:0:0:0:
224,140,101740,1,8,0:0:0:0:
92,40,101899,1,0,0:0:0:0:
128,208,102059,6,0,P|144:252|192:292,1,75
256,228,102378,2,0,P|292:256|352:264,1,75,8|0,0:0|0:0,0:0:0:0:
428,248,102697,2,0,P|412:204|364:164,1,75
384,80,103016,2,0,P|348:52|288:44,1,75,8|0,0:0|0:0,0:0:0:0:
164,80,103335,1,0,0:0:0:0:
272,176,103495,1,0,0:0:0:0:
236,32,103655,1,8,0:0:0:0:
120,136,103814,6,0,P|120:204|140:240,1,75
292,280,104133,2,0,P|292:212|272:176,1,75,0|8,0:0|0:0,0:0:0:0:
352,116,104452,1,0,0:0:0:0:
356,120,104612,2,0,P|364:120|432:92,1,75
436,88,105091,2,0,P|406:167|426:247,1,150
352,304,105570,2,0,P|312:300|280:280,1,75,8|0,0:0|0:0,0:0:0:0:
136,200,105889,2,0,P|168:180|208:176,1,75
372,84,106208,5,8,0:0:0:0:
372,84,106367,2,0,P|404:152|352:212,1,150
204,184,106846,1,8,0:0:0:0:
336,144,107006,1,0,0:0:0:0:
232,252,107165,2,0,P|188:300|96:316,1,150,0|8,0:0|0:0,0:0:0:0:
204,184,107644,6,0,P|276:192|304:268,1,150
400,308,108123,2,0,P|424:196|400:152,1,150,8|0,0:0|0:0,0:0:0:0:
252,76,108601,1,0,0:0:0:0:
308,232,108761,1,8,0:0:0:0:
360,72,108921,1,0,0:0:0:0:
212,176,109080,5,2,0:0:0:0:
208,180,109240,1,2,0:0:0:0:
380,336,109559,5,2,0:0:0:0:
120,304,109878,2,0,P|56:208|84:100,1,225
188,60,110516,1,0,0:0:0:0:
280,136,110676,6,0,P|352:176|416:152,1,150,8|0,0:0|0:0,0:0:0:0:
448,264,111155,1,0,0:0:0:0:
352,296,111314,2,0,P|312:316|256:328,1,75,8|0,0:0|0:0,0:0:0:0:
196,224,111633,2,0,P|228:204|292:192,1,75
120,136,111952,2,0,P|64:172|60:280,1,150,8|0,0:0|0:0,0:0:0:0:
244,112,112431,6,0,P|284:100|308:72,1,75,0|8,0:0|0:0,0:0:0:0:
448,148,112750,2,0,B|424:212|424:212|468:308,1,150
296,280,113229,2,0,P|272:240|240:224,1,75,8|0,0:0|0:0,0:0:0:0:
120,264,113548,2,0,P|140:296|176:320,1,75
296,280,113867,1,8,0:0:0:0:
368,172,114027,6,0,P|388:72|348:24,1,150
244,96,114506,2,0,P|192:128|128:100,1,112.5,8|0,0:0|0:0,0:0:0:0:
104,96,114825,2,0,P|64:108|32:168,1,112.5
60,204,115144,6,0,B|88:232|88:232|124:220|160:232|160:232|204:208,1,150,8|0,0:0|0:0,0:0:0:0:
288,172,115623,1,0,0:0:0:0:
272,268,115782,6,0,P|356:292|392:248,1,150,0|8,0:0|0:0,0:0:0:0:
420,160,116261,2,0,L|368:80,1,75
288,44,116580,2,0,B|256:36|256:36|192:108|136:96,1,150
56,184,117059,2,0,P|96:200|140:244,1,75,8|0,0:0|0:0,0:0:0:0:
236,284,117378,2,0,P|276:276|316:252,1,75
420,196,117697,2,0,P|464:212|504:256,1,75,8|0,0:0|0:0,0:0:0:0:
256,192,117937,12,0,119293,0:0:0:0:
144,40,119931,6,0,P|144:144|208:156,1,187.5
264,152,120410,6,0,P|256:192|156:260,1,150,2|0,0:0|0:0,0:0:0:0:
272,332,120889,2,0,P|312:328|372:304,1,75
428,192,121208,2,0,P|388:196|348:208,1,75
204,264,121527,1,0,0:0:0:0:
204,264,121687,6,0,P|244:176|224:100,1,150,2|0,0:0|0:0,0:0:0:0:
300,72,122165,2,0,P|364:92|400:88,1,75
428,224,122484,2,0,P|364:204|328:208,1,75
224,224,122804,1,0,0:0:0:0:
112,296,122963,6,0,P|116:216|64:140,1,150,2|0,0:0|0:0,0:0:0:0:
136,76,123442,2,0,P|216:60|272:100,1,150
316,192,123921,2,0,P|376:232|456:224,1,150
404,124,124399,5,2,0:0:0:0:
304,80,124559,1,0,0:0:0:0:
212,144,124718,1,0,0:0:0:0:
224,272,124878,1,0,0:0:0:0:
224,272,124958,1,0,0:0:0:0:
224,272,125038,1,0,0:0:0:0:
336,308,125197,2,0,P|400:268|412:240,1,75
324,216,125516,6,0,P|212:144|212:112,1,150,2|0,0:0|0:0,0:0:0:0:
112,188,125995,2,0,P|104:232|104:280,1,75
212,112,126314,2,0,P|220:72|218:37,1,75
236,232,126633,1,0,0:0:0:0:
244,240,126713,1,0,0:0:0:0:
252,248,126793,6,0,P|312:268|380:216,1,150,2|0,0:0|0:0,0:0:0:0:
376,100,127272,2,0,P|344:64|292:56,1,75
144,120,127591,1,0,0:0:0:0:
324,168,127750,1,0,0:0:0:0:
212,36,127910,1,0,0:0:0:0:
216,212,128070,6,0,P|120:280|72:268,1,150,2|0,0:0|0:0,0:0:0:0:
216,344,128548,2,0,P|312:312|364:320,1,150
377,220,129027,2,0,L|317:160,1,75
224,104,129346,6,0,P|144:120|216:192,1,225,2|0,0:0|0:0,0:0:0:0:
360,148,129984,1,0,0:0:0:0:
368,148,130064,1,0,0:0:0:0:
376,148,130144,2,0,P|432:176|424:276,1,150
288,300,130623,6,0,P|208:300|168:240,1,150,2|0,0:0|0:0,0:0:0:0:
232,156,131101,2,0,P|308:144|328:128,1,75
152,72,131421,2,0,P|76:84|56:100,1,75
232,156,131740,1,0,0:0:0:0:
232,156,131899,6,0,P|304:192|400:188,1,150,2|0,0:0|0:0,0:0:0:0:
304,276,132378,2,0,P|264:296|208:304,1,75
108,320,132697,1,0,0:0:0:0:
128,200,132857,1,0,0:0:0:0:
232,280,133016,1,0,0:0:0:0:
232,280,133176,6,0,P|305:275|359:225,1,150,2|0,0:0|0:0,0:0:0:0:
298,103,133655,2,0,P|272:136|260:168,1,75
164,144,133974,2,0,P|168:104|156:56,1,75
64,208,134293,1,0,0:0:0:0:
64,208,134452,6,0,P|120:268|188:268,1,150,2|0,0:0|0:0,0:0:0:0:
272,336,134931,2,0,P|332:280|332:212,1,150
298,103,135410,2,0,P|256:136|212:136,1,75
364,148,135729,6,0,P|444:84|512:88,1,150,2|0,0:0|0:0,0:0:0:0:
256,216,136208,2,0,P|172:244|112:232,1,150
208,92,136687,1,0,0:0:0:0:
208,92,136766,1,0,0:0:0:0:
208,92,136846,1,0,0:0:0:0:
208,92,136926,1,0,0:0:0:0:
208,92,137006,6,0,P|256:112|300:104,1,75,2|8,0:0|0:0,0:0:0:0:
380,296,137325,2,0,P|332:276|288:284,1,75,2|8,0:0|0:0,0:0:0:0:
344,96,137644,2,0,P|404:104|432:128,1,75,2|8,0:0|0:0,0:0:0:0:
244,296,137963,2,0,P|184:288|156:264,1,75,2|8,0:0|0:0,0:0:0:0:
100,124,138282,1,0,0:0:0:0:
100,124,138442,6,0,L|76:68,3,37.5,8|0|0|0,0:0|0:0|0:0|0:0,0:0:0:0:
200,168,138761,2,0,L|256:192,3,37.5,8|0|0|0,0:0|0:0|0:0|0:0,0:0:0:0:
108,236,139080,2,0,L|64:272,4,37.5,8|0|0|0|0,0:0|0:0|0:0|0:0|0:0,0:0:0:0:
268,264,139559,2,0,B|340:272|368:200|368:200|464:236|480:132,1,281.250010728836,2|0,0:0|0:0,0:0:0:0:
400,112,140516,6,0,P|312:104|248:48,1,150
128,212,150250,6,0,P|240:188|156:144,1,281.25
160,324,151048,6,0,P|300:252|312:176,1,225
296,104,151687,2,0,P|416:68|356:280,1,450
188,256,152804,1,0,0:0:0:0:
188,256,152963,2,0,P|104:216|32:224,1,150
256,192,153601,6,0,P|324:248|400:248,1,150
440,136,154080,1,0,0:0:0:0:
440,136,154240,2,0,P|372:80|144:196,1,375
276,296,155516,6,0,P|340:276|432:304,2,150
176,192,156314,2,0,P|88:212|24:196,1,150
96,84,156793,2,0,P|184:64|248:80,1,150
368,224,157431,2,0,P|256:252|368:284,1,300
432,268,158229,5,0,0:0:0:0:
96,84,158548,1,0,0:0:0:0:
400,64,158867,1,0,0:0:0:0:
52,156,159506,1,0,0:0:0:0:
236,292,160144,5,0,0:0:0:0:
208,280,160224,1,0,0:0:0:0:
188,260,160304,1,0,0:0:0:0:
176,232,160383,1,0,0:0:0:0:
180,204,160463,2,0,L|116:184,3,37.5
196,176,160782,5,0,0:0:0:0:
212,148,160862,1,0,0:0:0:0:
216,120,160942,1,0,0:0:0:0:
212,88,161022,1,0,0:0:0:0:
196,60,161101,2,0,L|256:44,3,37.5
288,96,161421,6,0,L|348:80,3,37.5
364,172,161740,2,0,L|304:156,3,37.5
324,240,162059,2,0,L|264:256,3,37.5
328,316,162378,2,0,L|388:332,3,37.5
248,320,162697,6,0,L|196:296,3,37.5
200,228,163016,2,0,L|148:252,3,37.5
212,196,163335,1,0,0:0:0:0:
208,160,163415,1,0,0:0:0:0:
192,136,163495,1,0,0:0:0:0:
164,120,163575,1,0,0:0:0:0:
132,116,163655,2,0,L|68:140,1,37.5
140,188,163814,6,0,P|256:108|236:72,1,187.5
324,204,164293,2,0,P|344:124|332:72,1,112.5
432,152,164612,2,0,P|428:84|416:44,2,75
424,264,165091,2,0,B|352:312|352:312|272:260|112:296|112:296|196:176|92:132,1,525
220,36,166367,2,0,P|424:192|196:300,1,600
160,236,167804,6,0,L|96:244,3,37.5
148,160,168123,2,0,L|88:140,3,37.5
180,88,168442,2,0,L|140:44,3,37.5
260,72,168761,2,0,L|244:20,3,37.5
344,72,169080,6,0,L|332:132,3,37.5
404,148,169399,2,0,L|416:88,3,37.5
416,180,169718,1,0,0:0:0:0:
416,212,169798,1,0,0:0:0:0:
404,240,169878,1,0,0:0:0:0:
376,264,169958,1,0,0:0:0:0:
344,268,170038,1,0,0:0:0:0:
232,216,170197,1,0,0:0:0:0:
124,280,170357,5,2,0:0:0:0:
96,292,170437,1,0,0:0:0:0:
64,292,170516,2,0,L|44:336,4,37.5
128,164,170995,1,2,0:0:0:0:
144,136,171075,1,0,0:0:0:0:
140,100,171155,2,0,L|184:76,3,37.5
240,64,171474,6,0,P|324:88|344:232,1,225
208,308,172112,2,0,P|180:272|164:216,1,75
304,76,172431,2,0,P|332:108|348:168,2,75
150,134,172910,5,8,0:0:0:0:
276,239,173070,1,0,0:0:0:0:
304,76,173229,1,0,0:0:0:0:
182,222,173389,1,8,0:0:0:0:
337,165,173548,1,0,0:0:0:0:
210,61,173708,1,0,0:0:0:0:
244,148,173867,5,4,0:0:0:0:
244,148,174027,2,0,P|276:240|256:304,1,140.625005364418,4|0,0:0|0:0,0:0:0:0:
264,288,174506,6,0,P|312:336|404:320,1,150
416,200,174984,1,0,0:0:0:0:
512,284,175144,1,0,0:0:0:0:
344,260,175304,2,0,P|272:232|224:148,1,150,2|0,0:0|0:0,0:0:0:0:
208,96,175782,2,0,P|300:76|372:92,1,150
432,132,176261,6,0,L|480:112,2,37.5
380,228,176580,2,0,P|328:312|256:312,1,150,2|0,0:0|0:0,0:0:0:0:
188,264,177059,2,0,P|152:232|124:192,1,75
176,76,177378,2,0,P|204:104|240:148,1,75
332,224,177697,1,0,0:0:0:0:
332,224,177857,6,0,P|380:228|460:132,1,150,2|0,0:0|0:0,0:0:0:0:
360,72,178335,2,0,P|328:40|272:28,1,75
176,112,178655,2,0,P|204:140|264:156,1,75
256,280,178974,2,0,L|168:236,1,75
168,236,179213,1,0,0:0:0:0:
152,224,179293,6,0,P|100:156|120:72,1,150,2|0,0:0|0:0,0:0:0:0:
256,188,179772,1,0,0:0:0:0:
256,188,179931,2,0,P|320:132|408:140,1,150
452,284,180410,2,0,P|388:340|300:332,1,150,2|0,0:0|0:0,0:0:0:0:
224,308,180889,5,0,0:0:0:0:
192,208,181048,1,0,0:0:0:0:
244,116,181208,1,0,0:0:0:0:
360,88,181367,1,0,0:0:0:0:
360,88,181447,1,0,0:0:0:0:
360,88,181527,1,0,0:0:0:0:
328,192,181687,6,0,P|300:276|308:336,1,150,2|0,0:0|0:0,0:0:0:0:
224,336,182165,2,0,L|168:240,1,75
112,320,182484,2,0,L|56:224,1,75
148,188,182804,2,0,L|244:132,1,75
164,76,183123,2,0,L|260:20,1,75
312,100,183442,5,0,0:0:0:0:
448,136,183601,1,0,0:0:0:0:
348,232,183761,1,0,0:0:0:0:
384,92,183921,1,8,0:0:0:0:
244,128,184080,1,8,0:0:0:0:
416,200,184240,6,0,P|416:264|336:304,1,150
244,200,184718,1,0,0:0:0:0:
328,316,184878,1,8,0:0:0:0:
324,320,184958,1,8,0:0:0:0:
320,324,185038,1,8,0:0:0:0:
216,216,185197,2,0,P|176:192|152:136,1,75
328,45,185516,2,0,P|368:69|392:125,1,75,0|4,0:0|0:0,0:0:0:0:
256,192,185756,12,0,188229,0:0:0:0:
192,120,197644,6,0,L|168:188,2,37.5
240,76,197883,2,0,P|312:60|372:116,1,150
332,160,198282,6,0,P|288:264|396:300,1,225,2|0,0:0|0:0,0:0:0:0:
480,136,199080,1,0,0:0:0:0:
260,112,199399,1,0,0:0:0:0:
260,112,199559,6,0,P|188:152|224:296,1,225,2|0,0:0|0:0,0:0:0:0:
364,128,200357,1,0,0:0:0:0:
160,76,200676,1,0,0:0:0:0:
160,76,200835,6,0,P|92:132|132:256,1,225,2|0,0:0|0:0,0:0:0:0:
264,196,201474,1,0,0:0:0:0:
248,340,201633,1,0,0:0:0:0:
176,200,201793,2,0,P|232:116|300:120,1,150,0|2,0:0|0:0,0:0:0:0:
224,276,202431,1,0,0:0:0:0:
224,276,202591,2,0,P|108:272|84:228,1,150
164,52,203070,1,0,0:0:0:0:
164,52,203149,1,0,0:0:0:0:
164,52,203229,1,0,0:0:0:0:
264,104,203389,6,0,P|372:136|436:120,1,150
424,212,203867,2,0,P|360:280|356:336,1,150
268,308,204346,2,0,P|264:212|204:168,1,150
128,176,204825,6,8,P|96:196|72:228,2,75
184,88,205304,2,8,P|160:56|128:40,2,75
224,260,205782,1,8,0:0:0:0:
352,144,205942,1,8,0:0:0:0:
412,196,206101,6,0,L|452:252,3,37.5,0|0|0|0,0:0|0:0|0:0|0:0,0:0:0:0:
364,256,206421,2,0,L|324:312,3,37.5,0|0|0|0,0:0|0:0|0:0|0:0,0:0:0:0:
292,228,206740,2,0,L|252:172,3,37.5,0|0|0|0,0:0|0:0|0:0|0:0,0:0:0:0:
224,260,207059,2,0,L|184:316,3,37.5,0|0|0|0,0:0|0:0|0:0|0:0,0:0:0:0:
156,232,207378,5,8,0:0:0:0:
268,112,207538,1,8,0:0:0:0:
108,76,207697,1,8,0:0:0:0:
396,260,208016,2,0,P|404:324|344:292,1,140.625005364418
324,248,208495,6,0,P|256:204|200:232,1,150,2|0,0:0|0:0,0:0:0:0:
124,300,208974,2,0,P|88:320|44:332,1,75
80,168,209293,2,0,P|116:148|160:136,1,75
280,60,209612,1,0,0:0:0:0:
292,196,209772,6,0,P|360:264|428:276,1,150,2|0,0:0|0:0,0:0:0:0:
216,184,210250,2,0,P|192:224|144:260,1,75
84,124,210570,2,0,P|108:84|156:48,1,75
280,60,210889,1,0,0:0:0:0:
360,168,211048,6,0,P|396:276|352:312,1,150,2|0,0:0|0:0,0:0:0:0:
280,292,211527,2,0,P|304:256|344:228,1,75
180,236,211846,2,0,P|156:272|116:300,1,75
112,152,212165,1,0,0:0:0:0:
108,148,212325,6,0,P|176:76|256:64,1,150,2|0,0:0|0:0,0:0:0:0:
316,100,212804,1,0,0:0:0:0:
352,192,212963,1,0,0:0:0:0:
292,272,213123,1,0,0:0:0:0:
408,288,213282,1,0,0:0:0:0:
408,288,213362,1,0,0:0:0:0:
408,288,213442,1,0,0:0:0:0:
292,272,213601,6,0,P|196:288|156:320,1,150,2|0,0:0|0:0,0:0:0:0:
36,192,214080,1,0,0:0:0:0:
216,208,214240,1,0,0:0:0:0:
52,296,214399,1,0,0:0:0:0:
132,140,214559,2,0,P|136:68|96:28,1,112.5
132,48,214878,6,0,L|228:76,1,75,2|0,0:0|0:0,0:0:0:0:
308,68,215197,2,0,L|404:40,1,75
380,288,215516,2,0,L|284:316,1,75
200,312,215835,2,0,L|104:284,1,75
80,192,216155,6,0,P|108:120|180:80,1,150,2|0,0:0|0:0,0:0:0:0:
296,132,216633,2,0,P|336:112|360:80,2,75
200,196,217112,2,0,P|240:216|264:248,1,75
184,280,217431,6,0,P|128:244|136:144,1,150,2|0,0:0|0:0,0:0:0:0:
188,68,217910,1,0,0:0:0:0:
308,68,218070,1,0,0:0:0:0:
248,164,218229,1,0,0:0:0:0:
360,168,218389,1,0,0:0:0:0:
372,172,218468,1,0,0:0:0:0:
384,176,218548,1,0,0:0:0:0:
396,180,218628,1,0,0:0:0:0:
408,184,218708,6,0,P|444:252|376:320,1,150,2|0,0:0|0:0,0:0:0:0:
280,308,219187,2,0,P|240:296|200:264,2,75
360,168,219665,2,0,P|328:136|312:80,1,75
220,52,219984,6,0,P|200:152|148:176,1,150,2|0,0:0|0:0,0:0:0:0:
140,88,220463,2,0,P|240:124|152:260,1,300
288,300,221261,6,0,P|368:228|440:224,1,150,2|0,0:0|0:0,0:0:0:0:
456,136,221740,2,0,P|392:76|316:88,1,150
216,116,222218,2,0,P|172:132|132:168,1,75
280,224,222538,6,0,P|360:176|344:52,1,225,2|0,0:0|0:0,0:0:0:0:
116,48,223176,1,0,0:0:0:0:
212,236,223335,1,0,0:0:0:0:
340,64,223495,1,0,0:0:0:0:
340,64,223575,1,0,0:0:0:0:
340,64,223655,1,0,0:0:0:0:
168,156,223814,6,0,P|116:232|208:332,1,225,2|0,0:0|0:0,0:0:0:0:
312,340,224452,1,0,0:0:0:0:
392,248,224612,6,0,L|416:152,1,75
324,80,224931,2,0,L|300:176,1,75
188,228,225250,2,8,L|212:132,1,75
120,60,225570,2,8,L|96:156,1,75
60,248,225889,5,8,0:0:0:0:
256,192,226048,1,8,0:0:0:0:
388,344,226208,1,8,0:0:0:0:
452,160,226367,1,8,0:0:0:0:
452,160,226527,6,0,L|492:200,3,37.5,8|0|0|0,0:0|0:0|0:0|0:0,0:0:0:0:
372,136,226846,2,0,L|332:96,3,37.5,8|0|0|0,0:0|0:0|0:0|0:0,0:0:0:0:
392,212,227165,5,8,0:0:0:0:
372,232,227245,1,0,0:0:0:0:
344,248,227325,1,0,0:0:0:0:
316,256,227405,1,0,0:0:0:0:
284,256,227484,1,8,0:0:0:0:
256,248,227564,1,0,0:0:0:0:
232,224,227644,1,0,0:0:0:0:
220,196,227724,1,0,0:0:0:0:
216,160,227804,2,0,P|104:148|112:304,1,300,10|0,0:0|0:0,0:0:0:0:
196,336,228601,6,0,P|272:348|348:336,1,150,0|4,0:0|0:0,0:0:0:0:
256,192,229000,12,0,231474,0:0:0:0:
