osu file format v14

[General]
AudioFilename: Neptune~.mp3
AudioLeadIn: 0
PreviewTime: 59025
Countdown: 0
SampleSet: Soft
StackLeniency: 0.7
Mode: 0
LetterboxInBreaks: 0
WidescreenStoryboard: 0

[Editor]
Bookmarks: 69763
DistanceSpacing: 1.1
BeatDivisor: 4
GridSize: 4
TimelineZoom: 1.7

[Metadata]
Title:Dimension tripper!!!!
TitleUnicode:Dimension tripper!!!!
Artist:nao
ArtistUnicode:nao
Creator:[Sc4v4ng3r]
Version:Normal
Source:超次元ゲイム ネプテューヌ
Tags:ディメンション・トリッパー Hyperdimension Neptunia: The Animation Choujigen Game Neptune PV version Noire Blanc Vert Purple_Heart Black_Heart White_Heart Green_Heart Compile_Heart OP Doyak Gear walaowey
BeatmapID:790372
BeatmapSetID:359479

[Difficulty]
HPDrainRate:4
CircleSize:3
OverallDifficulty:4
ApproachRate:5
SliderMultiplier:1
SliderTickRate:1

[Events]
//Background and Video events
Video,-289,"video1.avi"
0,0,"BG.jpg",0,0
//Break Periods
//Storyboard Layer 0 (Background)
//Storyboard Layer 1 (Fail)
//Storyboard Layer 2 (Pass)
//Storyboard Layer 3 (Foreground)
//Storyboard Sound Samples

[TimingPoints]
1082,318.809776833156,4,2,1,50,1,0
6023,-100,4,2,1,70,0,0
29137,-100,4,2,1,60,0,0
39339,-100,4,2,1,70,0,0
59583,-100,4,2,1,85,0,1
79987,-100,4,2,1,70,0,0

[Colours]
Combo1 : 255,255,70
Combo2 : 255,89,255
Combo3 : 0,0,98
Combo4 : 202,101,0

[HitObjects]
96,160,1082,6,0,P|176:144|232:168,1,100,2|0,0:0|0:0,0:0:0:0:
288,200,1719,2,0,P|337:203|384:187,1,100,2|0,0:0|0:0,0:0:0:0:
436,168,2197,1,0,0:0:0:0:
484,136,2357,2,0,L|496:16,2,100,2|0|2,0:0|0:0|0:0,0:0:0:0:
476,244,3313,1,2,0:0:0:0:
468,352,3632,6,0,L|356:372,1,100,2|0,0:0|0:0,0:0:0:0:
268,324,4270,2,0,L|169:306,1,100,2|0,0:0|0:0,0:0:0:0:
72,256,4907,2,0,P|106:215|150:198,1,100,2|0,0:0|0:0,0:0:0:0:
260,208,5545,2,8,L|332:224,1,50
364,232,5864,1,8,0:0:0:0:
420,240,6023,6,0,P|480:224|488:132,1,150,4|8,0:0|0:0,0:0:0:0:
404,88,6820,2,0,L|416:28,2,50,0|0|8,0:0|0:0|0:0,0:0:0:0:
292,88,7458,2,0,P|252:96|184:76,1,100,0|8,0:0|0:0,0:0:0:0:
148,56,7936,2,0,L|120:160,1,100,8|0,0:0|0:0,0:0:0:0:
104,204,8414,1,8,0:0:0:0:
88,256,8574,6,0,P|148:296|240:284,1,150,4|8,0:0|0:0,0:0:0:0:
324,244,9371,2,0,L|308:188,2,50,0|0|8,0:0|0:0|0:0,0:0:0:0:
344,352,10008,2,0,P|392:327|424:288,1,100,0|8,0:0|0:0,0:0:0:0:
448,244,10486,2,0,L|416:132,1,100,8|8,0:0|0:0,0:0:0:0:
400,96,10965,1,8,0:0:0:0:
384,44,11124,6,0,P|320:64|240:36,1,150,4|8,0:0|0:0,0:0:0:0:
136,24,11921,2,0,L|72:44,1,50,8|8,0:0|0:0,0:0:0:0:
36,136,12399,2,0,P|4:216|44:284,1,150,4|8,0:0|0:0,0:0:0:0:
136,296,13196,2,8,L|156:348,2,50
172,252,13674,6,0,P|196:183|164:117,1,150,4|8,0:0|0:0,0:0:0:0:
88,38,14472,2,8,L|140:24,1,50
248,20,14950,2,0,P|314:49|340:117,1,150,4|8,0:0|0:0,0:0:0:0:
340,228,15747,2,8,L|400:228,2,50
284,228,16225,6,0,B|200:228|200:228|143:261,1,150,4|8,0:0|0:0,0:0:0:0:
36,288,17022,2,0,L|36:352,2,50,0|0|8,0:0|0:0|0:0,0:0:0:0:
48,180,17660,2,0,L|150:123,1,100,0|8,0:0|0:0,0:0:0:0:
188,112,18138,2,0,L|292:112,1,100,8|0,0:0|0:0,0:0:0:0:
343,112,18616,1,8,0:0:0:0:
396,112,18775,6,0,P|424:200|388:260,1,150,4|8,0:0|0:0,0:0:0:0:
308,308,19572,2,0,L|308:372,2,50,0|0|8,0:0|0:0|0:0,0:0:0:0:
208,264,20210,2,0,P|156:256|96:268,1,100,0|8,0:0|0:0,0:0:0:0:
56,276,20688,2,8,L|56:168,1,100
56,120,21167,1,8,0:0:0:0:
56,65,21326,6,0,P|128:81|204:61,1,150,4|8,0:0|0:0,0:0:0:0:
308,40,22123,2,8,L|348:88,1,50
388,179,22601,2,0,P|324:217|292:284,1,150,4|8,0:0|0:0,0:0:0:0:
188,316,23398,2,8,L|188:372,2,50
144,284,23876,6,0,P|84:204|32:188,1,150,4|8,0:0|0:0,0:0:0:0:
0,84,24673,2,8,L|28:36,1,50
136,36,25152,2,0,P|208:104|262:111,1,150,4|8,0:0|0:0,0:0:0:0:
364,116,25949,2,8,L|432:116,2,50
332,160,26427,6,0,P|292:250|304:304,1,150,4|8,0:0|0:0,0:0:0:0:
204,348,27224,2,8,L|144:348,1,50
112,312,27543,2,8,L|60:312,1,50,8|12,0:0|0:0,0:0:0:0:
4,44,28499,5,8,0:0:0:0:
4,44,28659,1,8,0:0:0:0:
172,36,29137,6,0,L|280:44,1,100,6|0,0:0|0:0,0:0:0:0:
344,128,29774,2,0,L|452:136,1,100,2|0,0:0|0:0,0:0:0:0:
500,232,30412,2,0,L|392:240,1,100,2|0,0:0|0:0,0:0:0:0:
336,328,31050,2,0,L|228:336,1,100,2|0,0:0|0:0,0:0:0:0:
128,336,31687,6,0,P|140:280|124:220,1,100,2|0,0:0|0:0,0:0:0:0:
64,152,32325,2,0,P|52:103|59:54,1,100,2|0,0:0|0:0,0:0:0:0:
108,32,32803,1,0,0:0:0:0:
108,32,32962,2,0,L|220:52,1,100,2|0,0:0|0:0,0:0:0:0:
272,140,33600,2,0,L|160:160,1,100,2|0,0:0|0:0,0:0:0:0:
108,248,34238,6,0,P|93:295|100:344,1,100,2|0,0:0|0:0,0:0:0:0:
204,308,34875,2,0,L|304:308,1,100,2|0,0:0|0:0,0:0:0:0:
408,348,35513,2,0,P|415:299|400:251,1,100,2|0,0:0|0:0,0:0:0:0:
304,196,36151,2,0,L|204:196,1,100,2|0,0:0|0:0,0:0:0:0:
96,184,36788,6,0,P|68:140|68:76,1,100,2|0,0:0|0:0,0:0:0:0:
156,32,37426,2,0,L|228:36,1,50,2|0,0:0|0:0,0:0:0:0:
252,64,37745,2,0,L|324:68,1,50
344,100,38063,6,0,L|416:104,2,50,0|0|12,0:0|0:0|0:0,0:0:0:0:
340,212,38701,2,0,L|412:216,2,50,0|0|12,0:0|0:0|0:0,0:0:0:0:
332,324,39339,6,0,P|287:347|237:351,1,100,4|8,0:0|0:0,0:0:0:0:
132,316,39976,2,0,P|144:256|184:212,1,100,0|8,0:0|0:0,0:0:0:0:
216,200,40455,2,0,P|274:155|293:84,1,150,0|8,0:0|0:0,0:0:0:0:
396,44,41252,1,0,0:0:0:0:
396,44,41411,2,0,L|460:20,2,50,0|8|0,0:0|0:0|0:0,0:0:0:0:
396,100,41889,6,0,P|403:149|430:190,1,100,0|8,0:0|0:0,0:0:0:0:
492,280,42527,2,0,L|384:308,1,100,0|8,0:0|0:0,0:0:0:0:
340,320,43005,2,0,B|248:344|248:344|196:328,1,150,0|8,0:0|0:0,0:0:0:0:
108,260,43802,1,8,0:0:0:0:
88,208,43961,2,0,L|88:144,1,50,8|8,0:0|0:0,0:0:0:0:
64,108,44280,6,0,P|81:71|201:47,1,150,4|8,0:0|0:0,0:0:0:0:
284,72,45077,2,0,L|340:48,2,50,0|0|8,0:0|0:0|0:0,0:0:0:0:
292,127,45555,2,0,P|249:187|176:196,1,150,4|8,0:0|0:0,0:0:0:0:
68,200,46352,2,0,L|32:156,2,50,0|0|8,0:0|0:0|0:0,0:0:0:0:
100,244,46831,6,0,B|130:287|179:286|179:286|230:307,1,150,4|8,0:0|0:0,0:0:0:0:
336,336,47628,2,0,L|404:320,2,50,0|0|8,0:0|0:0|0:0,0:0:0:0:
336,224,48265,2,8,L|404:208,2,50,12|8|8,0:0|0:0|0:0,0:0:0:0:
280,224,48744,2,8,L|180:224,1,100,12|8,0:0|0:0,0:0:0:0:
124,224,49222,1,8,0:0:0:0:
12,220,49541,6,0,P|28:166|60:134,1,100,4|8,0:0|0:0,0:0:0:0:
164,104,50178,2,0,L|144:40,2,50,8|8|8,0:0|0:0|0:0,0:0:0:0:
220,108,50656,1,8,0:0:0:0:
316,160,50975,1,8,0:0:0:0:
316,272,51294,1,8,0:0:0:0:
220,324,51613,2,0,L|156:324,1,50,8|8,0:0|0:0,0:0:0:0:
116,320,51932,6,0,P|88:272|124:184,1,150,4|8,0:0|0:0,0:0:0:0:
220,158,52729,2,0,L|220:90,2,50,0|0|8,0:0|0:0|0:0,0:0:0:0:
264,192,53207,2,0,P|331:217|395:182,1,150,4|8,0:0|0:0,0:0:0:0:
416,76,54004,2,0,P|368:48|304:40,1,100,0|8,0:0|0:0,0:0:0:0:
216,40,54642,6,0,P|167:50|124:76,1,100,4|8,0:0|0:0,0:0:0:0:
140,184,55279,2,0,P|149:232|143:282,1,100,8|8,0:0|0:0,0:0:0:0:
124,336,55757,2,8,L|236:336,1,100
280,336,56236,1,8,0:0:0:0:
380,288,56554,2,8,L|424:324,2,50
256,192,57033,12,12,58467,0:0:0:0:
144,104,59583,6,0,B|196:104|196:104|256:128,1,100,4|0,0:0|0:0,0:0:0:0:
292,144,60061,1,8,0:0:0:0:
380,208,60380,2,0,L|444:208,2,50,0|0|8,0:0|0:0|0:0,0:0:0:0:
352,256,60858,2,0,B|307:273|307:273|255:273,1,100,4|0,0:0|0:0,0:0:0:0:
200,272,61337,1,8,0:0:0:0:
108,208,61655,2,0,L|48:208,2,50,0|0|8,0:0|0:0|0:0,0:0:0:0:
156,176,62134,6,0,B|201:159|201:159|253:159,1,100,4|0,0:0|0:0,0:0:0:0:
308,160,62612,2,0,B|360:160|360:160|405:143,1,100,8|8,0:0|0:0,0:0:0:0:
452,112,63090,1,8,0:0:0:0:
356,61,63409,2,0,B|311:44|311:44|259:44,1,100,4|0,0:0|0:0,0:0:0:0:
204,44,63887,1,8,0:0:0:0:
92,44,64206,2,0,L|44:80,1,50,8|8,0:0|0:0,0:0:0:0:
12,112,64525,1,8,0:0:0:0:
4,164,64684,6,0,P|0:212|24:264,1,100,4|0,0:0|0:0,0:0:0:0:
56,300,65162,2,0,L|124:300,1,50,8|0,0:0|0:0,0:0:0:0:
148,336,65481,2,0,L|216:336,1,50,8|8,0:0|0:0,0:0:0:0:
300,296,65959,2,0,P|352:284|416:304,1,100,4|0,0:0|0:0,0:0:0:0:
444,320,66438,2,0,L|460:256,1,50,8|0,0:0|0:0,0:0:0:0:
452,216,66756,2,0,L|468:152,2,50,0|0|8,0:0|0:0|0:0,0:0:0:0:
396,208,67235,6,0,P|346:200|296:205,1,100,4|0,0:0|0:0,0:0:0:0:
244,224,67713,1,8,0:0:0:0:
140,260,68032,2,0,L|140:328,2,50,0|0|8,0:0|0:0|0:0,0:0:0:0:
96,228,68510,2,0,P|90:175|96:124,1,100,4|0,0:0|0:0,0:0:0:0:
120,80,68988,2,0,L|184:80,1,50,8|0,0:0|0:0,0:0:0:0:
224,96,69307,2,0,L|288:96,1,50,8|8,0:0|0:0,0:0:0:0:
376,140,69785,6,0,B|376:188|376:188|408:240,1,100,4|0,0:0|0:0,0:0:0:0:
428,280,70263,2,0,L|324:316,1,100,8|0,0:0|0:0,0:0:0:0:
224,336,70901,1,8,0:0:0:0:
172,348,71060,2,0,B|172:300|172:300|144:255,1,100,4|0,0:0|0:0,0:0:0:0:
116,208,71538,2,0,B|88:163|88:163|88:115,1,100,8|0,0:0|0:0,0:0:0:0:
168,40,72176,1,8,0:0:0:0:
220,60,72335,6,0,P|264:72|320:56,1,100,4|0,0:0|0:0,0:0:0:0:
364,28,72814,2,0,L|424:124,1,100,8|0,0:0|0:0,0:0:0:0:
440,164,73292,1,8,0:0:0:0:
468,272,73611,2,0,P|420:259|372:273,1,100,4|0,0:0|0:0,0:0:0:0:
324,296,74089,1,8,0:0:0:0:
220,336,74408,2,0,L|168:336,1,50,8|8,0:0|0:0,0:0:0:0:
116,336,74727,1,8,0:0:0:0:
60,336,74886,6,0,P|44:288|68:228,1,100,4|0,0:0|0:0,0:0:0:0:
92,200,75364,1,8,0:0:0:0:
192,152,75683,2,0,L|192:96,2,50,8|0|8,0:0|0:0|0:0,0:0:0:0:
232,192,76161,2,0,P|280:200|325:180,1,100,4|0,0:0|0:0,0:0:0:0:
364,140,76639,1,8,0:0:0:0:
440,60,76958,2,0,L|440:-4,2,50,8|0|8,0:0|0:0|0:0,0:0:0:0:
468,108,77436,6,0,P|487:153|479:201,1,100,4|0,0:0|0:0,0:0:0:0:
452,252,77915,2,0,L|392:252,1,50,8|0,0:0|0:0,0:0:0:0:
360,284,78233,2,0,L|304:284,1,50,8|8,0:0|0:0,0:0:0:0:
264,312,78552,1,8,0:0:0:0:
212,336,78712,2,0,P|124:255|155:140,1,250,6|8,0:0|0:0,0:0:0:0:
192,100,79668,1,8,0:0:0:0:
296,68,79987,6,0,P|324:108|440:116,1,150,4|8,0:0|0:0,0:0:0:0:
468,224,80784,2,0,L|512:188,2,50,0|0|8,0:0|0:0|0:0,0:0:0:0:
432,328,81422,2,0,P|384:320|324:332,1,100,0|8,0:0|0:0,0:0:0:0:
280,348,81900,2,0,P|230:356|181:348,1,100,8|0,0:0|0:0,0:0:0:0:
132,328,82378,1,8,0:0:0:0:
84,300,82537,6,0,P|69:235|117:161,1,150,4|8,0:0|0:0,0:0:0:0:
196,100,83334,2,0,L|196:48,2,50,0|0|8,0:0|0:0|0:0,0:0:0:0:
292,152,83972,2,0,P|344:148|392:120,1,100,0|8,0:0|0:0,0:0:0:0:
436,104,84450,2,8,L|436:224,1,100
436,260,84928,1,8,0:0:0:0:
436,316,85088,6,0,P|392:336|292:308,1,150,4|8,0:0|0:0,0:0:0:0:
256,212,85885,2,8,L|200:244,1,50
108,276,86363,2,0,P|115:202|75:140,1,150,4|8,0:0|0:0,0:0:0:0:
60,32,87160,2,8,L|0:28,2,50
116,40,87638,6,0,P|180:48|276:36,1,150,4|8,0:0|0:0,0:0:0:0:
336,120,88435,2,8,L|308:168,1,50
244,252,88914,2,0,P|224:300|288:372,1,150,4|8,0:0|0:0,0:0:0:0:
388,348,89711,2,8,L|410:303,1,50
452,268,90029,2,8,L|474:223,1,50
512,184,90348,6,0,P|488:140|428:108,1,100,12|8,0:0|0:0,0:0:0:0:
392,104,90826,2,0,P|343:113|295:99,1,100,12|8,0:0|0:0,0:0:0:0:
244,76,91305,2,0,L|192:108,1,50,12|12,0:0|0:0,0:0:0:0:
256,192,91623,12,0,92899,0:0:0:0:
