osu file format v14

[General]
AudioFilename: Neptune~.mp3
AudioLeadIn: 0
PreviewTime: 59025
Countdown: 0
SampleSet: Soft
StackLeniency: 0.7
Mode: 0
LetterboxInBreaks: 0
WidescreenStoryboard: 0

[Editor]
Bookmarks: 52729
DistanceSpacing: 1.2
BeatDivisor: 4
GridSize: 4
TimelineZoom: 1.2

[Metadata]
Title:Dimension tripper!!!!
TitleUnicode:Dimension tripper!!!!
Artist:nao
ArtistUnicode:nao
Creator:[Sc4v4ng3r]
Version:Hard
Source:超次元ゲイム ネプテューヌ
Tags:ディメンション・トリッパー Hyperdimension Neptunia: The Animation Choujigen Game Neptune PV version Noire Blanc Vert Purple_Heart Black_Heart White_Heart Green_Heart Compile_Heart OP Doyak Gear walaowey
BeatmapID:790371
BeatmapSetID:359479

[Difficulty]
HPDrainRate:5
CircleSize:4
OverallDifficulty:6
ApproachRate:7
SliderMultiplier:1.4
SliderTickRate:1

[Events]
//Background and Video events
Video,-289,"video1.avi"
0,0,"BG.jpg",0,0
//Break Periods
//Storyboard Layer 0 (Background)
//Storyboard Layer 1 (Fail)
//Storyboard Layer 2 (Pass)
//Storyboard Layer 3 (Foreground)
//Storyboard Sound Samples

[TimingPoints]
1082,318.809776833156,4,2,1,50,1,0
6023,-100,4,2,1,70,0,0
29137,-100,4,2,1,60,0,0
33760,-100,4,2,1,25,0,0
33919,-100,4,2,1,60,0,0
39339,-100,4,2,1,70,0,0
59583,-100,4,2,1,85,0,1
79987,-100,4,2,1,70,0,0

[Colours]
Combo1 : 255,255,70
Combo2 : 255,89,255
Combo3 : 0,0,98
Combo4 : 202,101,0

[HitObjects]
52,100,1082,6,0,P|112:132|180:104,1,140,2|0,0:0|0:0,0:0:0:0:
244,60,1560,1,0,0:0:0:0:
324,88,1719,2,0,L|360:160,1,70,2|0,0:0|0:0,0:0:0:0:
428,192,2038,2,0,L|464:264,1,70
432,336,2357,1,2,0:0:0:0:
348,336,2516,2,0,P|308:344|264:328,2,70
312,260,2994,2,0,L|280:197,1,70,2|0,0:0|0:0,0:0:0:0:
196,204,3313,2,0,L|227:266,1,70,2|0,0:0|0:0,0:0:0:0:
160,320,3632,6,0,P|100:308|56:228,1,140,2|0,0:0|0:0,0:0:0:0:
72,164,4110,1,0,0:0:0:0:
144,120,4270,2,0,P|204:108|248:28,1,140,2|0,0:0|0:0,0:0:0:0:
328,24,4748,1,0,0:0:0:0:
404,60,4907,2,0,L|448:115,1,70,2|0,0:0|0:0,0:0:0:0:
492,184,5226,2,0,P|452:196|386:168,1,105,2|0,0:0|0:0,0:0:0:0:
356,156,5545,5,8,0:0:0:0:
292,248,5704,1,8,0:0:0:0:
388,308,5864,1,8,0:0:0:0:
288,356,6023,6,0,P|222:370|166:331,1,140,4|0,0:0|0:0,0:0:0:0:
120,260,6501,2,0,P|160:248|204:260,1,70,8|0,0:0|0:0,0:0:0:0:
244,188,6820,2,0,P|284:200|328:188,2,70,0|0|8,0:0|0:0|0:0,0:0:0:0:
188,124,7298,1,0,0:0:0:0:
104,132,7458,2,0,P|60:168|52:200,2,70,0|0|8,0:0|0:0|0:0,0:0:0:0:
140,56,7936,2,0,L|112:28,2,35,0|8|8,0:0|0:0|0:0,0:0:0:0:
220,48,8255,2,0,P|256:56|292:92,1,70,0|8,0:0|0:0,0:0:0:0:
392,72,8574,6,0,P|408:128|484:184,1,140,4|0,0:0|0:0,0:0:0:0:
424,252,9052,2,0,P|400:277|368:290,1,70,8|0,0:0|0:0,0:0:0:0:
283,290,9371,2,0,P|250:277|226:252,2,70,0|0|8,0:0|0:0|0:0,0:0:0:0:
296,208,9849,1,0,0:0:0:0:
312,124,10008,2,0,P|345:137|369:162,2,70,0|0|8,0:0|0:0|0:0,0:0:0:0:
232,104,10486,2,0,L|224:56,2,35,0|8|8,0:0|0:0|0:0,0:0:0:0:
160,148,10805,2,0,L|64:144,1,70,8|8,0:0|0:0,0:0:0:0:
48,248,11124,6,0,P|58:311|123:368,1,140,4|0,0:0|0:0,0:0:0:0:
195,364,11602,2,0,P|228:352|252:327,1,70,8|0,0:0|0:0,0:0:0:0:
296,256,11921,2,0,P|321:279|333:313,2,70,8|8|8,0:0|0:0|0:0,0:0:0:0:
240,160,12399,2,0,B|268:101|324:105|324:105|341:78,1,140,4|0,0:0|0:0,0:0:0:0:
416,112,12877,2,0,L|371:185,1,70,8|0,0:0|0:0,0:0:0:0:
384,256,13196,2,0,L|420:315,2,70,8|8|8,0:0|0:0|0:0,0:0:0:0:
308,336,13674,6,0,B|208:336|208:336|164:304,1,140,4|0,0:0|0:0,0:0:0:0:
112,256,14153,2,0,L|56:204,1,70,8|0,0:0|0:0,0:0:0:0:
120,148,14472,2,0,L|64:96,2,70,8|8|8,0:0|0:0|0:0,0:0:0:0:
200,228,14950,2,0,B|232:251|232:251|332:251,1,140,4|0,0:0|0:0,0:0:0:0:
415,247,15428,2,0,P|407:213|387:186,1,70,8|0,0:0|0:0,0:0:0:0:
292,124,15747,5,8,0:0:0:0:
180,124,15906,1,8,0:0:0:0:
236,28,16066,1,8,0:0:0:0:
348,28,16225,6,0,P|396:48|448:144,1,140,4|0,0:0|0:0,0:0:0:0:
473,197,16703,2,0,P|465:241|433:269,1,70,8|0,0:0|0:0,0:0:0:0:
392,320,17022,2,0,L|292:320,2,70,0|0|8,0:0|0:0|0:0,0:0:0:0:
449,259,17500,1,0,0:0:0:0:
368,232,17660,2,0,L|268:232,2,70,0|0|8,0:0|0:0|0:0,0:0:0:0:
428,172,18138,2,0,L|484:172,2,35,0|8|8,0:0|0:0|0:0,0:0:0:0:
364,116,18457,2,0,L|294:116,1,70,0|8,0:0|0:0,0:0:0:0:
184,120,18775,6,0,B|184:172|228:206|228:206|192:236,1,140,4|0,0:0|0:0,0:0:0:0:
112,228,19254,2,0,P|84:172|80:144,1,70,8|0,0:0|0:0,0:0:0:0:
40,92,19572,2,0,P|29:58|10:29,2,70,0|0|8,0:0|0:0|0:0,0:0:0:0:
120,60,20051,1,0,0:0:0:0:
200,28,20210,2,0,L|269:20,2,70,0|0|8,0:0|0:0|0:0,0:0:0:0:
192,112,20688,2,0,L|168:148,2,35,0|8|8,0:0|0:0|0:0,0:0:0:0:
276,96,21007,2,0,L|345:104,1,70,8|8,0:0|0:0,0:0:0:0:
456,120,21326,6,0,B|448:180|400:204|400:204|420:231,1,140,4|0,0:0|0:0,0:0:0:0:
480,287,21804,2,0,P|450:306|416:312,1,70,8|0,0:0|0:0,0:0:0:0:
332,308,22123,2,0,P|338:342|356:371,2,70,8|8|8,0:0|0:0|0:0,0:0:0:0:
312,196,22601,2,0,P|292:160|184:132,1,140,4|0,0:0|0:0,0:0:0:0:
124,160,23079,2,0,L|80:228,1,70,8|0,0:0|0:0,0:0:0:0:
88,304,23398,2,8,L|44:372,2,70
200,328,23876,6,0,L|338:348,1,140,4|0,0:0|0:0,0:0:0:0:
424,356,24355,2,0,P|421:323|402:290,1,70,8|0,0:0|0:0,0:0:0:0:
355,224,24673,2,8,P|338:193|335:159,2,70
400,116,25152,2,0,P|339:82|263:131,1,140,4|0,0:0|0:0,0:0:0:0:
208,156,25630,2,0,L|138:156,1,70,8|0,0:0|0:0,0:0:0:0:
72,208,25949,2,8,P|56:176|60:132,2,70
168,272,26427,6,0,B|208:308|208:308|296:308,1,140,4|0,0:0|0:0,0:0:0:0:
380,308,26905,2,0,P|424:300|456:256,1,70,8|0,0:0|0:0,0:0:0:0:
500,204,27224,5,8,0:0:0:0:
416,136,27383,1,8,0:0:0:0:
336,208,27543,1,8,0:0:0:0:
252,140,27702,6,0,P|208:104|60:156,1,210,4|0,0:0|0:0,0:0:0:0:
36,216,28340,2,0,L|0:216,2,35,0|0|8,0:0|0:0|0:0,0:0:0:0:
84,284,28659,2,0,B|112:320|144:320|144:320|224:320,1,140,8|0,0:0|0:0,0:0:0:0:
324,296,29137,6,0,L|384:232,1,70,6|0,0:0|0:0,0:0:0:0:
332,172,29456,2,0,L|284:223,1,70
204,191,29774,2,0,L|251:139,2,70,2|0|0,0:0|0:0|0:0,0:0:0:0:
144,252,30253,2,0,P|121:212|163:115,1,140
212,72,30731,2,0,P|241:61|298:78,1,70
360,96,31050,2,0,L|456:80,2,70,2|0|0,0:0|0:0|0:0,0:0:0:0:
332,172,31528,1,0,0:0:0:0:
304,252,31687,6,0,L|208:268,2,70,2|0|0,0:0|0:0|0:0,0:0:0:0:
388,240,32165,2,0,P|428:276|400:360,1,140
332,380,32644,2,0,L|262:376,1,70
196,328,32962,2,0,L|104:332,1,70,2|0,0:0|0:0,0:0:0:0:
64,272,33281,1,0,0:0:0:0:
116,204,33441,1,0,0:0:0:0:
92,124,33600,2,0,L|184:128,1,70,2|4,0:0|0:0,0:0:0:0:
228,76,33919,2,0,L|320:80,1,70
340,80,34158,1,0,0:0:0:0:
340,80,34238,6,0,L|409:76,1,70,2|0,0:0|0:0,0:0:0:0:
436,156,34557,2,0,L|367:160,1,70
352,244,34875,2,0,L|421:240,2,70,2|0|0,0:0|0:0|0:0,0:0:0:0:
268,244,35354,2,0,B|232:184|232:184|260:120,1,140
248,36,35832,2,0,L|179:40,1,70
116,96,36151,2,0,L|47:92,2,70,2|0|0,0:0|0:0|0:0,0:0:0:0:
152,172,36629,1,0,0:0:0:0:
116,248,36788,6,0,L|112:317,1,70,2|0,0:0|0:0,0:0:0:0:
212,268,37107,2,0,L|208:337,1,70
304,284,37426,2,0,L|344:280,3,35,2|0|0|0,0:0|0:0|0:0|0:0,0:0:0:0:
368,252,37745,2,0,L|408:248,3,35
444,244,38063,6,0,P|472:216|488:176,1,70
484,80,38382,2,0,L|328:92,1,140,12|0,0:0|0:0,0:0:0:0:
260,100,38860,1,0,0:0:0:0:
312,192,39020,2,0,L|216:200,1,70,12|0,0:0|0:0,0:0:0:0:
136,204,39339,6,0,L|40:212,1,70,4|0,0:0|0:0,0:0:0:0:
48,292,39657,2,0,L|117:286,1,70,8|0,0:0|0:0,0:0:0:0:
140,368,39976,2,0,L|70:373,2,70,0|0|8,0:0|0:0|0:0,0:0:0:0:
224,360,40455,2,0,B|244:292|244:292|222:226,1,140
200,144,40933,2,0,P|248:144|280:164,1,70,8|0,0:0|0:0,0:0:0:0:
344,188,41252,2,0,P|376:200|411:197,2,70,0|0|8,0:0|0:0|0:0,0:0:0:0:
386,115,41730,1,0,0:0:0:0:
431,44,41889,6,0,P|398:31|363:34,2,70,0|0|8,0:0|0:0|0:0,0:0:0:0:
468,120,42367,2,0,L|492:200,1,70
460,268,42686,2,0,L|436:348,1,70,0|8,0:0|0:0,0:0:0:0:
356,322,43005,2,0,B|371:268|371:268|320:284|293:255,1,140
244,188,43483,2,0,P|220:216|212:260,1,70,8|0,0:0|0:0,0:0:0:0:
164,336,43802,1,8,0:0:0:0:
100,260,43961,2,0,L|52:260,2,35,8|8|8,0:0|0:0|0:0,0:0:0:0:
148,156,44280,6,0,P|176:124|192:24,1,140,4|0,0:0|0:0,0:0:0:0:
276,20,44758,2,0,L|352:32,1,70,8|0,0:0|0:0,0:0:0:0:
396,100,45077,2,0,L|465:110,2,70,0|0|8,0:0|0:0|0:0,0:0:0:0:
336,196,45555,2,0,P|308:228|292:328,1,140,4|0,0:0|0:0,0:0:0:0:
216,360,46034,2,0,P|180:364|144:384,1,70,8|0,0:0|0:0,0:0:0:0:
84,324,46352,2,0,P|68:292|64:258,2,70,0|0|8,0:0|0:0|0:0,0:0:0:0:
136,220,46831,6,0,P|80:180|4:208,1,140,4|0,0:0|0:0,0:0:0:0:
0,108,47309,2,0,L|136:79,1,140,8|0,0:0|0:0,0:0:0:0:
192,144,47787,2,0,L|272:128,2,70,0|8|0,0:0|0:0|0:0,0:0:0:0:
264,232,48265,2,0,L|332:218,2,70,12|8|8,0:0|0:0|0:0,0:0:0:0:
224,340,48744,2,0,L|360:311,1,140,12|8,0:0|0:0,0:0:0:0:
472,280,49222,2,0,P|460:236|464:200,1,70,8|8,0:0|0:0,0:0:0:0:
464,96,49541,6,0,P|464:61|453:28,1,70,4|0,0:0|0:0,0:0:0:0:
348,28,49859,2,0,L|256:28,1,70,8|0,0:0|0:0,0:0:0:0:
240,128,50178,2,0,L|310:128,1,70,8|0,0:0|0:0,0:0:0:0:
400,184,50497,1,8,0:0:0:0:
312,240,50656,2,8,B|216:240|216:240|176:212,2,140
412,376,51613,2,8,L|320:376,1,70
228,376,51932,6,0,P|168:372|100:304,1,140,4|0,0:0|0:0,0:0:0:0:
76,244,52410,2,0,L|76:164,1,70,8|0,0:0|0:0,0:0:0:0:
136,116,52729,2,0,L|136:36,2,70,0|0|8,0:0|0:0|0:0,0:0:0:0:
248,136,53207,2,0,P|320:148|396:132,1,140,4|0,0:0|0:0,0:0:0:0:
468,120,53685,2,0,L|468:192,1,70,8|0,0:0|0:0,0:0:0:0:
400,236,54004,2,0,L|400:308,2,70,0|0|8,0:0|0:0|0:0,0:0:0:0:
292,228,54482,1,8,0:0:0:0:
176,244,54642,6,0,L|76:244,1,70,4|0,0:0|0:0,0:0:0:0:
56,152,54960,2,0,L|126:152,1,70,8|0,0:0|0:0,0:0:0:0:
176,60,55279,2,0,L|106:60,2,70,8|0|8,0:0|0:0|0:0,0:0:0:0:
276,92,55757,2,0,L|420:92,1,140,8|8,0:0|0:0,0:0:0:0:
496,160,56236,2,0,P|480:220|504:300,1,140,8|8,0:0|0:0,0:0:0:0:
400,336,56714,2,8,L|332:356,1,70
220,336,57033,6,0,P|200:288|236:212,1,140,4|8,0:0|0:0,0:0:0:0:
324,176,57511,2,8,P|364:184|408:176,1,70,8|0,0:0|0:0,0:0:0:0:
435,275,57830,2,8,L|395:343,1,70,8|0,0:0|0:0,0:0:0:0:
288,340,58148,2,8,P|248:332|204:340,1,70,8|0,0:0|0:0,0:0:0:0:
108,336,58467,5,12,0:0:0:0:
64,232,58627,1,12,0:0:0:0:
104,128,58786,1,12,0:0:0:0:
104,128,59105,6,8,P|152:140|184:128,1,70
328,80,59583,6,0,L|404:232,1,140,4|0,0:0|0:0,0:0:0:0:
328,260,60061,2,0,L|296:197,1,70,8|0,0:0|0:0,0:0:0:0:
248,128,60380,2,0,L|216:190,2,70,0|0|8,0:0|0:0|0:0,0:0:0:0:
140,152,60858,2,0,P|133:210|208:276,1,140,4|0,0:0|0:0,0:0:0:0:
256,312,61337,2,0,L|332:344,1,70,8|0,0:0|0:0,0:0:0:0:
404,336,61655,2,0,L|468:308,2,70,0|0|8,0:0|0:0|0:0,0:0:0:0:
356,236,62134,6,0,L|356:80,1,140,4|0,0:0|0:0,0:0:0:0:
280,60,62612,2,0,B|280:160|280:160|256:208,1,140,8|0,0:0|0:0,0:0:0:0:
196,248,63090,2,0,L|124:248,1,70,0|8,0:0|0:0,0:0:0:0:
196,328,63409,2,0,L|344:328,1,140,4|0,0:0|0:0,0:0:0:0:
420,328,63887,2,0,P|432:252|420:184,1,140,8|0,0:0|0:0,0:0:0:0:
372,92,64365,2,8,L|300:116,1,70
208,64,64684,6,0,L|64:36,1,140,4|0,0:0|0:0,0:0:0:0:
36,112,65162,2,0,B|131:130|131:130|156:168,1,140,8|0,0:0|0:0,0:0:0:0:
200,240,65640,2,0,L|240:304,1,70,0|8,0:0|0:0,0:0:0:0:
348,288,65959,2,0,L|270:171,1,140,4|0,0:0|0:0,0:0:0:0:
232,96,66438,2,0,P|300:92|354:171,1,140,8|0,0:0|0:0,0:0:0:0:
396,208,66916,2,0,P|424:236|464:244,1,70,0|8,0:0|0:0,0:0:0:0:
348,288,67235,6,0,L|208:298,1,140,4|0,0:0|0:0,0:0:0:0:
123,303,67713,2,0,P|144:241|208:212,1,140,8|0,0:0|0:0,0:0:0:0:
292,208,68191,2,0,L|332:144,1,70,0|8,0:0|0:0,0:0:0:0:
368,44,68510,2,0,P|304:52|208:48,1,140,4|0,0:0|0:0,0:0:0:0:
156,92,68988,2,0,L|118:151,1,70,8|0,0:0|0:0,0:0:0:0:
60,248,69307,5,8,0:0:0:0:
144,320,69466,1,8,0:0:0:0:
228,248,69626,1,8,0:0:0:0:
312,320,69785,6,0,B|360:364|360:364|440:364,1,140,4|0,0:0|0:0,0:0:0:0:
500,308,70263,2,0,L|473:243,1,70,8|0,0:0|0:0,0:0:0:0:
468,160,70582,2,0,L|494:95,1,70
432,40,70901,1,8,0:0:0:0:
360,128,71060,2,0,L|212:128,1,140,4|0,0:0|0:0,0:0:0:0:
136,132,71538,2,0,P|148:176|176:200,1,70,8|0,0:0|0:0,0:0:0:0:
232,244,71857,2,0,P|253:270|260:304,1,70
176,308,72176,1,8,0:0:0:0:
88,248,72335,6,0,P|60:212|40:112,1,140,4|0,0:0|0:0,0:0:0:0:
120,92,72814,2,0,P|148:128|168:228,1,140,8|0,0:0|0:0,0:0:0:0:
160,304,73292,1,0,0:0:0:0:
236,272,73451,1,8,0:0:0:0:
320,200,73611,2,0,P|292:164|272:64,1,140,4|0,0:0|0:0,0:0:0:0:
352,44,74089,2,0,P|380:80|400:180,1,140,8|8,0:0|0:0,0:0:0:0:
384,284,74567,1,8,0:0:0:0:
272,280,74727,1,8,0:0:0:0:
172,332,74886,6,0,L|24:356,1,140,4|0,0:0|0:0,0:0:0:0:
0,276,75364,2,0,L|69:264,1,70,8|0,0:0|0:0,0:0:0:0:
80,180,75683,2,0,L|10:191,2,70,8|0|8,0:0|0:0|0:0,0:0:0:0:
192,160,76161,2,0,P|228:132|260:40,1,140,4|0,0:0|0:0,0:0:0:0:
344,28,76639,2,0,L|432:32,1,70,8|0,0:0|0:0,0:0:0:0:
436,112,76958,2,0,L|366:108,2,70,8|0|8,0:0|0:0|0:0,0:0:0:0:
468,220,77436,6,0,B|368:216|368:216|332:244,1,140,4|0,0:0|0:0,0:0:0:0:
220,264,77915,2,0,L|128:264,1,70,8|0,0:0|0:0,0:0:0:0:
56,204,78233,1,8,0:0:0:0:
156,152,78393,1,8,0:0:0:0:
56,104,78552,1,8,0:0:0:0:
156,56,78712,6,0,L|312:56,1,140,4|2,0:0|0:0,0:0:0:0:
356,116,79190,2,2,P|360:156|356:188,1,70
304,280,79509,1,8,0:0:0:0:
412,280,79668,1,8,0:0:0:0:
200,352,79987,6,0,P|156:304|172:212,1,140,4|0,0:0|0:0,0:0:0:0:
176,148,80465,2,0,L|108:124,1,70,8|0,0:0|0:0,0:0:0:0:
68,52,80784,2,0,L|0:28,2,70,0|0|8,0:0|0:0|0:0,0:0:0:0:
148,32,81262,1,0,0:0:0:0:
220,76,81422,2,0,L|286:99,2,70,0|0|8,0:0|0:0|0:0,0:0:0:0:
176,148,81900,2,0,L|160:192,2,35,0|8|8,0:0|0:0|0:0,0:0:0:0:
256,176,82219,2,0,L|322:199,1,70,0|8,0:0|0:0,0:0:0:0:
428,232,82537,6,0,P|440:188|420:84,1,140,4|0,0:0|0:0,0:0:0:0:
368,32,83016,2,0,P|316:36|296:32,1,70,8|0,0:0|0:0,0:0:0:0:
232,80,83334,2,0,P|197:75|162:80,2,70,0|0|8,0:0|0:0|0:0,0:0:0:0:
296,136,83813,1,0,0:0:0:0:
356,196,83972,2,0,P|390:200|425:195,2,70,0|0|8,0:0|0:0|0:0,0:0:0:0:
296,252,84450,2,0,L|296:300,2,35,0|8|8,0:0|0:0|0:0,0:0:0:0:
232,196,84769,2,0,P|197:191|162:196,1,70,8|8,0:0|0:0,0:0:0:0:
64,252,85088,6,0,P|76:300|156:372,1,140,4|0,0:0|0:0,0:0:0:0:
220,384,85566,2,0,L|316:376,1,70,8|0,0:0|0:0,0:0:0:0:
368,344,85885,2,0,L|464:336,1,70,8|8,0:0|0:0,0:0:0:0:
496,276,86204,1,8,0:0:0:0:
428,188,86363,2,0,P|416:140|336:68,1,140,4|0,0:0|0:0,0:0:0:0:
280,36,86841,2,0,L|210:41,1,70,8|0,0:0|0:0,0:0:0:0:
156,144,87160,2,0,L|225:138,1,70,8|8,0:0|0:0,0:0:0:0:
292,228,87479,1,8,0:0:0:0:
228,320,87638,6,0,L|80:308,1,140,4|0,0:0|0:0,0:0:0:0:
36,240,88117,2,0,L|48:164,1,70,8|0,0:0|0:0,0:0:0:0:
76,92,88435,2,0,L|65:22,1,70,8|8,0:0|0:0,0:0:0:0:
148,32,88754,1,8,0:0:0:0:
156,144,88914,2,0,L|180:288,1,140,4|0,0:0|0:0,0:0:0:0:
268,328,89392,2,0,P|312:328|344:316,1,70,8|0,0:0|0:0,0:0:0:0:
388,216,89711,2,0,P|344:216|312:228,1,70,8|8,0:0|0:0,0:0:0:0:
248,132,90029,2,0,P|292:132|324:120,1,70,8|8,0:0|0:0,0:0:0:0:
436,144,90348,6,0,P|462:171|437:288,1,140,12|8,0:0|0:0,0:0:0:0:
344,292,90826,2,0,P|296:284|204:332,1,140,12|8,0:0|0:0,0:0:0:0:
116,380,91305,1,12,0:0:0:0:
52,284,91464,1,12,0:0:0:0:
256,192,91544,12,0,92899,0:0:0:0:
