osu file format v9

[General]
AudioFilename: nao - Deep Blue Tiferet.mp3
AudioLeadIn: 250
PreviewTime: 62852
Countdown: 0
SampleSet: Soft
StackLeniency: 0.4
Mode: 0
LetterboxInBreaks: 1

[Editor]
Bookmarks: 18697,32218,45739,62641,76162,93063,109965
DistanceSpacing: 0.8
BeatDivisor: 4
GridSize: 4

[Metadata]
Title:Deep Blue Tiferet
Artist:nao
Creator:ykcarrot
Version:Insane
Source:CROSS CHANNEL ~In memory of all people~
Tags:XBOX360

[Difficulty]
HPDrainRate:7
CircleSize:5
OverallDifficulty:7
ApproachRate:8
SliderMultiplier:2
SliderTickRate:1

[Events]
//Background and Video events
0,0,"CCBG.jpg"
Video,680,"CCBGV.avi"
//Break Periods
2,94953,99074
//Storyboard Layer 0 (Background)
//Storyboard Layer 1 (Fail)
//Storyboard Layer 2 (Pass)
//Storyboard Layer 3 (Foreground)
//Storyboard Sound Samples
//Background Colour Transformations
3,100,255,255,255

[TimingPoints]
1796,422.535211267606,4,2,1,80,1,0
18380,-100,4,2,0,70,0,0
43098,-100,4,2,0,60,0,0
44577,-100,4,2,0,70,0,0
45845,-100,4,2,2,70,0,0
62112,-100,4,2,0,70,0,0
62641,-100,4,2,2,80,0,1
75634,-100,4,2,0,80,0,1
76373,-100,4,2,2,80,0,1
93063,-100,4,2,2,80,0,0
93169,-100,4,2,1,60,0,0
94753,-100,4,2,1,80,0,0
107957,-100,4,2,1,70,0,0
116725,-100,4,2,1,0,0,0

[Colours]
Combo1 : 0,0,79
Combo2 : 255,89,89
Combo3 : 0,128,192

[HitObjects]
440,88,1796,1,4
360,144,2007,1,2
320,176,2112,1,0
280,208,2218,1,0
184,208,2429,1,2
104,152,2641,2,0,B|104:40,2,100,0|2|0
24,208,3274,1,6
184,336,3486,5,4
328,336,3697,1,2
184,264,3908,1,0
328,264,4119,1,2
184,192,4331,1,0
328,192,4542,1,2
184,120,4753,1,0
328,120,4965,1,6
256,304,5176,5,4
160,304,5387,1,2
120,272,5493,1,0
80,240,5598,1,0
0,176,5810,1,2
80,112,6021,2,0,B|80:-8,2,100,0|2|0
160,176,6655,1,6
360,176,6866,5,4
360,80,7077,1,2
408,96,7183,1,0
440,136,7288,1,0
440,240,7500,1,2
360,304,7711,1,8
280,240,7922,1,2
200,304,8134,1,8
120,240,8345,1,10
120,40,8556,5,4
64,120,8767,2,0,B|16:120,2,50,2|0|8
168,120,9190,1,2
256,72,9401,1,0
344,120,9612,1,2
256,168,9824,1,0
168,120,10035,1,6
344,216,10246,6,0,B|372:232|372:296|336:308,1,100,4|2
168,304,10669,2,0,B|140:288|140:224|176:212,1,100,8|2
256,72,11091,2,0,B|256:184,2,100,0|2|0
256,72,11725,1,6
256,272,11936,5,4
344,320,12148,2,0,B|344:376,2,50,2|0|8
344,224,12570,1,2
432,272,12781,1,0
344,320,12993,1,2
256,272,13204,1,8
256,176,13415,1,2
176,120,13626,5,0
88,72,13838,2,0,B|88:16,2,50,2|0|8
88,168,14260,1,2
0,120,14472,1,0
88,72,14683,1,2
176,120,14894,1,8
176,216,15105,1,6
352,304,15317,5,4
256,336,15528,1,2
208,352,15634,1,0
160,336,15739,1,8
64,304,15950,1,2
144,248,16162,1,0
64,192,16373,1,2
144,136,16584,1,8
64,80,16796,1,6
256,24,17007,5,4
320,96,17218,1,2
368,112,17324,1,0
416,96,17429,1,8
480,24,17641,1,2
480,120,17852,1,8
432,208,18063,1,2
352,264,18274,1,8
248,264,18486,5,0
200,352,18697,1,6
104,352,18908,1,0
56,264,19119,1,0
152,264,19331,2,0,B|152:144,1,100
152,64,19753,1,0
256,64,19965,1,0
152,64,20176,2,0,B|96:64|64:120,2,100,0|2|0
256,64,20810,5,0
352,64,21021,2,0,B|408:64|448:120,1,100,0|2
432,256,21443,2,0,B|376:256|336:200,1,100
352,64,21866,1,0
352,64,22077,2,0,B|240:64|176:168,1,200,2|0
128,240,22711,1,0
88,272,22817,1,0
48,240,22922,1,0
48,136,23134,6,0,B|0:104|0:40,2,100
144,136,23767,2,0,B|240:88|336:136,1,200,2|0
392,224,24401,2,0,B|440:208|440:136,1,100
336,136,24824,2,0,B|288:152|288:224,2,100,0|2|0
440,144,25457,1,2
440,344,25880,5,0
344,344,26091,1,0
248,344,26303,2,0,B|136:344|80:240,1,200
48,152,26936,2,0,B|24:104|48:56,1,100,0|2
136,104,27359,2,0,B|184:80|232:104,2,100
184,192,27993,1,0
232,280,28204,2,0,B|184:304|136:280,1,100
184,192,28626,1,0
232,104,28838,6,0,B|248:40|304:32|360:40|376:104,1,200,2|0
304,176,29472,2,0,B|280:224|304:272,2,100
392,224,30105,1,2
480,272,30317,2,0,B|504:224|480:176,2,100,2|0|2
392,224,30950,1,2
304,272,31162,2,0,B|280:224|304:176,2,100,0|2|0
392,224,31796,1,2
392,128,32007,5,0
392,32,32218,2,0,B|456:32|480:96,2,100,6|0|0
288,32,32852,2,0,B|176:32,1,100
88,32,33274,1,0
136,120,33486,1,0
184,208,33697,2,0,B|136:232|88:208,2,100,0|2|0
240,120,34331,5,0
336,88,34542,2,0,B|336:200,1,100,0|2
408,56,34965,2,0,B|408:168,1,100
480,24,35387,1,0
480,24,35598,2,0,B|480:232,1,200,2|0
480,328,36232,1,0
432,344,36338,1,0
384,328,36443,1,0
296,272,36655,5,0
216,336,36866,1,0
136,272,37077,1,0
216,208,37288,2,0,B|280:200|280:48|208:48,1,200,2|0
120,48,37922,2,0,B|64:64|64:120,1,100,0|2
112,208,38345,2,0,B|64:240|16:208,2,100,0|2|0
232,120,38979,5,2
232,216,39190,2,0,B|240:280|304:280,1,100
368,144,39612,2,0,B|360:80|296:80,2,100,2|0|0
296,280,40246,2,0,B|304:344|368:344,1,100,2|0
432,216,40669,5,2
368,144,40880,2,0,B|320:120|272:144,1,100
144,224,41303,2,0,B|192:248|240:224,2,100,2|0|0
272,144,41936,2,0,B|224:120|176:144,1,100,2|0
120,304,42359,6,0,B|160:352|208:336|208:288|256:256|304:288|304:336|352:352|392:304,1,300,2|0
464,232,43204,1,4
256,16,43521,1,4
48,232,43838,1,4
144,232,44049,2,0,B|256:232|312:136,1,200,4|0
352,48,44683,5,0
400,64,44788,1,0
432,104,44894,1,0
472,192,45105,1,0
408,272,45317,1,0
368,240,45422,1,0
320,240,45528,1,2
280,272,45634,1,2
248,312,45739,6,0,B|192:312|168:240,1,100,6|2
72,272,46162,2,0,B|72:216|120:184,1,100,0|2
32,136,46584,2,0,B|56:80|120:80,1,100,0|2
160,96,46901,2,0,B|232:128|312:96,1,150,0|2
408,80,47429,6,0,B|432:128|408:176,1,100,0|2
360,264,47852,1,0
456,264,48063,1,2
408,176,48274,2,0,B|360:152|312:176,1,100,0|2
264,200,48591,2,0,B|264:288|176:312,1,150,0|2
80,312,49119,6,0,B|32:288|32:232,1,100,0|2
132,228,49542,2,0,B|156:180|132:132,1,100,0|2
80,48,49965,2,0,B|32:72|32:128,1,100,0|2
32,180,50281,2,0,B|208:180,1,150,0|2
256,256,50810,5,0
352,328,51021,1,2
392,304,51126,1,0
400,256,51232,1,0
392,208,51338,1,0
352,184,51443,1,2
256,256,51655,1,0
160,328,51866,1,2
120,304,51971,1,0
112,256,52077,1,0
120,208,52183,1,0
160,184,52288,1,2
256,112,52500,6,0,B|304:80|352:112,1,100,4|2
440,152,52922,1,0
472,248,53134,2,0,B|400:320,1,100,2|0
392,216,53556,2,0,B|312:296,1,100,2|0
312,184,53979,1,2
240,256,54190,6,0,B|192:288|144:256,1,100,0|2
56,216,54612,1,0
24,120,54824,2,0,B|96:48,1,100,2|0
104,152,55246,2,0,B|184:72,1,100,2|0
184,184,55669,1,2
256,112,55880,5,4
328,40,56091,1,2
400,112,56303,1,8
416,208,56514,2,0,B|472:208|496:152,2,100,2|0|2
328,256,57148,1,8
240,208,57359,2,0,B|184:208|160:152,2,100,2|4|2
328,160,57993,1,8
328,256,58204,1,2
328,256,58310,1,8
328,256,58415,1,0
328,352,58626,1,2
224,352,58838,6,0,B|168:352|136:304,1,100,8|2
80,232,59260,1,4
64,184,59366,1,8
80,136,59472,1,2
160,72,59683,1,8
240,136,59894,1,2
288,152,60000,1,8
336,136,60105,1,8
416,72,60317,1,10
456,104,60422,1,8
464,152,60528,1,8
448,300,60739,6,2,B|408:356|312:356|272:300,3,200,4|0|0|0
192,176,62218,1,0
160,136,62324,1,0
112,120,62429,1,2
64,136,62535,1,2
32,176,62641,1,6
256,376,63063,5,8
344,328,63274,1,2
296,240,63486,1,0
384,192,63697,1,2
336,104,63908,1,8
424,56,64119,2,0,B|472:80|520:56,2,100,2|0|2
336,8,64753,5,8
248,56,64965,2,0,B|200:80|200:136,1,100,2|0
200,136,65281,1,8
200,136,65387,1,2
200,232,65598,1,8
152,320,65810,2,0,B|200:344|248:320,2,100,2|0|2
64,272,66443,5,8
64,168,66655,1,2
152,216,66866,1,0
152,120,67077,1,2
184,80,67183,1,8
232,72,67288,1,8
408,96,67500,6,0,B|472:192|408:288,1,200,4|8
256,192,68134,1,8
104,288,68345,2,0,B|40:192|104:96,1,200,4|8
256,192,68979,1,8
256,288,69190,5,2
360,288,69401,2,0,B|416:304|416:272|472:296,2,100,4|2|8
344,192,70035,2,0,B|400:176|416:120,1,100,2|0
256,152,70457,2,0,B|256:40,1,100,2|8
168,192,70880,2,0,B|112:176|96:120,1,100,2|0
152,288,71303,2,0,B|96:304|96:272|40:296,2,100,2|8|2
256,288,71936,1,0
256,288,72042,1,8
256,288,72148,1,2
256,192,72359,5,8
256,96,72570,2,0,B|208:128|160:96,1,100,2|4
80,40,72993,2,0,B|24:56|24:120,1,100,2|8
24,216,73415,1,2
32,264,73521,1,8
64,304,73626,1,0
104,336,73732,1,8
152,352,73838,1,2
256,368,74049,5,8
256,192,74260,1,4
256,192,74683,1,4
256,16,74894,1,8
344,96,75105,5,4
368,144,75211,1,0
384,192,75317,1,0
368,240,75422,1,0
344,288,75528,1,4
168,288,75739,1,0
144,240,75845,1,0
128,192,75951,1,2
144,144,76056,1,2
168,96,76162,1,6
456,232,76584,5,8
368,280,76796,1,2
280,232,77007,1,0
192,184,77218,1,2
104,232,77429,1,8
16,280,77641,2,0,B|16:344|80:368,2,100,2|0|2
16,184,78274,5,8
56,92,78486,2,0,B|104:68|152:92,1,100,2|0
152,92,78803,1,8
152,92,78908,1,2
192,184,79119,1,8
104,232,79331,2,0,B|104:344,2,100,2|0|2
16,184,79965,5,8
56,92,80176,1,2
104,108,80281,1,8
152,92,80387,1,8
256,92,80598,2,0,B|256:200,1,100,4|0
416,276,81021,6,0,B|476:252|476:132|416:108,1,200,4|4
256,192,81655,1,8
96,276,81866,1,4
96,276,82288,5,4
40,192,82500,1,8
96,108,82711,1,0
96,108,82817,1,0
96,108,82922,2,0,B|128:60|188:60,1,100,4|2
280,60,83345,1,8
232,148,83556,1,2
208,192,83662,1,0
232,236,83767,1,0
304,312,83979,6,0,B|256:336|208:312,2,100,2|8|2
376,240,84612,2,0,B|400:192|376:144,1,100,4|2
256,192,85035,1,8
136,240,85246,2,0,B|112:192|136:144,1,100,2|0
208,72,85669,2,0,B|256:48|304:72,2,100,2|8|2
116,116,86303,5,4
80,136,86408,1,0
52,164,86514,1,2
32,200,86619,1,0
28,240,86725,1,8
28,280,86831,1,0
40,316,86936,1,2
64,348,87042,1,0
100,364,87148,5,0
140,360,87253,1,0
176,344,87359,1,2
216,336,87465,1,0
256,332,87570,1,8
296,336,87676,1,0
336,344,87782,1,2
372,360,87888,1,0
412,364,87993,5,0
448,348,88098,1,0
472,316,88204,1,2
484,280,88309,1,0
484,240,88415,1,8
480,200,88521,1,0
460,164,88626,1,2
432,136,88732,1,8
396,116,88837,1,8
304,76,89049,5,2
256,60,89155,1,8
208,76,89260,1,8
256,168,89472,1,2
256,168,89577,1,0
256,168,89683,2,0,B|256:276,1,100,4|2
256,368,90105,1,8
156,368,90317,1,2
108,368,90422,1,8
68,336,90528,1,8
0,260,90739,5,2
100,260,90950,1,8
24,192,91162,1,2
124,192,91373,5,4
256,40,91584,1,4
388,192,91796,1,4
256,40,92007,2,0,B|208:136|304:136|252:240,1,200,4|0
256,232,92535,1,0
256,232,92641,1,0
208,320,92852,2,0,B|256:344|304:320,1,100,0|4
256,192,93169,12,4,94753
432,328,99824,5,4
480,240,100035,1,2
496,192,100141,1,0
480,144,100246,1,8
432,56,100457,1,2
344,104,100669,1,0
256,152,100880,1,2
168,200,101091,1,8
80,248,101303,1,6
256,360,101514,5,4
256,208,101725,1,2
328,344,101936,1,8
328,192,102148,1,2
400,328,102359,1,0
400,176,102570,1,2
472,312,102781,1,8
472,160,102993,1,6
304,272,103204,5,4
208,288,103415,1,2
160,272,103521,1,0
112,256,103626,1,8
160,168,103838,1,2
112,152,103943,1,8
64,136,104049,1,0
112,48,104260,1,2
208,88,104472,1,8
304,48,104683,1,2
400,88,104894,5,0
496,128,105105,1,2
472,168,105211,1,0
448,208,105317,1,8
360,168,105528,1,2
336,208,105634,1,8
312,248,105739,1,0
288,288,105845,1,8
264,328,105950,1,2
160,328,106162,1,8
56,328,106373,1,6
56,128,106584,5,4
104,112,106690,1,8
152,128,106796,1,2
240,176,107007,1,8
312,248,107218,1,2
352,276,107324,1,8
400,276,107429,1,0
444,252,107535,1,8
464,204,107641,1,2
460,156,107746,1,8
424,124,107852,1,0
340,76,108063,5,12
300,60,108169,1,8
256,56,108274,1,12
212,60,108380,1,8
172,76,108486,1,8
140,108,108591,1,8
124,148,108697,1,8
120,192,108803,1,8
124,236,108908,1,8
140,276,109014,1,8
172,308,109119,1,8
212,324,109225,1,8
256,328,109331,1,8
300,324,109436,1,8
340,308,109542,2,0,B|372:288,8,25,8|8|8|8|8|8|8|8|4
256,192,110070,12,0,116725
