osu file format v9

[General]
AudioFilename: nao - Deep Blue Tiferet.mp3
AudioLeadIn: 250
PreviewTime: 62852
Countdown: 0
SampleSet: Soft
StackLeniency: 0.4
Mode: 0
LetterboxInBreaks: 1

[Editor]
Bookmarks: 18697,32218,45739,62641,76162,93063,109965
DistanceSpacing: 1
BeatDivisor: 4
GridSize: 8

[Metadata]
Title:Deep Blue Tiferet
Artist:nao
Creator:ykcarrot
Version:Hard
Source:CROSS CHANNEL ~In memory of all people~
Tags:XBOX360

[Difficulty]
HPDrainRate:6
CircleSize:5
OverallDifficulty:6
ApproachRate:7
SliderMultiplier:1.6
SliderTickRate:1

[Events]
//Background and Video events
0,0,"CCBG.jpg"
Video,680,"CCBGV.avi"
//Break Periods
2,94953,98924
//Storyboard Layer 0 (Background)
//Storyboard Layer 1 (Fail)
//Storyboard Layer 2 (Pass)
//Storyboard Layer 3 (Foreground)
//Storyboard Sound Samples
//Background Colour Transformations
3,100,163,162,255

[TimingPoints]
1796,422.535211267606,4,2,1,80,1,0
18380,-100,4,2,0,70,0,0
43098,-100,4,2,0,60,0,0
44683,-100,4,2,0,70,0,0
45845,-100,4,2,2,70,0,0
62112,-100,4,2,0,70,0,0
62641,-100,4,2,2,80,0,1
75634,-100,4,2,0,80,0,1
76373,-100,4,2,2,80,0,1
93063,-100,4,2,2,80,0,0
93169,-100,4,2,1,60,0,0
94753,-100,4,2,1,80,0,0
108169,-100,4,2,1,70,0,0
116725,-100,4,2,1,0,0,0

[Colours]
Combo1 : 0,0,79
Combo2 : 255,89,89
Combo3 : 0,128,192

[HitObjects]
40,240,1796,1,4
96,184,2007,1,2
96,184,2112,1,0
96,184,2218,1,0
152,240,2429,1,2
208,296,2641,2,0,B|208:376,2,80,0|2|0
264,240,3274,1,4
384,240,3486,6,0,B|448:176,1,80,4|2
360,176,3908,2,0,B|424:112,1,80,0|2
336,112,4331,2,0,B|400:48,2,80,0|2|0
280,168,4965,1,6
160,168,5176,5,4
104,224,5387,1,2
104,224,5493,1,0
104,224,5598,1,0
48,168,5810,1,2
104,112,6021,2,0,B|104:24,2,80,0|2|0
160,168,6655,1,6
280,168,6866,5,4
336,224,7077,2,0,B|336:272,2,40,2|0|0
392,168,7500,1,2
336,112,7711,2,0,B|240:112,1,80,8|2
176,112,8134,2,0,B|256:112,1,80,8|10
256,232,8556,5,4
256,312,8767,2,0,B|256:352,2,40,2|0|8
328,272,9190,1,2
328,192,9401,1,0
256,152,9612,1,2
184,192,9824,1,0
184,272,10035,1,6
64,272,10246,5,4
0,224,10457,1,2
80,208,10669,1,8
16,160,10880,1,2
96,144,11091,1,0
32,96,11303,1,2
112,80,11514,1,0
48,32,11725,1,6
168,32,11936,5,4
224,88,12148,1,2
224,88,12253,1,0
224,88,12359,2,0,B|288:152,1,80,8|2
216,192,12781,2,0,B|160:136,2,80,0|2|8
272,248,13415,1,2
352,248,13626,5,0
432,248,13838,1,2
432,248,13943,1,0
432,248,14049,2,0,B|432:160,1,80,8|2
512,168,14472,2,0,B|512:272,2,80,0|2|8
512,88,15105,1,6
392,88,15317,5,4
320,48,15528,2,0,B|320:0,2,40,2|0|8
248,88,15950,1,2
248,168,16162,1,0
320,208,16373,1,2
392,168,16584,1,8
320,128,16796,1,6
200,128,17007,5,4
128,168,17218,2,0,B|128:216,2,40,2|0|8
56,128,17641,1,2
56,48,17852,1,8
128,8,18063,1,2
200,48,18274,1,8
128,88,18486,5,0
56,128,18697,2,0,B|16:152|16:192,2,80,4|0|0
128,168,19331,2,0,B|164:196|200:168,1,80
272,128,19753,1,0
352,128,19965,1,0
432,128,20176,2,0,B|432:88|392:56,2,80,0|2|0
432,208,20810,5,0
376,264,21021,2,0,B|360:304|312:320|264:304|248:264,2,160
312,216,22077,2,0,B|312:48,2,160,2|0|0
248,264,23134,6,0,B|152:264,2,80
320,304,23767,2,0,B|352:344|432:344|464:304,1,160,2|0
464,224,24401,2,0,B|432:184|352:184|320:224,1,160
248,264,25035,2,0,B|80:264,1,160,2|2
8,120,25880,5,0
48,192,26091,1,0
88,264,26303,2,0,B|176:264|208:176,1,160
248,104,26936,2,0,B|280:32,1,80,0|2
312,112,27359,2,0,B|344:40,1,80
376,120,27781,2,0,B|408:48,1,80
440,128,28204,2,0,B|472:56,2,80
400,200,28838,6,0,B|376:288|320:288|320:288|280:288,1,160,2|0
256,216,29472,1,0
224,288,29683,2,0,B|192:288|192:288|136:288|112:200,1,160,0|2
160,136,30317,1,2
216,80,30528,2,0,B|200:40|152:40,2,80,0|2|2
296,80,31162,2,0,B|312:40|360:40,2,80,0|2|0
352,136,31796,1,2
400,200,32007,5,0
440,272,32218,2,0,B|488:272|504:224,2,80,4|0|0
360,272,32852,2,0,B|272:272,1,80
200,272,33274,1,0
120,256,33486,1,0
72,192,33697,2,0,B|32:216|32:264,2,80,0|2|0
120,128,34331,5,0
200,112,34542,2,0,B|368:112,2,160
152,176,35598,2,0,B|112:160|96:112|112:64|152:48,2,160,2|0|0
232,176,36655,6,0,B|312:176,2,80
152,176,37288,2,0,B|112:208|112:288|152:320,1,160,2|0
232,320,37922,2,0,B|272:288|272:208|232:176,1,160
192,104,38556,1,2
376,192,38979,5,2
376,192,39190,2,0,B|440:192|416:296|488:296,2,160,0|2|0
296,192,40246,2,0,B|208:192,1,80,2|0
136,192,40669,5,2
136,192,40880,2,0,B|72:192|96:296|24:296,2,160,0|2|0
216,192,41936,2,0,B|312:192,1,80,2|0
368,280,42359,6,0,B|344:312|288:312|280:256|232:256|224:312|168:312|144:280,1,240,2|0
88,216,43204,1,4
256,80,43521,1,4
424,216,43838,1,4
344,216,44049,2,0,B|264:216|200:152,1,160,4|0
64,64,44894,6,0,B|24:88|24:136,2,80
144,64,45528,2,0,B|184:88|184:136,2,80,2|6|2
104,136,46162,2,0,B|104:232,1,80,0|2
96,296,46584,2,0,B|24:296|8:224,2,120,0|0|2
176,296,47429,6,0,B|272:296,1,80,0|2
336,296,47852,1,0
368,224,48063,1,2
400,152,48274,2,0,B|464:152|480:232,2,120,0|0|2
320,152,49119,6,0,B|288:128|296:80,1,80,0|2
216,80,49542,2,0,B|224:128|192:152,1,80,0|2
200,232,49965,2,0,B|256:272|312:232,2,120,0|0|2
128,192,50810,6,0,B|128:88|216:80,1,160
256,152,51443,1,2
296,80,51655,2,0,B|384:88|384:192,1,160
384,272,52288,5,2
448,320,52500,2,0,B|432:360|384:376|336:360|320:320,1,160,4|0
304,240,53134,2,0,B|216:240,1,80,2|0
240,320,53556,2,0,B|152:320,1,80,2|0
144,240,53979,5,2
96,304,54190,2,0,B|56:288|40:240|56:192|96:176,1,160
176,176,54824,2,0,B|264:176,1,80,2|0
336,176,55246,2,0,B|256:176,1,80,2|0
176,176,55669,5,2
216,112,55880,1,4
296,112,56091,1,2
336,176,56303,1,8
256,176,56514,2,0,B|256:336,1,160,2|2
256,336,57148,1,8
176,336,57359,2,0,B|88:336,2,80,2|4|2
256,336,57993,1,8
336,336,58204,1,2
336,336,58310,1,8
336,336,58415,1,0
416,336,58626,1,2
456,264,58838,6,0,B|496:224|496:160|456:120,1,160,8|4
456,120,59366,1,8
456,120,59472,1,2
376,112,59683,1,8
296,120,59894,2,0,B|256:160|256:224|296:264,1,160,2|10
376,272,60528,1,8
376,192,60739,6,2,B|208:192,3,160,4|0|0|0
136,192,62218,1,0
112,192,62324,1,0
88,192,62429,1,2
64,192,62535,1,2
40,192,62641,1,6
216,360,63063,6,0,B|256:360|280:320,1,80,8|2
328,256,63486,2,0,B|328:216|288:192,2,80,0|2|8
376,320,64119,2,0,B|416:320|440:280,2,80,2|0|2
296,320,64753,1,8
216,320,64965,2,0,B|120:320|96:224,1,160,2|2
96,152,65598,1,8
96,72,65810,2,0,B|48:72|24:120,2,80,2|0|2
176,72,66443,5,8
216,144,66655,1,2
296,144,66866,1,0
336,72,67077,2,0,B|384:72,2,40,2|8|8
256,72,67500,2,0,B|256:240,1,160,4|8
256,232,68134,1,8
304,296,68345,2,0,B|304:352|256:360|208:352|208:296,1,160,4|8
208,296,68979,1,8
256,232,69190,5,2
176,232,69401,2,0,B|136:216|136:248|96:232,2,80,4|2|8
192,152,70035,2,0,B|144:152|128:104,1,80,2|0
256,112,70457,2,0,B|256:24,1,80,2|8
320,152,70880,2,0,B|368:152|384:104,1,80,2|0
336,232,71303,2,0,B|376:216|376:248|416:232,2,80,2|8|2
256,232,71936,1,0
256,232,72042,1,8
256,232,72148,1,2
256,312,72359,5,8
176,312,72570,2,0,B|140:340|104:312,2,80,2|4|2
140,240,73204,1,8
92,176,73415,1,2
112,160,73521,1,8
140,156,73626,1,0
168,160,73732,1,8
188,176,73838,1,2
256,232,74049,5,8
256,312,74260,1,4
496,192,74683,1,4
256,72,75105,1,4
16,192,75528,1,4
96,192,75739,1,0
120,192,75845,1,0
144,192,75950,1,2
168,192,76056,1,2
192,192,76162,1,6
432,192,76584,6,0,B|432:144|392:128,1,80,8|2
312,128,77007,2,0,B|312:80|352:64,2,80,0|2|8
352,200,77641,2,0,B|352:248|312:264,2,80,2|0|2
272,200,78274,1,8
232,128,78486,2,0,B|144:128|96:216,1,160,2|2
64,280,79119,1,8
144,280,79331,2,0,B|144:328|96:352,2,80,2|0|2
144,200,79965,5,8
184,128,80176,2,0,B|152:96,2,40,2|8|8
264,128,80598,1,4
304,200,80810,1,0
224,200,81021,2,0,B|224:304|336:304,1,160,4|4
320,304,81655,1,8
400,304,81866,1,4
400,304,82288,5,4
464,256,82500,1,8
464,176,82711,1,0
400,128,82922,2,0,B|376:96|328:96|280:96|256:128,2,160,4|8|0
464,176,83979,5,2
464,256,84190,1,8
400,304,84401,1,2
328,344,84612,2,0,B|304:376|256:376|208:376|184:344,1,160,4|8
184,264,85246,2,0,B|184:240|184:240|184:208|216:200,1,80,2|0
296,200,85669,2,0,B|328:208|328:240|328:240|328:272,2,80,2|8|2
256,272,86303,6,0,B|256:360,1,80,4|2
176,344,86725,1,8
120,288,86936,1,2
112,208,87148,1,0
144,136,87359,1,2
216,96,87570,1,8
296,96,87781,1,2
368,136,87993,1,0
400,208,88204,1,2
392,288,88415,1,8
336,344,88626,2,0,B|368:376,2,40,2|8|8
280,288,89049,5,2
280,288,89155,1,8
280,288,89260,1,8
224,232,89472,1,2
224,232,89577,1,0
224,232,89683,2,0,B|200:200|152:200|104:200|80:232,1,160,4|8
24,288,90317,1,2
24,288,90422,1,8
24,288,90528,1,8
80,344,90739,5,2
136,288,90950,1,8
136,208,91162,1,2
160,128,91373,5,4
256,40,91584,1,4
352,128,91796,1,4
256,40,92007,2,0,B|224:120|288:112|256:200,1,160,4|0
257,194,92535,1,0
257,194,92641,1,0
220,268,92852,2,0,B|256:300|292:268,1,80,0|4
256,192,93169,12,4,94753
424,64,99824,5,4
424,144,100035,1,2
424,144,100141,1,0
424,144,100246,2,0,B|424:224,1,80,8|2
504,224,100669,1,0
464,296,100880,1,2
384,296,101091,1,8
344,224,101303,1,6
288,112,101514,5,4
208,112,101725,1,2
248,184,101936,1,8
168,184,102148,1,2
208,256,102359,1,0
128,256,102570,1,2
168,328,102781,1,8
88,328,102993,1,6
40,216,103204,5,4
88,152,103415,2,0,B|48:112,2,40,2|0|8
168,152,103838,1,2
216,216,104049,2,0,B|304:216,2,80,0|2|8
168,280,104683,1,2
216,344,104894,5,0
296,344,105105,2,0,B|328:376,2,40,2|0|8
344,280,105528,1,2
296,216,105739,2,0,B|360:152,2,80,0|2|8
216,216,106373,1,6
96,216,106584,5,4
128,144,106796,1,2
128,144,106901,1,0
128,144,107007,1,8
184,88,107218,1,2
256,56,107429,1,0
328,88,107641,1,2
384,144,107852,1,8
416,216,108063,1,6
360,320,108274,6,0,B|328:288,3,40,12|8|8|8
303,263,108697,2,0,B|271:231,3,40,8|8|8|8
234,234,109119,2,0,B|202:266,3,40,8|8|8|8
177,290,109542,2,0,B|161:306,8,20,8|8|8|8|8|8|8|8|4
256,192,110070,12,0,116725
