osu file format v9

[General]
AudioFilename: nao - Deep Blue Tiferet.mp3
AudioLeadIn: 250
PreviewTime: 62852
Countdown: 0
SampleSet: Soft
StackLeniency: 0.4
Mode: 0
LetterboxInBreaks: 1

[Editor]
Bookmarks: 18697,32218,45739,76162,93063,109965
DistanceSpacing: 1
BeatDivisor: 2
GridSize: 8

[Metadata]
Title:Deep Blue Tiferet
Artist:nao
Creator:ykcarrot
Version:Easy
Source:CROSS CHANNEL ~In memory of all people~
Tags:XBOX360

[Difficulty]
HPDrainRate:2
CircleSize:3
OverallDifficulty:2
ApproachRate:2
SliderMultiplier:0.799999999999999
SliderTickRate:1

[Events]
//Background and Video events
0,0,"CCBG.jpg"
Video,680,"CCBGV.avi"
//Break Periods
2,44671,50940
2,94953,98264
//Storyboard Layer 0 (Background)
//Storyboard Layer 1 (Fail)
//Storyboard Layer 2 (Pass)
//Storyboard Layer 3 (Foreground)
//Storyboard Sound Samples
//Background Colour Transformations
3,100,163,162,255

[TimingPoints]
1796,422.535211267606,4,2,1,80,1,0
18697,-100,4,2,0,70,0,0
42993,-100,4,2,0,60,0,0
44683,-100,4,2,0,70,0,0
55669,-100,4,2,2,70,0,0
60528,-100,4,2,0,70,0,0
62641,-100,4,2,2,80,0,1
65070,-100,4,2,0,80,0,1
65281,-100,4,2,2,80,0,1
70141,-100,4,2,0,80,0,1
70352,-100,4,2,2,80,0,1
71831,-100,4,2,0,80,0,1
72042,-100,4,2,2,80,0,1
75317,-100,4,2,0,80,0,1
76373,-100,4,2,2,80,0,1
78591,-100,4,2,0,80,0,1
78803,-100,4,2,2,80,0,1
83662,-100,4,2,0,80,0,1
83873,-100,4,2,2,80,0,1
85352,-100,4,2,0,80,0,1
85563,-100,4,2,2,80,0,1
87042,-100,4,2,0,80,0,1
87253,-100,4,2,2,80,0,1
88732,-100,4,2,0,80,0,1
88943,-100,4,2,2,80,0,1
93063,-100,4,2,2,80,0,0
93169,-100,4,2,1,60,0,0
94753,-100,4,2,1,80,0,0
108486,-100,4,2,1,70,0,0
116725,-100,4,2,1,0,0,0

[Colours]
Combo1 : 0,0,79
Combo2 : 255,89,89
Combo3 : 0,128,192

[HitObjects]
256,56,1796,1,4
400,304,3274,1,4
400,304,3486,1,4
112,304,4965,1,4
112,304,5176,1,4
256,56,6655,5,4
256,56,6866,1,4
216,208,7711,1,8
296,208,8134,1,8
256,280,8556,5,4
112,32,10035,2,0,B|112:80,1,40,4|4
400,32,11725,2,0,B|400:72,1,40,4|4
400,152,12359,5,8
256,224,13204,1,8
112,152,14049,1,8
256,80,14894,2,0,B|256:24,2,40,8|4|4
256,160,15739,5,8
256,320,16584,2,0,B|256:384,2,40,8|4|4
220,248,17429,2,0,B|256:216|292:248,3,79.9999999999999,8|8|8|4
448,248,19542,5,0
408,96,20387,1,2
256,48,21232,1,0
104,96,22077,2,0,B|64:152|64:256,1,160,2|0
176,360,23767,2,0,B|176:264|336:264|336:360,1,240,2|2
256,368,25457,1,2
336,224,26303,6,0,B|296:192|296:112|336:80,2,160,0|2|0
176,224,28838,2,0,B|216:192|216:112|176:80,1,160,2|0
96,80,30105,6,0,B|56:120,1,40,2|0
96,184,30739,2,0,B|56:224,1,40,2|0
96,288,31373,2,0,B|32:352,2,79.9999999999999,2|2|4
208,176,33063,5,0
256,24,33908,1,2
304,176,34753,1,0
328,336,35598,2,0,B|288:376|224:376|184:336,1,160,2|0
296,216,37288,2,0,B|296:160|296:160|296:120|256:104|216:120|216:160|216:160|216:216,1,240,2|2
216,296,38979,6,0,B|160:312|152:272|80:304,2,120,2|2|2
296,296,40669,2,0,B|352:312|360:272|432:304,2,120,2|2|2
256,224,42359,6,0,B|256:128,1,79.9999999999999,2|0
276,64,43204,2,0,B|312:64|336:88,2,59.9999999999999,4|4|4
236,64,44049,2,0,B|192:64|164:100,1,79.9999999999999,4|0
152,176,52500,6,0,B|152:104|224:96,1,120,4|2
304,96,53556,1,2
360,208,54190,2,0,B|360:280|288:288,1,120,0|2
208,288,55246,1,2
88,288,55880,6,0,B|88:208,1,79.9999999999999,4|8
8,200,56725,2,0,B|8:160|48:136,1,79.9999999999999,0|8
128,136,57570,2,0,B|200:184|280:136,1,160,4|0
352,104,58838,1,8
432,80,59260,6,0,B|496:96|496:168,1,120,4|2
496,248,60317,1,2
416,264,60739,2,2,B|360:288|320:288|312:232|288:176|224:176|200:232|192:288|152:288|96:264,1,360,4|4
16,248,63063,5,8
16,168,63486,2,0,B|16:120|64:96,2,79.9999999999999,0|8|0
88,208,64753,2,0,B|200:272|200:144|320:208,1,240,8|0
376,256,66443,5,8
408,328,66866,1,0
328,344,67288,1,8
328,344,67500,2,0,B|296:384|216:384|184:344,1,160,4|4
104,328,68767,1,8
104,328,68979,1,8
136,256,69401,6,0,B|136:216|176:192|176:192|176:120|176:120|176:48|224:48,1,240,4|8
296,48,71091,2,0,B|336:56|336:120|336:120|336:192|336:192|376:216|376:256,1,240,0|8
296,264,72781,6,0,B|296:312|336:328,2,79.9999999999999,4|8|0
216,264,74049,1,8
216,264,74260,2,0,B|216:312|176:328,2,79.9999999999999,4|4|4
256,192,75528,2,0,B|256:64,1,120,4|4
176,72,76584,5,8
104,112,77007,2,0,B|64:136|64:176,2,79.9999999999999,0|8|0
144,184,78274,2,0,B|192:232|320:232|368:184,1,240,8|0
408,112,79965,5,8
376,40,80387,1,8
376,40,80598,2,0,B|280:40,1,79.9999999999999,4|4
216,40,81443,2,0,B|112:40,2,79.9999999999999,4|4|4
136,128,82922,6,0,B|136:240|216:192|216:272|216:344,1,240,4|8
296,344,84612,2,0,B|296:272|296:192|376:240|376:128,1,240,4|8
408,56,86303,2,0,B|328:0|184:0|104:56,2,320,4|0|4
440,128,90105,6,0,B|488:120|488:64,2,79.9999999999999,8|0|8
360,128,91373,2,0,B|312:128,3,40,4|4|4|4
192,128,92641,1,0
112,128,93063,1,4
256,192,93169,12,4,94753
256,24,99824,5,4
112,264,101303,1,4
112,264,101514,1,4
400,264,102993,1,4
400,264,103204,1,4
352,200,103626,5,8
256,72,104472,1,8
160,200,105317,1,8
256,328,106162,2,0,B|256:376,2,40,8|4|4
256,248,107007,5,8
256,88,107852,2,0,B|256:24,2,40,8|4|4
292,160,108697,2,0,B|256:192|220:160,3,79.9999999999999,8|8|8|4
256,192,110070,12,0,116725
