osu file format v14

[General]
AudioFilename: Blue-Love Chime.mp3
AudioLeadIn: 0
PreviewTime: 88297
Countdown: 0
SampleSet: None
StackLeniency: 0.7
Mode: 1
LetterboxInBreaks: 0
WidescreenStoryboard: 1

[Editor]
Bookmarks: 23897,24297,24697,24897,25297,25497,25697,26097,26497,37897,39297,41097,42497,43897,44097,44297,50697,63497,121097
DistanceSpacing: 2
BeatDivisor: 1
GridSize: 32
TimelineZoom: 0.9

[Metadata]
Title:Blue-Love Chime (Short Ver.)
TitleUnicode:Blue-Love Chime (Short Ver.)
Artist:nao
ArtistUnicode:nao
Creator:JUDYDANNY
Version:Kantan
Source:Amairo Islenauts
Tags:ゆずソフト Yuzusoft 天色 アイルノーツ ビジュアルノベル Visual Novel
BeatmapID:1564368
BeatmapSetID:741516

[Difficulty]
HPDrainRate:6
CircleSize:5
OverallDifficulty:4
ApproachRate:5
SliderMultiplier:1.4
SliderTickRate:1

[Events]
//Background and Video events
0,0,"sha-rii.png",0,120
//Break Periods
//Storyboard Layer 0 (Background)
//Storyboard Layer 1 (Fail)
//Storyboard Layer 2 (Pass)
//Storyboard Layer 3 (Foreground)
//Storyboard Sound Samples

[TimingPoints]
616,479.999999999998,4,1,0,80,1,0
616,-200,4,1,0,80,0,0
8295,-133.333333333333,4,1,0,80,0,0
15495,-125,4,1,0,80,0,0
15735,-117.647058823529,4,1,0,80,0,0
15975,-111.111111111111,4,1,0,80,0,0
21735,465.116279069764,4,1,0,80,1,0
22200,451.127819548869,4,1,0,80,1,8
22200,-95.2380952380952,4,1,0,80,0,0
22651,428.571428571429,4,1,0,100,1,8
22651,-98.0392156862745,4,1,0,100,0,0
23079,419.58041958042,4,1,0,100,1,8
23079,-97.0873786407767,4,1,0,100,0,0
23498,399.999999999998,4,1,0,80,1,0
87497,-95.2380952380952,4,1,0,80,0,0
88297,-92.5925925925926,4,1,0,80,0,0
88697,-89.2857142857143,4,1,0,80,0,0
89097,-86.9565217391304,4,1,0,80,0,1
114697,-86.9565217391304,4,1,0,80,0,0
115097,-100,4,1,0,80,0,0

[HitObjects]
160,160,616,5,2,0:0:0:0:
160,160,2535,1,2,0:0:0:0:
160,160,4455,1,2,0:0:0:0:
160,160,6375,1,2,0:0:0:0:
256,192,6855,12,2,8055,0:0:0:0:
160,96,8295,5,4,0:0:0:0:
160,96,10215,1,0,0:0:0:0:
160,96,12135,1,0,0:0:0:0:
160,96,14055,1,0,0:0:0:0:
160,32,15495,1,0,0:0:0:0:
160,96,15975,1,0,0:0:0:0:
192,32,16935,1,8,0:0:0:0:
160,96,17895,1,0,0:0:0:0:
160,96,18855,1,2,0:0:0:0:
160,96,19815,1,0,0:0:0:0:
160,96,21735,1,0,0:0:0:0:
160,96,22651,1,2,0:0:0:0:
160,96,23079,1,2,0:0:0:0:
160,96,23498,5,4,0:0:0:0:
160,64,24297,1,0,0:0:0:0:
160,96,24697,1,2,0:0:0:0:
160,96,25097,1,0,0:0:0:0:
160,0,25897,1,8,0:0:0:0:
160,96,26697,1,0,0:0:0:0:
160,32,27497,1,0,0:0:0:0:
160,32,27897,1,8,0:0:0:0:
160,32,28297,1,0,0:0:0:0:
160,64,29097,1,8,0:0:0:0:
160,96,29497,1,2,0:0:0:0:
160,96,29897,1,4,0:0:0:0:
160,96,30697,1,0,0:0:0:0:
160,32,31097,1,8,0:0:0:0:
160,96,31497,1,0,0:0:0:0:
192,32,32297,1,8,0:0:0:0:
160,96,33097,1,0,0:0:0:0:
192,32,33897,1,0,0:0:0:0:
160,96,34297,1,2,0:0:0:0:
160,64,34697,1,0,0:0:0:0:
160,32,35497,1,0,0:0:0:0:
160,64,36097,1,6,0:0:0:0:
160,32,37097,1,2,0:0:0:0:
160,32,37497,1,2,0:0:0:0:
160,32,37897,1,4,0:0:0:0:
160,32,38697,1,8,0:0:0:0:
192,0,39497,1,0,0:0:0:0:
160,32,40297,1,8,0:0:0:0:
160,32,41097,1,0,0:0:0:0:
160,32,41497,1,0,0:0:0:0:
160,32,41897,1,8,0:0:0:0:
160,32,42497,1,0,0:0:0:0:
160,32,43497,1,0,0:0:0:0:
160,32,43897,1,8,0:0:0:0:
160,32,44297,1,0,0:0:0:0:
160,32,45097,1,8,0:0:0:0:
160,64,45897,1,0,0:0:0:0:
160,32,46697,1,8,0:0:0:0:
160,32,47497,1,0,0:0:0:0:
160,32,47897,1,0,0:0:0:0:
160,32,48297,1,8,0:0:0:0:
160,32,48897,1,0,0:0:0:0:
160,32,49897,1,2,0:0:0:0:
160,32,50297,1,2,0:0:0:0:
160,32,50697,5,0,0:0:0:0:
160,32,51497,1,0,0:0:0:0:
160,32,52297,1,8,0:0:0:0:
160,32,53097,1,8,0:0:0:0:
160,32,53897,1,0,0:0:0:0:
160,32,54297,1,0,0:0:0:0:
160,32,54697,1,8,0:0:0:0:
160,32,55297,1,0,0:0:0:0:
160,32,56297,1,2,0:0:0:0:
192,64,56697,1,0,0:0:0:0:
160,32,57097,5,0,0:0:0:0:
160,0,57897,1,0,0:0:0:0:
160,0,58697,1,8,0:0:0:0:
160,0,59497,1,8,0:0:0:0:
160,0,60297,1,0,0:0:0:0:
160,0,60697,1,8,0:0:0:0:
160,0,61097,1,0,0:0:0:0:
160,0,61697,1,0,0:0:0:0:
160,0,62697,1,8,0:0:0:0:
160,0,63097,1,2,0:0:0:0:
160,0,63497,1,4,0:0:0:0:
128,64,65097,1,0,0:0:0:0:
128,64,65897,1,0,0:0:0:0:
160,32,66697,1,0,0:0:0:0:
160,32,68297,1,0,0:0:0:0:
160,32,69097,1,8,0:0:0:0:
160,32,69897,1,4,0:0:0:0:
160,32,71497,1,0,0:0:0:0:
160,32,72297,1,0,0:0:0:0:
160,32,73097,1,0,0:0:0:0:
160,32,74697,1,0,0:0:0:0:
160,32,75497,1,2,0:0:0:0:
160,32,76297,1,4,0:0:0:0:
160,32,77097,1,0,0:0:0:0:
160,0,77497,1,8,0:0:0:0:
160,32,77897,1,0,0:0:0:0:
160,0,79497,1,8,0:0:0:0:
160,32,80297,1,0,0:0:0:0:
160,0,80697,1,8,0:0:0:0:
160,32,81097,1,0,0:0:0:0:
192,32,81897,1,8,0:0:0:0:
160,0,82697,1,0,0:0:0:0:
160,32,83497,1,0,0:0:0:0:
160,0,83897,1,0,0:0:0:0:
160,0,84297,1,8,0:0:0:0:
160,32,85097,1,0,0:0:0:0:
160,32,85897,1,2,0:0:0:0:
160,0,86297,1,8,0:0:0:0:
160,0,86697,1,8,0:0:0:0:
160,32,87297,1,6,0:0:0:0:
160,32,89097,1,6,0:0:0:0:
128,64,89897,1,8,0:0:0:0:
192,0,90697,1,0,0:0:0:0:
160,32,91097,1,0,0:0:0:0:
160,32,91497,1,8,0:0:0:0:
160,32,91897,1,8,0:0:0:0:
160,32,92297,1,0,0:0:0:0:
160,0,93097,1,8,0:0:0:0:
160,32,93897,1,0,0:0:0:0:
160,32,94297,1,8,0:0:0:0:
160,32,94697,1,0,0:0:0:0:
160,32,95097,1,8,0:0:0:0:
160,32,95497,1,4,0:0:0:0:
160,32,96297,1,8,0:0:0:0:
160,32,97097,1,0,0:0:0:0:
160,32,97897,1,8,0:0:0:0:
256,192,98697,12,0,100097,0:0:0:0:
192,32,101097,5,0,0:0:0:0:
192,32,101497,1,2,0:0:0:0:
192,32,101897,1,6,0:0:0:0:
192,32,102697,1,0,0:0:0:0:
192,32,103297,1,0,0:0:0:0:
224,32,103697,1,2,0:0:0:0:
224,32,104097,1,0,0:0:0:0:
192,32,104497,1,2,0:0:0:0:
192,32,105097,1,2,0:0:0:0:
192,32,105897,1,0,0:0:0:0:
192,32,106497,1,4,0:0:0:0:
192,32,106897,1,6,0:0:0:0:
192,32,107297,1,6,0:0:0:0:
192,32,107697,1,4,0:0:0:0:
160,32,108297,1,6,0:0:0:0:
160,32,109097,1,2,0:0:0:0:
160,32,109897,1,2,0:0:0:0:
160,32,110297,1,2,0:0:0:0:
160,32,110697,1,2,0:0:0:0:
160,32,111497,1,2,0:0:0:0:
192,64,112297,1,8,0:0:0:0:
160,32,112897,1,6,0:0:0:0:
160,32,113897,1,0,0:0:0:0:
160,32,114297,1,2,0:0:0:0:
160,32,114697,1,4,0:0:0:0:
160,32,115497,1,2,0:0:0:0:
160,32,116297,1,0,0:0:0:0:
128,32,117097,1,8,0:0:0:0:
160,32,117897,1,0,0:0:0:0:
160,32,119497,1,0,0:0:0:0:
160,32,120297,1,2,0:0:0:0:
160,32,120697,1,0,0:0:0:0:
160,32,121097,1,4,0:0:0:0:
160,32,121897,1,0,0:0:0:0:
160,32,122497,1,0,0:0:0:0:
160,32,123497,1,0,0:0:0:0:
160,32,123897,1,2,0:0:0:0:
160,32,124297,1,0,0:0:0:0:
160,32,125097,1,0,0:0:0:0:
160,32,125897,1,0,0:0:0:0:
160,32,126297,1,2,0:0:0:0:
160,32,126697,1,2,0:0:0:0:
160,64,127497,1,12,0:0:0:0:
160,64,128497,1,8,0:0:0:0:
160,64,129297,1,8,0:0:0:0:
160,32,130097,5,8,0:0:0:0:
160,32,130497,5,4,0:0:0:0:
