osu file format v14

[General]
AudioFilename: Blue-Love Chime.mp3
AudioLeadIn: 0
PreviewTime: 88297
Countdown: 0
SampleSet: None
StackLeniency: 0.7
Mode: 1
LetterboxInBreaks: 0
WidescreenStoryboard: 0

[Editor]
Bookmarks: 23897,24297,24697,24897,25297,25497,25697,26097,26497,37897,39297,41097,42497,43897,44097,44297,50697,63497,121097
DistanceSpacing: 2
BeatDivisor: 2
GridSize: 32
TimelineZoom: 1.1

[Metadata]
Title:Blue-Love Chime (Short Ver.)
TitleUnicode:Blue-Love Chime (Short Ver.)
Artist:nao
ArtistUnicode:nao
Creator:JUDYDANNY
Version:Futsuu
Source:Amairo Islenauts
Tags:ゆずソフト Yuzusoft 天色 アイルノーツ ビジュアルノベル Visual Novel
BeatmapID:1564367
BeatmapSetID:741516

[Difficulty]
HPDrainRate:6
CircleSize:5
OverallDifficulty:4
ApproachRate:5
SliderMultiplier:1.4
SliderTickRate:1

[Events]
//Background and Video events
0,0,"sha-rii.png",0,120
//Break Periods
//Storyboard Layer 0 (Background)
//Storyboard Layer 1 (Fail)
//Storyboard Layer 2 (Pass)
//Storyboard Layer 3 (Foreground)
//Storyboard Sound Samples

[TimingPoints]
616,479.999999999998,4,1,0,80,1,0
616,-200,4,1,0,80,0,0
8295,-133.333333333333,4,1,0,80,0,0
15495,-125,4,1,0,80,0,0
15735,-117.647058823529,4,1,0,80,0,0
15975,-111.111111111111,4,1,0,80,0,0
21735,465.116279069764,4,1,0,80,1,0
22200,451.127819548869,4,1,0,80,1,8
22200,-95.2380952380952,4,1,0,80,0,0
22651,428.571428571429,4,1,0,100,1,8
22651,-98.0392156862745,4,1,0,100,0,0
23079,419.58041958042,4,1,0,100,1,8
23079,-97.0873786407767,4,1,0,100,0,0
23498,399.999999999998,4,1,0,80,1,0
87497,-95.2380952380952,4,1,0,80,0,0
88297,-92.5925925925926,4,1,0,80,0,0
88697,-89.2857142857143,4,1,0,80,0,0
89097,-86.9565217391304,4,1,0,80,0,1
114697,-86.9565217391304,4,1,0,80,0,0
115097,-100,4,1,0,80,0,0

[HitObjects]
160,160,616,5,2,0:0:0:0:
160,128,1335,1,2,0:0:0:0:
160,160,2535,1,2,0:0:0:0:
192,96,3255,1,2,0:0:0:0:
160,160,4455,1,2,0:0:0:0:
160,64,5175,1,2,0:0:0:0:
160,160,6375,1,2,0:0:0:0:
256,192,6855,12,2,8055,0:0:0:0:
160,96,8295,5,4,0:0:0:0:
160,96,9015,1,0,0:0:0:0:
166,84,9735,1,0,0:0:0:0:
160,96,10215,1,0,0:0:0:0:
160,96,10935,1,0,0:0:0:0:
166,84,11655,1,0,0:0:0:0:
160,96,12135,1,0,0:0:0:0:
160,96,12855,1,0,0:0:0:0:
166,84,13575,1,0,0:0:0:0:
160,96,14055,1,0,0:0:0:0:
160,96,14775,1,0,0:0:0:0:
160,96,15495,1,0,0:0:0:0:
192,32,15735,1,0,0:0:0:0:
160,96,15975,1,0,0:0:0:0:
160,96,16695,1,2,0:0:0:0:
160,96,17415,1,2,0:0:0:0:
160,96,17895,1,0,0:0:0:0:
160,96,18615,1,2,0:0:0:0:
160,96,19335,1,2,0:0:0:0:
160,96,19815,1,0,0:0:0:0:
160,96,20535,1,2,0:0:0:0:
160,96,21735,1,2,0:0:0:0:
160,96,22651,1,2,0:0:0:0:
192,32,22865,1,0,0:0:0:0:
160,96,23079,1,2,0:0:0:0:
160,96,23498,5,4,0:0:0:0:
162,49,23897,1,2,0:0:0:0:
160,64,24297,1,0,0:0:0:0:
160,96,24697,1,2,0:0:0:0:
160,96,24897,1,0,0:0:0:0:
160,96,25497,1,2,0:0:0:0:
160,0,25897,1,0,0:0:0:0:
160,96,26697,1,0,0:0:0:0:
160,64,27097,1,2,0:0:0:0:
160,96,27497,1,0,0:0:0:0:
192,0,27897,1,2,0:0:0:0:
160,32,28097,1,0,0:0:0:0:
160,32,28697,1,2,0:0:0:0:
160,64,29097,1,0,0:0:0:0:
160,96,29297,1,2,0:0:0:0:
160,96,29497,1,2,0:0:0:0:
160,96,29897,1,4,0:0:0:0:
162,49,30297,1,2,0:0:0:0:
160,96,30697,1,0,0:0:0:0:
160,96,31097,1,2,0:0:0:0:
160,96,31297,1,0,0:0:0:0:
160,96,31897,1,2,0:0:0:0:
192,32,32297,1,0,0:0:0:0:
160,96,33097,1,0,0:0:0:0:
192,32,33497,1,2,0:0:0:0:
160,64,33897,1,0,0:0:0:0:
192,32,34297,1,2,0:0:0:0:
160,64,34497,1,0,0:0:0:0:
160,64,35097,1,2,0:0:0:0:
160,64,35497,1,0,0:0:0:0:
160,64,36097,1,6,0:0:0:0:
160,32,36697,1,2,0:0:0:0:
160,32,37097,1,2,0:0:0:0:
160,32,37297,1,0,0:0:0:0:
160,32,37497,1,2,0:0:0:0:
160,32,37897,1,4,0:0:0:0:
160,32,38297,1,2,0:0:0:0:
160,32,38697,1,0,0:0:0:0:
192,32,39297,1,0,0:0:0:0:
160,32,39697,1,0,0:0:0:0:
160,32,39897,1,2,0:0:0:0:
160,32,40297,1,0,0:0:0:0:
160,32,41097,1,0,0:0:0:0:
160,32,41497,1,2,0:0:0:0:
160,32,41897,1,0,0:0:0:0:
160,32,42497,1,0,0:0:0:0:
160,32,42897,1,0,0:0:0:0:
160,32,43097,1,2,0:0:0:0:
160,32,43497,1,0,0:0:0:0:
192,64,43697,1,0,0:0:0:0:
192,32,43897,1,2,0:0:0:0:
160,32,44297,1,0,0:0:0:0:
192,64,44697,1,2,0:0:0:0:
160,32,45097,1,0,0:0:0:0:
160,64,45697,1,0,0:0:0:0:
160,32,46097,1,0,0:0:0:0:
160,32,46297,1,2,0:0:0:0:
160,32,46697,1,0,0:0:0:0:
160,32,47497,1,0,0:0:0:0:
160,32,47897,1,2,0:0:0:0:
160,32,48297,1,0,0:0:0:0:
160,32,48897,1,0,0:0:0:0:
160,32,49297,1,0,0:0:0:0:
160,32,49497,1,2,0:0:0:0:
160,32,49897,1,2,0:0:0:0:
192,0,50097,1,0,0:0:0:0:
160,32,50297,1,2,0:0:0:0:
160,32,50697,5,0,0:0:0:0:
160,32,51097,1,2,0:0:0:0:
160,32,51297,1,2,0:0:0:0:
160,32,51497,1,0,0:0:0:0:
160,32,51897,1,2,0:0:0:0:
160,32,52097,1,0,0:0:0:0:
160,32,52697,1,2,0:0:0:0:
160,32,52897,1,2,0:0:0:0:
160,32,53097,1,0,0:0:0:0:
160,32,53497,1,2,0:0:0:0:
160,32,53697,1,0,0:0:0:0:
160,32,54297,1,2,0:0:0:0:
160,32,54697,1,0,0:0:0:0:
160,32,55097,1,2,0:0:0:0:
160,32,55297,1,0,0:0:0:0:
160,32,55897,1,2,0:0:0:0:
160,32,56297,1,2,0:0:0:0:
192,64,56697,1,0,0:0:0:0:
160,32,57097,5,0,0:0:0:0:
160,0,57497,1,2,0:0:0:0:
160,0,57697,1,2,0:0:0:0:
160,0,57897,1,0,0:0:0:0:
160,0,58297,1,2,0:0:0:0:
160,0,58497,1,0,0:0:0:0:
160,0,59097,1,2,0:0:0:0:
160,32,59297,1,8,0:0:0:0:
160,0,59497,1,0,0:0:0:0:
160,0,59897,1,2,0:0:0:0:
160,0,60097,1,0,0:0:0:0:
160,0,60697,1,2,0:0:0:0:
160,0,61097,1,0,0:0:0:0:
160,0,61497,1,2,0:0:0:0:
160,0,61697,1,0,0:0:0:0:
160,0,62297,1,2,0:0:0:0:
160,0,62697,1,0,0:0:0:0:
160,0,63097,1,2,0:0:0:0:
160,0,63497,1,4,0:0:0:0:
160,32,64297,1,2,0:0:0:0:
160,32,65497,1,0,0:0:0:0:
160,32,65897,1,0,0:0:0:0:
160,32,66697,1,0,0:0:0:0:
160,32,67497,1,2,0:0:0:0:
160,32,68697,1,0,0:0:0:0:
160,32,69097,1,2,0:0:0:0:
160,32,69897,1,4,0:0:0:0:
160,32,70697,1,2,0:0:0:0:
160,32,71897,1,0,0:0:0:0:
160,32,72297,1,0,0:0:0:0:
160,32,73097,1,0,0:0:0:0:
160,32,73897,1,2,0:0:0:0:
160,32,75097,1,0,0:0:0:0:
160,32,75497,1,2,0:0:0:0:
160,32,75897,1,2,0:0:0:0:
160,32,76297,1,4,0:0:0:0:
167,28,76697,1,2,0:0:0:0:
160,32,77097,1,0,0:0:0:0:
160,32,77497,1,2,0:0:0:0:
160,32,77697,1,0,0:0:0:0:
160,32,78297,1,2,0:0:0:0:
160,32,78697,1,0,0:0:0:0:
160,32,78897,1,0,0:0:0:0:
160,32,79097,1,2,0:0:0:0:
160,32,79497,1,0,0:0:0:0:
160,32,79897,1,2,0:0:0:0:
160,32,80297,1,0,0:0:0:0:
160,32,80697,1,2,0:0:0:0:
160,32,80897,1,0,0:0:0:0:
192,32,81497,1,2,0:0:0:0:
192,32,81897,1,0,0:0:0:0:
192,32,82097,1,0,0:0:0:0:
160,64,82297,1,2,0:0:0:0:
160,0,82697,1,0,0:0:0:0:
160,32,83097,1,2,0:0:0:0:
160,32,83297,1,2,0:0:0:0:
160,32,83497,1,0,0:0:0:0:
160,32,83897,1,2,0:0:0:0:
160,0,84097,1,0,0:0:0:0:
160,32,84697,1,2,0:0:0:0:
160,32,85097,1,0,0:0:0:0:
160,32,85497,1,2,0:0:0:0:
160,32,85897,1,2,0:0:0:0:
160,32,86297,1,2,0:0:0:0:
160,32,86697,1,0,0:0:0:0:
160,32,86897,1,2,0:0:0:0:
160,32,87297,1,6,0:0:0:0:
160,0,88497,1,0,0:0:0:0:
160,0,88697,1,2,0:0:0:0:
160,32,89097,1,6,0:0:0:0:
192,0,89497,1,2,0:0:0:0:
192,32,89697,1,2,0:0:0:0:
160,32,89897,1,0,0:0:0:0:
160,32,90297,1,2,0:0:0:0:
160,32,90497,1,0,0:0:0:0:
160,32,90897,1,2,0:0:0:0:
192,0,91297,1,0,0:0:0:0:
160,32,91697,1,2,0:0:0:0:
160,32,92297,1,2,0:0:0:0:
160,32,92697,1,2,0:0:0:0:
160,32,92897,1,2,0:0:0:0:
160,32,93097,1,0,0:0:0:0:
160,32,93497,1,2,0:0:0:0:
160,32,93697,1,0,0:0:0:0:
160,32,94097,1,0,0:0:0:0:
160,0,94497,1,2,0:0:0:0:
160,0,94897,1,0,0:0:0:0:
160,32,95497,1,4,0:0:0:0:
192,32,95897,1,2,0:0:0:0:
160,0,96297,1,0,0:0:0:0:
160,0,96697,1,2,0:0:0:0:
160,0,96897,1,0,0:0:0:0:
160,32,97297,1,2,0:0:0:0:
160,32,97697,1,0,0:0:0:0:
160,32,98097,1,2,0:0:0:0:
160,32,98697,1,0,0:0:0:0:
160,32,99097,1,2,0:0:0:0:
160,32,99297,1,0,0:0:0:0:
160,32,99497,1,2,0:0:0:0:
192,32,100497,1,0,0:0:0:0:
192,32,100697,1,2,0:0:0:0:
192,32,101097,1,0,0:0:0:0:
192,32,101297,1,0,0:0:0:0:
192,32,101497,1,2,0:0:0:0:
192,32,101897,1,6,0:0:0:0:
192,32,102297,1,2,0:0:0:0:
192,32,102497,1,2,0:0:0:0:
192,32,102697,1,0,0:0:0:0:
192,32,103097,1,2,0:0:0:0:
192,32,103297,1,0,0:0:0:0:
224,32,103697,1,2,0:0:0:0:
224,32,104097,1,0,0:0:0:0:
192,32,104497,1,2,0:0:0:0:
192,32,105097,1,2,0:0:0:0:
192,32,105497,1,2,0:0:0:0:
192,32,105697,1,2,0:0:0:0:
192,32,105897,1,0,0:0:0:0:
192,64,106297,1,2,0:0:0:0:
192,32,106497,1,4,0:0:0:0:
192,32,106897,1,6,0:0:0:0:
192,32,107297,1,6,0:0:0:0:
192,32,107697,1,4,0:0:0:0:
160,32,108297,1,6,0:0:0:0:
160,32,108697,1,2,0:0:0:0:
160,32,109097,1,2,0:0:0:0:
192,32,109297,1,0,0:0:0:0:
192,32,109497,1,2,0:0:0:0:
160,32,109897,1,2,0:0:0:0:
160,32,110297,1,2,0:0:0:0:
160,32,110697,1,2,0:0:0:0:
160,32,111497,1,2,0:0:0:0:
160,32,111897,1,2,0:0:0:0:
192,64,112097,1,0,0:0:0:0:
160,32,112297,1,2,0:0:0:0:
171,19,112497,1,0,0:0:0:0:
160,32,112897,1,6,0:0:0:0:
160,32,113897,1,0,0:0:0:0:
171,20,114097,1,0,0:0:0:0:
160,32,114297,1,2,0:0:0:0:
160,32,114697,1,4,0:0:0:0:
160,32,115497,1,2,0:0:0:0:
160,32,116297,1,0,0:0:0:0:
160,32,116697,1,0,0:0:0:0:
160,32,117097,1,2,0:0:0:0:
160,32,117497,1,2,0:0:0:0:
160,32,117897,1,0,0:0:0:0:
160,32,118697,1,2,0:0:0:0:
160,32,119497,1,0,0:0:0:0:
160,32,119897,1,2,0:0:0:0:
160,32,120297,1,2,0:0:0:0:
160,32,120497,1,0,0:0:0:0:
160,32,120697,1,0,0:0:0:0:
160,32,121097,1,4,0:0:0:0:
160,32,121497,1,2,0:0:0:0:
160,32,121897,1,0,0:0:0:0:
160,32,122297,1,2,0:0:0:0:
160,32,122497,1,0,0:0:0:0:
160,32,123097,1,2,0:0:0:0:
160,32,123497,1,0,0:0:0:0:
160,32,123897,1,2,0:0:0:0:
160,32,124297,1,0,0:0:0:0:
160,32,124697,1,2,0:0:0:0:
160,32,125097,1,0,0:0:0:0:
160,32,125297,1,0,0:0:0:0:
160,32,125497,1,2,0:0:0:0:
160,32,125897,1,0,0:0:0:0:
160,32,126297,1,2,0:0:0:0:
160,32,126697,1,2,0:0:0:0:
160,32,127497,1,6,0:0:0:0:
160,64,127897,1,2,0:0:0:0:
160,32,128097,1,2,0:0:0:0:
160,32,128497,1,2,0:0:0:0:
160,32,128697,1,2,0:0:0:0:
160,64,128897,1,2,0:0:0:0:
160,32,129297,1,2,0:0:0:0:
160,32,129697,1,2,0:0:0:0:
160,32,130097,1,2,0:0:0:0:
160,32,130297,1,2,0:0:0:0:
160,32,130497,1,4,0:0:0:0:
