osu file format v12

[General]
AudioFilename: Akaki renka ni someta kosenjo.mp3
AudioLeadIn: 0
PreviewTime: 3340
Countdown: 0
SampleSet: Soft
StackLeniency: 0.7
Mode: 0
LetterboxInBreaks: 1
WidescreenStoryboard: 0

[Editor]
DistanceSpacing: 1.6
BeatDivisor: 4
GridSize: 4
TimelineZoom: 1

[Metadata]
Title:Akaki renka ni someta kosenjo
TitleUnicode:紅き恋歌に染めた古戦場
Artist:nao
ArtistUnicode:瑶山百霊
Creator:Sweet Vanilla
Version:Marathon
Source:
Tags:
BeatmapID:383837
BeatmapSetID:156685

[Difficulty]
HPDrainRate:7
CircleSize:4
OverallDifficulty:7
ApproachRate:9
SliderMultiplier:1.6
SliderTickRate:1

[Events]
//Background and Video events
0,0,"background.jpg",0,0
//Break Periods
2,18903,25566
2,45999,48509
2,93585,106647
2,109723,119682
2,120482,126302
2,133902,192613
2,203240,222302
2,226413,252095
2,254964,369613
//Storyboard Layer 0 (Background)
//Storyboard Layer 1 (Fail)
//Storyboard Layer 2 (Pass)
//Storyboard Layer 3 (Foreground)
//Storyboard Sound Samples
//Background Colour Transformations
3,100,163,162,255

[TimingPoints]
3754,413.793103448276,4,2,0,20,1,0
15964,413.793103448276,4,2,0,20,1,0
16472,413.793103448276,4,2,0,20,1,0
17059,413.793103448276,4,2,0,20,1,0
17355,413.793103448276,4,2,0,20,1,0
17716,413.793103448276,4,2,0,20,1,0
18083,413.793103448276,4,2,0,20,1,0
18718,413.793103448276,4,2,0,20,1,0
32558,413.793103448276,4,1,0,50,1,0
49528,-100,4,1,0,60,0,0
49942,-100,4,1,0,50,0,0
50356,-100,4,1,0,40,0,0
50766,-100,4,1,0,45,0,0
51180,-100,4,1,0,55,0,0
51594,-100,4,1,0,65,0,0
66902,-100,4,1,0,35,0,0
67316,-100,4,1,0,65,0,0
70213,-100,4,1,0,35,0,0
70626,-100,4,1,0,65,0,0
80971,-86.9565217391304,4,1,0,65,0,0
109523,-86.9565217391304,4,1,0,5,0,0
109730,-86.9565217391304,4,1,0,65,0,0
254764,-100,4,1,0,5,0,0
254971,-100,4,1,0,65,0,0

[Colours]
Combo1 : 255,128,64
Combo2 : 255,53,53
Combo3 : 255,255,255

[HitObjects]
328,232,3754,5,2,0:0:0:0:
324,136,3960,1,0,0:0:0:0:
240,92,4167,1,2,0:0:0:0:
152,132,4374,2,0,P|137:174|163:237,1,80,2|0,0:0|0:0,2:0:0:0:
56,252,4788,2,0,P|75:292|138:318,1,80,0|0,0:0|0:0,2:0:0:0:
200,308,5202,2,0,P|256:288|300:300,1,80,2|0,0:0|0:0,0:0:0:0:
364,332,5616,2,0,P|408:276|412:244,1,80,0|0,0:0|0:0,0:0:0:0:
432,176,6029,1,2,0:0:0:0:
396,88,6236,1,0,0:0:0:0:
308,48,6443,1,2,0:0:0:0:
216,72,6650,1,2,0:0:0:0:
192,264,7064,6,0,L|120:224,2,80,0|2|0,0:0|0:0|0:0,0:0:0:0:
280,300,7685,2,0,P|348:308|436:240,1,160,2|0,0:0|0:0,0:0:0:0:
232,84,8512,2,0,P|164:76|76:144,1,160,2|0,0:0|0:0,0:0:0:0:
136,308,9340,2,0,P|184:236|152:160,1,160,2|0,0:0|0:0,0:0:0:0:
88,122,9960,1,2,0:0:0:0:
260,212,10374,5,2,0:0:0:0:
356,196,10581,1,0,0:0:0:0:
408,116,10788,1,2,0:0:0:0:
344,44,10995,2,0,P|292:16|192:48,1,160,2|0,0:0|0:0,0:0:0:0:
120,184,11616,1,2,0:0:0:0:
60,264,11822,2,0,P|42:304|-4:340,2,80,0|2|0,0:0|0:0|0:0,0:0:0:0:
156,276,12443,2,0,P|163:323|188:360,2,80,2|0|0,0:0|0:0|0:0,0:0:0:0:
240,108,13271,2,0,P|320:92|392:128,1,160,2|0,0:0|0:0,0:0:0:0:
428,212,13891,5,2,0:0:0:0:
380,296,14098,1,2,0:0:0:0:
288,324,14305,2,0,P|216:320|196:304,1,80
144,248,14719,1,2,0:0:0:0:
132,152,14926,1,2,0:0:0:0:
180,68,15133,6,0,P|228:44|248:20,1,80,2|0,0:0|0:0,0:0:0:0:
304,104,15547,2,0,P|352:108|388:92,1,80,2|0,0:0|0:0,0:0:0:0:
380,196,15960,2,0,P|428:220|480:212,1,100,2|0,0:0|0:0,0:0:0:0:
356,304,16481,2,0,P|385:348|440:368,1,110,2|0,0:0|0:0,0:0:0:0:
280,240,17059,1,2,0:0:0:0:
156,300,17355,1,0,0:0:0:0:
48,172,17716,1,2,0:0:0:0:
160,36,18083,1,2,0:0:0:0:
440,116,18703,5,0,0:0:0:0:
256,192,26166,12,0,31959,0:0:0:0:
72,68,32558,6,0,L|156:68,1,80,4|0,0:0|0:0,0:0:0:0:
184,68,32868,1,0,0:0:0:0:
215,68,32971,1,0,0:0:0:0:
319,68,33178,2,0,B|344:92|344:92|344:140,1,80
344,190,33489,2,0,L|344:270,1,80
344,307,33799,1,0,0:0:0:0:
344,338,33902,1,0,0:0:0:0:
344,370,34006,1,0,0:0:0:0:
180,324,34213,6,0,B|152:304|152:304|88:304|88:304|60:288,1,120
28,260,34626,2,0,B|8:240|8:240|8:152,1,80
140,76,35040,1,0,0:0:0:0:
140,76,35144,2,0,L|220:124,1,80
248,144,35454,1,0,0:0:0:0:
248,144,35558,1,0,0:0:0:0:
248,144,35661,1,0,0:0:0:0:
360,52,35868,6,0,B|384:80|384:80|384:160,1,80
384,155,36178,1,0,0:0:0:0:
384,187,36282,1,0,0:0:0:0:
320,292,36489,1,0,0:0:0:0:
248,224,36695,1,0,0:0:0:0:
248,224,36799,2,0,L|248:136,1,80
248,112,37109,1,0,0:0:0:0:
248,80,37213,1,0,0:0:0:0:
248,48,37316,1,0,0:0:0:0:
72,84,37523,6,0,B|72:112|72:112|128:160|128:160|128:180,1,120
128,210,37937,1,0,0:0:0:0:
52,264,38144,2,0,L|112:320,1,80
142,318,38454,2,0,B|218:318|218:318|274:342,1,120
290,335,38868,1,0,0:0:0:0:
321,335,38971,1,0,0:0:0:0:
400,204,39178,5,4,0:0:0:0:
303,204,39385,1,0,0:0:0:0:
303,204,39489,1,0,0:0:0:0:
303,204,39592,2,0,L|228:140,1,80
208,64,40006,1,0,0:0:0:0:
208,64,40109,2,0,B|164:100|164:100|108:100,1,80
108,100,40420,1,0,0:0:0:0:
76,100,40523,1,0,0:0:0:0:
44,100,40626,1,0,0:0:0:0:
112,264,40833,5,0,0:0:0:0:
144,264,40937,2,0,L|224:264,1,80
246,286,41247,1,0,0:0:0:0:
268,308,41351,1,0,0:0:0:0:
290,330,41454,1,0,0:0:0:0:
396,256,41661,1,0,0:0:0:0:
418,233,41764,1,0,0:0:0:0:
440,210,41868,1,0,0:0:0:0:
440,178,41971,1,0,0:0:0:0:
440,145,42075,1,0,0:0:0:0:
440,113,42178,1,0,0:0:0:0:
440,80,42282,1,0,0:0:0:0:
316,88,42489,5,0,0:0:0:0:
293,110,42592,1,0,0:0:0:0:
270,132,42695,1,0,0:0:0:0:
237,132,42799,1,0,0:0:0:0:
205,132,42902,1,0,0:0:0:0:
172,132,43006,1,0,0:0:0:0:
140,132,43109,1,0,0:0:0:0:
60,228,43316,1,0,0:0:0:0:
92,228,43420,1,0,0:0:0:0:
123,228,43523,1,0,0:0:0:0:
154,228,43626,1,0,0:0:0:0:
186,228,43730,1,0,0:0:0:0:
217,228,43833,1,0,0:0:0:0:
249,228,43937,1,0,0:0:0:0:
300,320,44144,5,0,0:0:0:0:
322,297,44247,2,0,L|376:232,1,80
373,202,44558,1,0,0:0:0:0:
373,170,44661,1,0,0:0:0:0:
373,138,44764,1,0,0:0:0:0:
475,106,44971,1,0,0:0:0:0:
452,84,45075,2,0,L|387:30,1,80
357,33,45385,1,0,0:0:0:0:
325,33,45489,1,0,0:0:0:0:
293,33,45592,1,0,0:0:0:0:
180,36,45799,5,4,0:0:0:0:
104,56,49109,5,0,0:0:0:0:
104,72,49213,1,0,0:0:0:0:
104,87,49316,1,0,0:0:0:0:
104,103,49420,1,0,0:0:0:0:
104,118,49523,1,0,0:0:0:0:
104,133,49626,1,0,0:0:0:0:
104,149,49730,1,0,0:0:0:0:
104,164,49833,1,0,0:0:0:0:
104,180,49937,1,0,0:0:0:0:
108,196,50040,1,0,0:0:0:0:
112,212,50144,1,0,0:0:0:0:
116,228,50247,1,0,0:0:0:0:
124,244,50351,1,0,0:0:0:0:
132,256,50454,1,0,0:0:0:0:
140,268,50558,1,0,0:0:0:0:
152,276,50661,1,0,0:0:0:0:
172,284,50764,1,0,0:0:0:0:
196,284,50868,1,0,0:0:0:0:
220,276,50971,1,0,0:0:0:0:
240,260,51075,1,0,0:0:0:0:
256,236,51178,1,0,0:0:0:0:
276,216,51282,1,0,0:0:0:0:
300,196,51385,1,0,0:0:0:0:
328,184,51489,1,0,0:0:0:0:
360,180,51592,1,0,0:0:0:0:
392,188,51695,1,0,0:0:0:0:
420,212,51799,1,0,0:0:0:0:
428,248,51902,1,0,0:0:0:0:
424,288,52006,1,0,0:0:0:0:
404,320,52109,1,0,0:0:0:0:
368,336,52213,1,0,0:0:0:0:
328,336,52316,1,0,0:0:0:0:
292,316,52420,1,0,0:0:0:0:
256,192,52523,12,4,53661,0:0:0:0:
396,68,54075,5,4,0:0:0:0:
396,164,54282,1,0,0:0:0:0:
396,164,54385,1,0,0:0:0:0:
396,164,54489,2,0,B|396:224|396:224|420:264,1,80,0|0,0:0|0:0,0:0:0:0:
348,316,54902,1,0,0:0:0:0:
252,248,55109,1,0,0:0:0:0:
252,248,55213,1,0,0:0:0:0:
252,248,55316,2,0,B|212:208|212:208|164:208,1,80
92,208,55730,5,0,0:0:0:0:
84,332,55937,1,0,0:0:0:0:
84,332,56040,1,0,0:0:0:0:
84,332,56144,1,0,0:0:0:0:
188,332,56351,1,0,0:0:0:0:
252,248,56558,1,0,0:0:0:0:
312,176,56764,1,0,0:0:0:0:
376,104,56971,2,0,B|400:60|400:60|400:16,1,80
464,104,57385,6,0,B|440:148|440:148|440:192,1,80
440,210,57695,1,0,0:0:0:0:
440,242,57799,1,0,0:0:0:0:
380,316,58006,1,0,0:0:0:0:
348,316,58109,1,0,0:0:0:0:
315,316,58213,2,0,B|244:316|244:316|212:292,1,80
152,232,58626,1,0,0:0:0:0:
55,232,58833,1,0,0:0:0:0:
100,148,59040,5,0,0:0:0:0:
156,68,59247,1,0,0:0:0:0:
156,68,59351,1,0,0:0:0:0:
156,68,59454,1,0,0:0:0:0:
300,152,59661,1,0,0:0:0:0:
300,152,59764,1,0,0:0:0:0:
300,152,59868,1,0,0:0:0:0:
152,232,60075,1,0,0:0:0:0:
152,232,60178,1,0,0:0:0:0:
152,232,60282,1,0,0:0:0:0:
292,328,60489,1,0,0:0:0:0:
292,328,60592,1,0,0:0:0:0:
292,328,60695,1,0,0:0:0:0:
440,264,60902,5,0,0:0:0:0:
440,264,61006,1,0,0:0:0:0:
440,264,61109,2,0,B|440:192|440:192|452:172,1,80
504,108,61523,1,0,0:0:0:0:
436,40,61730,1,0,0:0:0:0:
356,92,61937,2,0,B|324:112|324:112|280:112,1,80
185,112,62351,5,0,0:0:0:0:
112,48,62558,1,0,0:0:0:0:
112,48,62661,1,0,0:0:0:0:
112,48,62764,2,0,B|88:84|88:84|88:136,1,80
88,217,63178,1,0,0:0:0:0:
88,313,63385,1,0,0:0:0:0:
168,260,63592,1,0,0:0:0:0:
252,212,63799,1,0,0:0:0:0:
336,260,64006,5,0,0:0:0:0:
416,312,64213,1,0,0:0:0:0:
416,312,64316,1,0,0:0:0:0:
416,312,64420,2,0,B|440:280|440:280|440:236,1,80
440,143,64833,1,0,0:0:0:0:
372,75,65040,1,0,0:0:0:0:
465,53,65247,1,0,0:0:0:0:
440,143,65454,1,0,0:0:0:0:
348,168,65661,5,0,0:0:0:0:
316,168,65764,1,0,0:0:0:0:
283,168,65868,1,0,0:0:0:0:
251,168,65971,1,0,0:0:0:0:
218,168,66075,1,0,0:0:0:0:
186,168,66178,1,0,0:0:0:0:
153,168,66282,1,0,0:0:0:0:
121,168,66385,1,0,0:0:0:0:
88,168,66489,1,0,0:0:0:0:
24,56,66902,2,0,B|32:48|32:48|32:56|32:56|40:48|40:48|40:56|40:56|48:48|48:48|48:56|48:56|56:48|56:48|56:56|56:56|64:48|64:48|64:56|64:56|72:48|72:48|72:56|72:56|80:48|80:48,1,106.666666666667
123,54,67316,2,0,B|151:82|151:82|195:82,1,80
260,76,67730,2,0,B|284:104|284:104|284:176,1,80
284,251,68144,1,0,0:0:0:0:
306,273,68247,1,0,0:0:0:0:
328,295,68351,1,0,0:0:0:0:
359,295,68454,1,0,0:0:0:0:
391,295,68558,2,0,B|440:296|440:296|484:264,1,80
432,136,68971,2,0,B|412:160|412:160|412:220,1,80
360,84,69385,2,0,B|332:64|332:64|252:64,1,80
181,64,69799,1,0,0:0:0:0:
158,86,69902,1,0,0:0:0:0:
135,108,70006,1,0,0:0:0:0:
112,130,70109,1,0,0:0:0:0:
89,152,70213,2,0,L|52:184,3,26.6666666666667
132,244,70626,2,0,B|152:272|152:272|152:320,1,80
232,232,71040,2,0,B|260:216|260:216|324:216,1,80
372,308,71454,1,0,0:0:0:0:
394,285,71558,1,0,0:0:0:0:
416,262,71661,1,0,0:0:0:0:
416,230,71764,1,0,0:0:0:0:
416,197,71868,2,0,L|416:160,3,26.6666666666667
488,120,72282,2,0,B|452:88|452:88|416:88,1,80
316,88,72695,2,0,B|284:88|284:88|220:60,1,80
240,173,73109,1,0,0:0:0:0:
240,205,73213,1,0,0:0:0:0:
240,236,73316,1,0,0:0:0:0:
240,268,73420,1,0,0:0:0:0:
240,299,73523,2,0,L|240:344,3,26.6666666666667
132,296,73937,1,0,0:0:0:0:
64,204,74144,1,0,0:0:0:0:
20,308,74351,1,0,0:0:0:0:
64,204,74558,1,0,0:0:0:0:
116,104,74764,1,0,0:0:0:0:
148,104,74868,1,0,0:0:0:0:
179,104,74971,1,0,0:0:0:0:
211,104,75075,1,0,0:0:0:0:
242,104,75178,2,0,B|296:104|296:104|332:72,1,80
404,16,75592,1,0,0:0:0:0:
504,76,75799,1,0,0:0:0:0:
404,128,76006,1,0,0:0:0:0:
504,76,76213,1,0,0:0:0:0:
492,188,76420,1,0,0:0:0:0:
468,208,76523,1,0,0:0:0:0:
444,232,76626,1,0,0:0:0:0:
424,256,76730,1,0,0:0:0:0:
400,276,76833,2,0,L|320:296,1,80
256,192,77247,1,0,0:0:0:0:
256,192,77351,12,0,78902,0:0:0:0:
256,192,79006,12,0,80558,0:0:0:0:
172,152,80971,5,0,0:0:0:0:
96,280,81178,1,0,0:0:0:0:
96,280,81282,1,0,0:0:0:0:
96,280,81385,2,0,P|152:304|208:288,1,92.0000017547608
328,292,81799,2,0,P|373:291|413:312,1,92.0000017547608
396,136,82213,1,0,0:0:0:0:
396,136,82316,1,0,0:0:0:0:
396,136,82420,2,0,L|448:228,2,92.0000017547608
260,80,83040,1,0,0:0:0:0:
160,244,83247,1,0,0:0:0:0:
288,200,83454,1,0,0:0:0:0:
120,124,83661,1,0,0:0:0:0:
28,240,83868,2,0,P|36:296|76:336,1,92.0000017547608
196,368,84282,1,0,0:0:0:0:
288,200,84489,1,0,0:0:0:0:
288,200,84592,1,0,0:0:0:0:
288,200,84695,2,0,L|236:300,1,92.0000017547608
388,240,85109,2,0,L|440:140,1,92.0000017547608
484,32,85523,1,0,0:0:0:0:
268,52,85730,1,0,0:0:0:0:
388,240,85937,1,0,0:0:0:0:
400,120,86144,1,0,0:0:0:0:
172,156,86351,1,0,0:0:0:0:
248,272,86558,1,0,0:0:0:0:
248,272,86661,1,0,0:0:0:0:
248,272,86764,1,0,0:0:0:0:
268,52,86971,1,0,0:0:0:0:
87,67,87178,2,0,P|55:99|48:144,1,92.0000017547608
172,156,87592,1,0,0:0:0:0:
60,340,87799,1,0,0:0:0:0:
60,340,87902,1,0,0:0:0:0:
60,340,88006,2,0,P|100:284|100:260,1,92.0000017547608
248,272,88420,2,0,L|356:284,1,92.0000017547608
264,168,88833,2,0,L|172:156,1,92.0000017547608
28,132,89247,1,0,0:0:0:0:
184,264,89454,1,0,0:0:0:0:
224,56,89661,1,0,0:0:0:0:
144,144,89868,1,0,0:0:0:0:
264,168,90075,1,0,0:0:0:0:
224,56,90282,1,0,0:0:0:0:
68,240,90489,1,0,0:0:0:0:
252,316,90695,1,0,0:0:0:0:
252,316,90799,1,0,0:0:0:0:
252,316,90902,2,0,P|226:279|184:264,1,92.0000017547608
16,324,91316,2,0,P|72:336|104:328,1,92.0000017547608
104,156,91730,2,0,L|60:256,1,92.0000017547608
228,152,92144,1,0,0:0:0:0:
200,56,92351,1,0,0:0:0:0:
195,257,92558,1,0,0:0:0:0:
360,156,92765,1,0,0:0:0:0:
304,88,92971,1,0,0:0:0:0:
312,288,93178,1,0,0:0:0:0:
448,184,93385,1,0,0:0:0:0:
256,192,107247,12,4,109523,0:0:0:0:
256,192,120282,5,0,0:0:0:0:
260,196,126902,5,0,0:0:0:0:
256,192,127006,12,0,128558,0:0:0:0:
256,192,128661,12,0,130213,0:0:0:0:
256,192,130316,12,0,131040,0:0:0:0:
380,56,131868,5,0,0:0:0:0:
380,71,131971,1,0,0:0:0:0:
380,87,132075,1,0,0:0:0:0:
380,102,132178,1,0,0:0:0:0:
380,118,132282,1,0,0:0:0:0:
380,133,132385,1,0,0:0:0:0:
380,149,132489,1,0,0:0:0:0:
380,164,132592,1,0,0:0:0:0:
380,179,132695,1,0,0:0:0:0:
380,195,132799,1,0,0:0:0:0:
380,210,132902,1,0,0:0:0:0:
380,226,133006,1,0,0:0:0:0:
380,241,133109,1,0,0:0:0:0:
380,257,133213,1,0,0:0:0:0:
380,272,133316,1,0,0:0:0:0:
380,288,133420,1,0,0:0:0:0:
380,303,133523,2,0,P|340:336|300:336,1,80
256,192,193213,12,0,199730,0:0:0:0:
256,188,200558,5,0,0:0:0:0:
256,188,201385,1,0,0:0:0:0:
256,188,202213,1,0,0:0:0:0:
256,188,203040,1,0,0:0:0:0:
256,192,222902,12,0,224558,0:0:0:0:
256,192,224971,5,0,0:0:0:0:
256,192,225075,12,4,226213,0:0:0:0:
256,192,252695,12,0,254764,0:0:0:0:
256,192,370213,12,0,371868,0:0:0:0:
