osu file format v14

[General]
AudioFilename: Rainbow Road.mp3
AudioLeadIn: 0
PreviewTime: 32654
Countdown: 0
SampleSet: Normal
StackLeniency: 0.7
Mode: 0
LetterboxInBreaks: 1
EpilepsyWarning: 1
WidescreenStoryboard: 1

[Editor]
Bookmarks: 151002
DistanceSpacing: 1
BeatDivisor: 4
GridSize: 4
TimelineZoom: 1.1

[Metadata]
Title:Rainbow Road
TitleUnicode:Rainbow Road
Artist:nanobii
ArtistUnicode:nanobii
Creator:yugijedi
Version:Ynsane
Source:
Tags:happy hardcore techno
BeatmapID:636563
BeatmapSetID:271869

[Difficulty]
HPDrainRate:6
CircleSize:4
OverallDifficulty:6
ApproachRate:9
SliderMultiplier:1.6
SliderTickRate:1

[Events]
//Background and Video events
0,0,"background.jpg",0,0
//Break Periods
2,92665,102629
//Storyboard Layer 0 (Background)
//Storyboard Layer 1 (Fail)
//Storyboard Layer 2 (Pass)
//Storyboard Layer 3 (Foreground)
//Storyboard Sound Samples

[TimingPoints]
171,352.941176470588,4,1,0,60,1,0
11465,-145.454545454545,4,2,1,60,0,0
13582,-100,4,2,1,60,0,0
34053,-80,4,1,1,40,0,1
43582,-100,4,1,1,40,0,1
45347,-80,4,1,1,40,0,1
52406,-100,4,1,1,40,0,1
56641,-100,4,2,1,60,0,0
71641,-57.1428571428571,4,2,1,60,0,0
73935,-66.6666666666667,4,2,1,60,0,0
80641,-100,4,2,1,40,0,0
87700,-100,4,2,1,60,0,0
125818,-80,4,1,1,40,0,1
135348,-80,4,1,1,40,0,1
148406,-100,4,1,1,45,0,0

[Colours]
Combo1 : 217,0,0
Combo2 : 169,83,255
Combo3 : 0,128,255
Combo4 : 1,239,209
Combo5 : 190,252,3
Combo6 : 252,255,128
Combo7 : 255,211,79
Combo8 : 253,108,2

[HitObjects]
388,160,11465,6,0,P|336:144|280:144,1,110,0|0,0:0|0:0,0:0:0:0:
124,192,12170,1,0,0:0:0:0:
200,300,12523,2,0,B|188:244|188:244|220:200|208:136|148:108,1,220,0|0,0:0|0:0,0:0:0:0:
124,192,13406,5,0,0:0:0:0:
240,192,13582,2,0,P|284:192|316:172,1,80
256,112,13935,2,0,P|176:136|284:260,1,320
360,336,14994,1,0,0:0:0:0:
400,204,15347,6,0,B|376:184|376:184|348:184|348:184|320:192|320:192|256:192|256:192|212:204|168:192,1,240,0|0,0:0|0:0,0:0:0:0:
96,100,16053,2,0,B|176:120|176:120|216:128|248:116|248:116|312:116|312:116|332:108,1,240,0|0,0:0|0:0,0:0:0:0:
204,48,16759,1,0,0:0:0:0:
88,188,17112,6,0,B|84:228|76:260|76:260|92:348,1,160,0|0,0:0|0:0,0:0:0:0:
168,296,17641,1,0,0:0:0:0:
256,192,17818,1,0,0:0:0:0:
168,296,17994,1,0,0:0:0:0:
256,328,18170,2,0,B|308:288|360:336|360:336|404:376|452:360|476:332,1,240,0|0,0:0|0:0,0:0:0:0:
416,256,18876,1,0,0:0:0:0:
364,176,19053,1,0,0:0:0:0:
256,124,19229,6,0,P|216:112|176:112,1,80,0|0,0:0|0:0,0:0:0:0:
152,256,19582,2,0,P|182:227|202:192,1,80,0|0,0:0|0:0,0:0:0:0:
232,32,19935,1,8,3:0:0:0:
32,256,21170,5,0,0:0:0:0:
36,288,21259,1,0,0:0:0:0:
32,320,21347,2,0,B|60:348|60:348|100:348,1,80,0|0,0:0|0:0,0:0:0:0:
256,280,21700,2,0,P|236:244|208:212,1,80,0|0,0:0|0:0,0:0:0:0:
168,296,22053,5,0,0:0:0:0:
360,144,22229,1,0,0:0:0:0:
120,144,22406,1,0,0:0:0:0:
304,296,22582,1,0,0:0:0:0:
240,64,22759,1,2,0:0:0:0:
240,188,23112,5,2,0:0:0:0:
316,36,23465,2,2,P|244:64|168:36,1,160,2|0,0:0|0:0,0:0:0:0:
169,346,24170,2,0,P|242:319|316:348,1,160,0|0,0:0|0:0,0:0:0:0:
76,192,24876,1,0,0:0:0:0:
436,192,25229,1,0,0:0:0:0:
476,108,25406,5,0,0:0:0:0:
436,104,25494,1,0,0:0:0:0:
396,100,25582,2,0,B|316:92|316:92|236:100,1,160,2|0,0:0|0:0,0:0:0:0:
316,172,26112,1,0,0:0:0:0:
152,36,26288,6,0,B|168:116|168:116|176:152|200:164|220:168,1,160,2|0,0:0|0:0,0:0:0:0:
392,224,26818,1,0,0:0:0:0:
392,312,26994,2,0,P|464:276|476:204,1,160,2|0,0:0|0:0,0:0:0:0:
256,192,27523,1,0,0:0:0:0:
168,192,27700,2,0,B|132:172|132:172|96:192|96:192|56:196|56:196|20:180,1,160,2|0,0:0|0:0,0:0:0:0:
72,120,28229,1,4,0:0:0:0:
256,192,28406,12,0,30876,0:0:0:0:
480,192,31229,5,0,0:0:0:0:
452,188,31318,1,0,0:0:0:0:
424,188,31406,1,0,0:0:0:0:
396,191,31494,1,0,0:0:0:0:
368,188,31582,5,0,0:0:0:0:
340,188,31670,1,0,0:0:0:0:
313,190,31759,1,0,0:0:0:0:
285,188,31847,1,0,0:0:0:0:
257,189,31935,5,0,0:0:0:0:
229,190,32023,1,0,0:0:0:0:
201,188,32112,1,0,0:0:0:0:
173,189,32200,1,0,0:0:0:0:
146,189,32288,5,0,0:0:0:0:
118,188,32376,1,0,0:0:0:0:
90,190,32465,1,0,0:0:0:0:
64,199,32553,1,0,0:0:0:0:
44,218,32641,5,0,0:0:0:0:
36,244,32729,1,0,0:0:0:0:
49,268,32818,1,0,0:0:0:0:
74,281,32906,1,0,0:0:0:0:
101,285,32994,5,0,0:0:0:0:
129,283,33082,1,0,0:0:0:0:
157,278,33170,1,0,0:0:0:0:
180,292,33259,1,0,0:0:0:0:
204,308,33347,5,0,0:0:0:0:
380,220,33523,1,0,0:0:0:0:
208,112,33700,1,8,3:0:0:0:
184,88,34053,6,0,P|144:172|124:284,1,200,8|0,0:0|0:0,0:0:0:0:
344,292,34582,1,0,0:0:0:0:
488,228,34759,2,0,B|460:240|460:240|432:216|348:200,1,150
316,188,35112,2,0,B|292:168|292:168|268:176|224:184|176:168|176:168|124:168,1,200,8|0,0:0|0:0,0:0:0:0:
232,96,35641,1,0,0:0:0:0:
320,104,35818,6,0,P|368:120|400:160,1,100
160,140,36170,2,0,P|149:90|168:42,1,100,8|0,0:0|0:0,0:0:0:0:
256,172,36523,2,0,B|232:188|232:188|256:212|256:356,1,200
172,236,37053,5,0,0:0:0:0:
352,192,37229,1,0,0:0:0:0:
112,192,37406,1,0,0:0:0:0:
232,280,37582,2,0,P|280:296|312:332,1,100,8|0,0:0|0:0,0:0:0:0:
32,272,37935,2,0,P|12:192|28:128,1,150
32,84,38288,6,0,B|60:128|104:140|104:140|156:120|208:140,1,200,8|0,0:0|0:0,0:0:0:0:
352,192,38818,1,0,0:0:0:0:
292,312,38994,2,0,P|256:276|228:236,1,100
256,56,39347,1,0,0:0:0:0:
352,192,39523,5,0,0:0:0:0:
352,192,39700,2,0,B|300:192|260:216|260:216|168:268,1,200,8|0,0:0|0:0,0:0:0:0:
68,344,40229,1,0,0:0:0:0:
292,344,40406,2,0,P|344:328|376:296,1,100
376,76,40759,1,0,0:0:0:0:
256,124,40935,5,0,0:0:0:0:
256,124,41023,1,0,0:0:0:0:
256,124,41112,2,0,P|208:108|160:124,1,100,8|0,0:0|0:0,0:0:0:0:
200,284,41465,2,0,L|208:168,1,100
152,348,41818,2,0,P|199:362|245:346,1,100
256,192,42170,5,0,0:0:0:0:
256,192,42347,2,0,B|212:168|164:180|164:180|108:184|108:184|56:176,1,200
196,256,42876,5,0,0:0:0:0:
372,344,43053,1,0,0:0:0:0:
352,152,43229,1,8,0:0:0:0:
268,336,43406,1,0,0:0:0:0:
424,244,43582,2,0,L|436:164,2,80,8|0|0,0:0|0:0|0:0,0:0:0:0:
396,240,44023,5,0,0:0:0:0:
373,220,44112,5,0,0:0:0:0:
348,204,44200,5,0,0:0:0:0:
322,190,44288,5,0,0:0:0:0:
294,180,44376,5,0,0:0:0:0:
265,174,44465,5,0,0:0:0:0:
236,170,44553,5,0,0:0:0:0:
206,170,44641,5,0,0:0:0:0:
177,174,44729,5,0,0:0:0:0:
148,181,44818,5,0,0:0:0:0:
121,191,44906,5,0,0:0:0:0:
94,205,44994,5,0,0:0:0:0:
70,221,45082,5,0,0:0:0:0:
48,241,45170,5,0,0:0:0:0:
28,263,45259,5,0,0:0:0:0:
44,284,45347,6,0,B|80:312|80:312|120:260|164:245|220:240,1,200,8|0,0:0|0:0,0:0:0:0:
380,124,45876,1,0,0:0:0:0:
192,56,46053,2,0,P|156:80|124:128,1,100
404,220,46406,2,0,P|401:176|376:120,1,100,8|0,0:0|0:0,3:0:0:0:
132,108,46759,1,0,0:0:0:0:
204,344,46935,5,0,0:0:0:0:
204,344,47112,2,0,B|256:328|304:328|304:328|352:344|400:340,1,200,8|0,0:0|0:0,0:0:0:0:
292,156,47641,5,0,0:0:0:0:
132,108,47818,1,0,0:0:0:0:
132,336,47994,1,0,0:0:0:0:
288,280,48170,1,0,0:0:0:0:
232,76,48347,1,0,0:0:0:0:
96,204,48523,2,0,B|124:232|124:232|184:228,1,100,8|0,0:0|0:0,0:0:0:0:
244,156,48876,6,0,P|200:224|224:336,1,200,0|8,0:0|0:0,0:0:0:0:
468,340,49406,1,0,0:0:0:0:
340,196,49582,2,0,L|336:296,1,100
424,160,49935,2,0,P|396:116|332:112,1,100,8|0,0:0|0:0,0:0:0:0:
172,192,50288,5,0,0:0:0:0:
344,296,50465,1,0,0:0:0:0:
256,116,50641,1,0,0:0:0:0:
228,344,50818,1,0,0:0:0:0:
92,204,50994,6,0,P|40:216|16:256,1,100,8|0,0:0|0:0,0:0:0:0:
132,340,51347,2,0,B|184:344|184:344|216:336|216:336|228:344,1,100,8|0,0:0|0:0,0:0:0:0:
444,228,51700,2,0,B|392:232|392:232|360:224|360:224|348:232,1,100,8|0,0:0|0:0,0:0:0:0:
184,80,52053,1,0,0:0:0:0:
84,280,52229,5,0,0:0:0:0:
84,280,52318,1,0,0:0:0:0:
84,280,52406,2,0,B|124:268|164:272|164:272|204:276|240:256,1,160,8|0,0:0|0:0,0:0:0:0:
191,188,52935,1,0,0:0:0:0:
388,128,53112,6,0,B|348:120|348:120|324:136|308:136,1,80
168,264,53465,2,0,B|208:272|208:272|232:256|248:256,1,80,8|0,0:0|0:0,0:0:0:0:
480,192,53818,1,0,0:0:0:0:
472,156,54170,5,0,0:0:0:0:
364,36,54347,1,0,0:0:0:0:
120,160,54700,1,0,0:0:0:0:
364,348,55053,1,0,0:0:0:0:
460,344,55229,5,0,0:0:0:0:
450,305,55318,1,0,0:0:0:0:
427,273,55406,1,0,0:0:0:0:
392,253,55494,1,0,0:0:0:0:
353,247,55582,1,0,0:0:0:0:
315,258,55670,1,0,0:0:0:0:
283,282,55759,1,0,0:0:0:0:
264,317,55847,1,0,0:0:0:0:
260,356,55935,1,0,0:0:0:0:
364,348,56112,5,0,0:0:0:0:
472,192,56288,1,0,0:0:0:0:
360,108,56465,1,0,0:0:0:0:
244,192,56641,1,12,0:0:0:0:
212,204,56994,6,0,B|168:200|168:200|148:184|128:196,1,80,8|0,0:0|0:0,0:0:0:0:
32,352,57347,2,0,B|57:315|57:315|81:306|80:283,1,80
376,272,57700,2,0,B|394:312|394:312|390:337|411:348,1,80
480,104,58053,6,0,B|460:92|460:92|436:96|436:96|404:92,1,80,8|0,0:0|0:0,0:0:0:0:
292,348,58406,2,0,B|312:336|312:336|320:313|320:313|340:288,1,80
160,192,58759,2,0,B|159:215|159:215|175:234|175:234|187:263,1,80
476,256,59112,2,0,B|476:232|476:232|460:213|460:213|448:184,1,80
256,72,59465,6,0,B|232:40|196:36|196:36|188:28,1,80,8|0,0:0|0:0,0:0:0:0:
297,304,59818,2,0,B|330:326|365:318|365:318|375:322,1,80,0|0,0:0|0:0,0:3:0:0:
192,112,60170,2,0,B|153:102|122:122|122:122|111:122,1,80
344,248,60523,2,0,B|383:243|405:214|405:214|416:211,1,80,0|0,0:0|0:0,0:3:0:0:
100,192,60876,6,0,P|116:272|172:328,1,160,8|0,0:0|0:0,0:0:0:0:
169,326,61406,1,0,1:0:0:0:
256,192,61582,1,0,1:0:0:0:
192,232,61759,1,0,1:0:0:0:
332,336,61935,1,0,1:0:0:0:
256,120,62112,1,0,1:0:0:0:
204,336,62288,6,0,P|232:304|268:288,1,80
340,260,62553,2,0,P|380:248|408:220,1,80
444,152,62818,2,0,L|480:80,1,80
32,80,63700,6,0,L|68:152,1,80
105,221,63965,2,0,P|133:249|172:260,1,80
246,288,64229,2,0,P|282:305|308:336,1,80
256,160,65112,5,0,0:0:0:0:
256,92,65376,1,0,0:0:0:0:
256,24,65641,1,0,0:0:0:0:
428,192,66523,5,0,1:0:0:0:
432,72,66876,2,0,B|424:112|424:112|364:120|320:164|340:252|392:260,1,240,8|0,1:0|1:0,1:0:0:0:
476,288,67582,2,0,B|444:288|444:288|428:312|412:336|356:336|324:304,1,160,0|8,1:0|1:0,1:0:0:0:
276,208,68112,1,0,1:0:0:0:
220,316,68288,1,0,1:0:0:0:
324,372,68465,1,0,1:0:0:0:
380,256,68641,6,0,P|360:216|356:180,1,80,0|0,1:0|1:0,1:0:0:0:
176,176,68994,2,0,P|220:178|253:193,1,80,0|0,1:0|1:0,1:0:0:0:
196,256,69347,2,8,P|132:244|100:200,2,120,8|8|8,1:0|1:0|1:0,1:0:0:0:
384,192,70053,2,0,L|320:144,1,80,0|0,1:0|1:0,1:0:0:0:
184,48,70406,1,0,1:0:0:0:
108,280,70582,5,0,1:0:0:0:
108,280,70670,1,0,1:0:0:0:
108,280,70759,2,0,B|136:312|164:340|208:340|252:320|252:320|288:304|328:300,1,240,8|0,1:0|1:0,1:0:0:0:
476,344,71465,1,0,1:0:0:0:
396,104,71641,6,0,B|360:88|360:88|256:76,1,140.000001335144,2|4,2:0|2:0,2:0:0:0:
108,280,71994,2,0,B|144:296|144:296|248:308,1,140.000001335144,2|4,2:0|2:0,2:0:0:0:
256,192,72347,5,0,1:0:0:0:
140,160,72523,1,0,1:0:0:0:
340,277,72700,1,0,1:0:0:0:
225,75,72876,1,0,1:0:0:0:
224,308,73053,1,0,1:0:0:0:
341,107,73229,1,0,1:0:0:0:
100,224,73406,1,0,1:3:0:0:
400,192,73582,1,0,1:0:0:0:
399,290,73935,6,0,P|442:252|432:196,1,120.000004577637,2|0,0:0|0:0,0:0:0:0:
113,290,74288,2,0,P|70:252|80:196,1,120.000004577637,2|0,0:0|0:0,0:0:0:0:
288,76,74641,2,0,L|224:308,2,240.000009155274,2|0|0,0:0|0:0|0:0,0:0:0:0:
432,196,75700,1,0,0:0:0:0:
80,196,76053,1,0,0:0:0:0:
452,308,76406,6,0,P|424:292|336:292,1,120.000004577637,0|0,0:0|0:0,0:0:0:0:
308,220,76670,6,0,L|200:164,1,120.000004577637,0|0,0:0|0:0,0:0:0:0:
204,88,76935,6,0,P|144:94|90:71,1,120.000004577637,4|0,0:0|0:0,0:0:0:0:
304,272,80641,5,0,0:0:0:0:
224,264,80818,1,0,0:0:0:0:
256,172,80994,1,0,0:0:0:0:
168,72,81170,1,0,0:0:0:0:
316,136,83465,5,0,0:0:0:0:
196,136,83641,1,0,0:0:0:0:
196,248,83818,1,0,0:0:0:0:
316,304,83994,1,0,0:0:0:0:
36,108,86288,6,0,P|80:104|112:120,2,80,0|0|0,0:0|0:0|0:0,0:0:0:0:
84,188,86818,2,0,P|160:176|184:104,1,160,0|0,0:0|0:0,0:0:0:0:
112,120,87700,2,0,B|188:144|188:144|268:144,1,160
360,196,88406,2,0,B|284:220|284:220|204:220,1,160,0|0,0:0|0:0,0:0:0:0:
108,272,89112,2,0,B|184:296|184:296|264:296,2,160
413,171,91935,5,0,0:0:0:0:
305,271,92112,1,0,0:0:0:0:
197,267,92288,1,0,0:0:0:0:
141,219,92465,1,0,0:0:0:0:
416,140,103229,5,0,0:0:0:0:
256,192,103582,1,0,0:0:0:0:
88,260,103935,2,0,P|52:192|64:152,1,120,0|0,0:0|0:0,0:0:0:0:
40,108,104288,2,0,B|80:108|116:88|116:88|152:68|188:104,2,160,0|0|0,0:0|0:0|0:0,0:0:0:0:
32,192,105347,6,0,P|32:236|92:272,1,120,0|0,0:0|0:0,0:0:0:0:
136,248,105700,2,0,B|172:212|208:232|208:232|244:252|284:252,1,160,0|0,0:0|0:0,0:0:0:0:
304,324,106406,2,0,P|344:300|356:232,1,120,0|0,0:0|0:0,0:0:0:0:
348,180,106759,2,0,B|388:188|388:188|420:160|420:160|412:124,1,120,0|0,0:0|0:0,0:0:0:0:
432,76,107112,5,0,0:0:0:0:
432,284,107465,1,0,0:0:0:0:
244,192,107818,1,0,0:0:0:0:
432,76,108170,1,0,0:0:0:0:
314,288,108523,5,2,0:0:0:0:
299,79,108700,1,2,0:0:0:0:
494,184,108876,1,2,0:0:0:0:
500,220,109229,5,2,0:0:0:0:
256,192,109406,1,2,0:0:0:0:
236,224,109759,1,0,0:0:0:0:
152,276,110112,1,0,0:0:0:0:
32,224,110465,1,0,0:0:0:0:
68,64,110818,1,0,0:0:0:0:
304,32,111170,1,0,0:0:0:0:
436,256,111523,5,2,0:0:0:0:
436,256,111700,2,0,B|392:248|392:248|320:268,1,120,2|0,0:0|0:0,0:0:0:0:
276,296,112053,2,0,B|224:244|224:244|176:240,1,120,0|0,0:0|0:0,0:0:0:0:
144,276,112406,2,0,B|136:236|136:236|72:176,1,120,0|0,0:0|0:0,0:0:0:0:
64,132,112759,2,0,B|96:104|96:104|108:64,1,80,0|0,0:0|0:0,0:0:0:0:
4,48,113112,5,0,0:0:0:0:
108,32,113288,1,0,0:0:0:0:
108,224,113465,5,0,0:0:0:0:
212,240,113641,1,0,0:0:0:0:
212,48,113818,5,0,0:0:0:0:
316,32,113994,1,0,0:0:0:0:
480,160,114170,5,2,0:0:0:0:
432,352,114347,1,2,0:0:0:0:
384,160,114523,6,0,L|304:152,1,80,8|0,1:0|1:0,1:0:0:0:
128,224,114876,2,0,L|208:232,1,80,0|0,1:0|1:0,1:0:0:0:
472,80,115229,2,0,L|392:72,1,80,0|0,1:0|1:0,1:0:0:0:
40,304,115582,2,0,L|120:312,1,80,0|0,1:0|1:0,1:0:0:0:
136,80,115935,6,0,L|144:0,1,80,0|0,1:0|1:0,1:0:0:0:
376,304,116288,2,0,L|368:384,1,80,0|0,1:0|1:0,1:0:0:0:
216,152,116641,2,0,L|224:72,1,80,0|0,1:0|1:0,1:0:0:0:
296,232,116994,2,0,L|288:312,1,80,0|0,1:0|1:0,1:0:0:0:
216,348,117347,5,0,1:0:0:0:
296,152,117523,1,0,1:0:0:0:
100,152,117700,1,0,1:0:0:0:
296,232,117876,1,0,1:0:0:0:
296,36,118053,1,0,1:0:0:0:
216,232,118229,1,0,1:0:0:0:
412,232,118406,1,0,1:0:0:0:
216,152,118582,1,0,1:0:0:0:
216,232,118759,6,0,L|212:192,15,40
228,152,120170,5,0,0:0:0:0:
206,118,120259,1,0,0:0:0:0:
174,94,120347,1,0,0:0:0:0:
136,84,120435,1,0,0:0:0:0:
96,87,120523,5,0,0:0:0:0:
60,105,120612,1,0,0:0:0:0:
33,134,120700,1,0,0:0:0:0:
18,170,120788,1,0,0:0:0:0:
17,210,120876,5,0,0:0:0:0:
30,248,120965,1,0,0:0:0:0:
55,278,121053,1,0,0:0:0:0:
90,298,121141,1,0,0:0:0:0:
129,304,121229,5,0,0:0:0:0:
168,304,121318,1,0,0:0:0:0:
207,303,121406,1,0,0:0:0:0:
247,298,121494,1,0,0:0:0:0:
256,192,121582,12,0,124053,0:0:0:0:
256,284,124406,5,0,0:0:0:0:
176,146,124582,1,0,0:0:0:0:
335,146,124759,1,0,0:0:0:0:
176,238,124935,5,8,3:0:0:0:
335,238,125112,5,8,3:0:0:0:
335,238,125200,1,8,3:0:0:0:
255,99,125376,5,8,3:0:0:0:
255,99,125465,1,8,3:0:0:0:
96,192,125641,5,8,0:0:0:0:
416,192,125818,6,0,P|464:136|440:68,1,150,8|0,0:0|0:0,0:0:0:0:
384,120,126170,2,0,P|341:145|289:157,1,100
212,144,126523,1,0,0:0:0:0:
136,120,126700,1,0,0:0:0:0:
96,192,126876,6,0,P|32:120|104:52,1,200,8|0,0:0|0:0,0:0:0:0:
212,144,127406,1,0,0:0:0:0:
256,296,127582,1,0,0:0:0:0:
264,204,127759,1,0,0:0:0:0:
380,348,127935,2,0,B|432:344|432:344|472:312,1,100
344,144,128288,2,0,B|344:244|344:244|396:260|396:260|432:228,1,200,8|0,0:0|0:0,0:0:0:0:
452,68,128818,1,0,0:0:0:0:
224,160,128994,6,0,P|184:196|180:240,1,100
380,348,129347,2,0,P|432:335|457:299,1,100,0|0,0:3|0:3,0:3:0:0:
344,144,129700,1,8,0:0:0:0:
184,304,129876,5,0,0:0:0:0:
184,304,129965,1,0,0:0:0:0:
184,304,130053,2,0,P|236:300|272:268,1,100
184,192,130406,1,0,0:0:0:0:
72,284,130582,1,0,0:0:0:0:
328,316,130759,1,0,0:0:0:0:
332,192,130935,1,0,0:0:0:0:
152,116,131112,6,0,P|112:152|104:200,1,100,8|0,0:0|0:0,0:0:0:0:
256,348,131465,2,0,B|300:324|312:276|312:276|324:220|376:192,1,200
408,284,131994,1,0,0:0:0:0:
140,240,132170,2,0,P|120:192|132:148,1,100
256,32,132523,2,0,B|289:68|339:68|339:68|396:68|436:110,1,200,8|0,0:0|0:0,0:3:0:0:
352,152,133053,5,0,0:0:0:0:
256,304,133229,1,0,0:0:0:0:
160,152,133406,1,0,0:0:0:0:
347,260,133582,5,0,0:0:0:0:
168,253,133759,1,0,0:0:0:0:
268,100,133935,2,0,B|324:76|324:76|364:68,1,100,8|0,0:0|0:0,0:0:0:0:
160,152,134288,5,0,0:0:0:0:
347,260,134465,1,0,0:0:0:0:
268,100,134641,1,0,0:0:0:0:
168,253,134818,1,0,0:0:0:0:
352,152,134994,1,0,0:0:0:0:
256,304,135170,1,0,0:0:0:0:
160,152,135347,2,0,B|179:94|179:94|184:56,1,100,8|0,0:0|0:0,0:0:0:0:
256,192,135700,12,0,136759,0:0:0:0:
256,276,137112,5,0,0:0:0:0:
256,88,137288,1,0,0:0:0:0:
332,296,137465,2,0,P|256:352|180:296,1,200,8|0,0:0|0:0,0:0:0:0:
180,148,137994,1,0,0:0:0:0:
328,60,138170,6,0,B|384:88|384:88|392:128,1,100,0|0,0:0|0:0,0:0:0:0:
334,320,138523,2,0,B|282:354|282:354|243:341,1,100,0|0,0:0|0:0,0:0:0:0:
105,195,138876,2,0,B|101:133|101:133|132:106,1,100,8|0,0:0|0:0,0:0:0:0:
256,192,139229,5,0,0:0:0:0:
308,276,139406,1,0,0:0:0:0:
216,300,139582,2,0,B|164:308|104:312|16:312,1,200,8|0,0:0|0:0,0:0:0:0:
104,124,140112,5,0,0:0:0:0:
184,224,140288,1,0,0:0:0:0:
144,44,140465,1,0,0:0:0:0:
96,200,140641,1,0,0:0:0:0:
196,148,140818,1,0,0:0:0:0:
148,304,140994,1,8,0:0:0:0:
160,336,141347,6,0,B|208:348|260:332,1,100,8|0,0:0|0:0,0:0:0:0:
179,36,141700,2,0,B|144:72|132:125,1,100,8|0,0:0|0:0,0:0:0:0:
428,203,142053,2,0,B|415:155|375:118,1,100,8|0,3:0|3:0,3:0:0:0:
312,216,142406,2,0,L|312:268,2,50
256,112,142759,6,0,P|216:144|192:192,1,100,8|0,0:0|0:0,0:0:0:0:
112,112,143112,1,0,0:0:0:0:
188,328,143288,1,0,0:0:0:0:
188,328,143376,1,0,0:0:0:0:
188,328,143465,2,0,B|240:328|240:328|288:320|340:328|340:328|388:328,2,200,8|0|4,0:0|0:0|0:0,0:0:0:0:
112,192,144523,5,0,0:0:0:0:
400,192,144876,1,0,0:0:0:0:
256,344,145229,2,0,B|240:296|256:252|256:252|276:200|256:148,2,200,8|0|0,0:0|0:0|0:0,0:0:0:0:
472,288,146112,1,0,0:0:0:0:
440,280,146465,5,0,0:0:0:0:
72,224,146641,1,0,0:0:0:0:
104,212,146994,5,0,0:0:0:0:
408,128,147170,1,0,0:0:0:0:
380,108,147523,5,0,0:0:0:0:
132,108,147700,1,0,0:0:0:0:
328,52,147876,1,0,0:0:0:0:
184,52,148053,1,0,0:0:0:0:
256,32,148229,1,0,0:0:0:0:
256,296,148406,1,12,0:0:0:0:
256,328,148759,6,0,P|296:328|332:308,1,80,8|0,0:0|0:0,0:0:0:0:
292,156,149112,1,0,1:0:0:0:
96,224,149288,1,0,1:0:0:0:
96,224,149376,1,0,1:0:0:0:
96,224,149465,1,0,1:0:0:0:
292,232,149641,5,0,1:0:0:0:
292,232,149818,1,0,1:0:0:0:
176,80,149994,1,0,1:0:0:0:
128,324,150170,2,0,B|156:352|156:352|188:324|272:324,1,160,8|0,0:0|0:0,0:0:0:0:
476,320,150700,1,0,1:0:0:0:
392,160,150876,1,0,1:0:0:0:
368,140,150965,1,0,1:0:0:0:
336,132,151053,1,0,1:0:0:0:
144,192,151229,6,0,B|172:220|172:220|184:260|184:260|208:292,1,120
248,300,151582,2,0,B|288:288|288:288|328:288|328:288|364:272,1,120,8|0,0:0|0:0,0:0:0:0:
388,240,151935,2,0,B|404:200|404:200|440:192|440:192|472:168,1,120
472,128,152288,2,0,L|404:28,1,120
364,32,152641,2,0,B|328:56|328:56|288:56|288:56|252:64,1,120
212,64,152994,2,0,L|132:64,1,80,8|0,0:0|0:0,0:0:0:0:
364,32,153347,5,0,0:0:0:0:
256,192,153523,1,0,0:0:0:0:
256,80,153700,1,0,0:0:0:0:
364,304,153876,1,0,0:0:0:0:
468,84,154053,6,0,B|452:104|468:144|452:164,1,80,0|0,2:0|2:0,2:0:0:0:
464,236,154318,2,0,B|440:246|437:289|414:300,1,80,0|0,2:0|2:0,2:0:0:0:
351,266,154582,2,0,B|325:265|303:302|278:302,1,80,0|0,2:0|2:0,2:0:0:0:
44,84,155465,6,0,B|60:104|44:144|60:164,1,80,0|0,2:0|2:0,2:0:0:0:
48,236,155729,2,0,B|72:246|75:289|98:300,1,80,0|0,2:0|2:0,2:0:0:0:
161,266,155994,2,0,B|187:265|209:302|234:302,1,80,0|0,2:0|2:0,2:0:0:0:
256,192,156876,5,0,2:0:0:0:
156,32,157141,1,0,2:0:0:0:
356,32,157406,1,2,2:0:0:0:
360,288,158288,6,0,P|324:312|288:308,1,80,8|0,0:0|0:0,0:0:0:0:
152,96,158641,2,0,P|188:72|224:76,1,80
256,76,159170,1,8,3:0:0:0:
256,308,159347,1,8,3:0:0:0:
256,340,159700,6,0,B|228:336|200:336|200:336|176:328,1,80,8|0,0:0|0:0,0:0:0:0:
160,144,160053,1,0,1:0:0:0:
96,228,160229,1,0,1:0:0:0:
96,228,160318,1,0,1:0:0:0:
96,228,160406,2,0,B|136:244|176:244|216:232|216:232|253:232,1,160
480,192,160935,1,0,1:0:0:0:
253,152,161112,6,0,B|216:152|216:152|176:140|136:140|96:156,2,160,8|0|0,0:0|0:0|0:0,0:0:0:0:
160,240,161994,1,0,1:0:0:0:
252,72,162170,1,0,1:0:0:0:
348,300,162347,5,0,1:0:0:0:
348,300,162435,1,0,1:0:0:0:
348,300,162523,2,0,B|308:308|287:296|287:296|268:304,1,80,8|0,0:0|0:0,0:0:0:0:
164,84,162876,2,0,B|204:76|224:87|224:87|241:80,1,80
241,303,163229,2,0,B|224:296|224:296|204:308|164:300,1,80,8|0,0:0|0:0,0:0:0:0:
270,80,163582,2,0,B|287:87|287:87|308:76|348:84,1,80
480,192,163935,1,8,1:0:0:0:
448,192,164288,6,0,B|408:184|408:184|388:192|388:192|368:192,1,80,8|0,0:0|0:0,0:0:0:0:
256,192,164641,2,0,B|216:184|216:184|196:192|196:192|176:192,1,80
32,192,164994,1,0,1:0:0:0:
32,224,165347,6,0,B|168:224|168:276|168:276|168:320,1,200,8|0,0:0|0:0,0:0:0:0:
168,328,165876,1,0,1:0:0:0:
476,348,166229,1,0,1:0:0:0:
168,328,166582,1,4,1:0:0:0:
256,192,167465,5,8,1:0:0:0:
276,32,167818,2,0,L|236:32,2,40
312,48,168082,1,0,0:0:0:0:
340,72,168170,1,4,0:0:0:0:
480,192,169053,5,0,0:0:0:0:
256,192,169229,1,0,0:0:0:0:
32,192,169406,1,4,0:0:0:0:
