osu file format v14

[General]
AudioFilename: Rainbow Road.mp3
AudioLeadIn: 0
PreviewTime: 32654
Countdown: 0
SampleSet: Soft
StackLeniency: 0.7
Mode: 0
LetterboxInBreaks: 1
EpilepsyWarning: 1
WidescreenStoryboard: 1

[Editor]
Bookmarks: 151002
DistanceSpacing: 1.2
BeatDivisor: 4
GridSize: 4
TimelineZoom: 1.1

[Metadata]
Title:Rainbow Road
TitleUnicode:Rainbow Road
Artist:nanobii
ArtistUnicode:nanobii
Creator:yugijedi
Version:Hard
Source:
Tags:happy hardcore techno
BeatmapID:630689
BeatmapSetID:271869

[Difficulty]
HPDrainRate:6
CircleSize:4
OverallDifficulty:5
ApproachRate:8
SliderMultiplier:1.5
SliderTickRate:1

[Events]
//Background and Video events
0,0,"background.jpg",0,0
//Break Periods
2,77223,79891
2,81370,82715
2,84194,85538
2,92665,101068
//Storyboard Layer 0 (Background)
//Storyboard Layer 1 (Fail)
//Storyboard Layer 2 (Pass)
//Storyboard Layer 3 (Foreground)
//Storyboard Sound Samples

[TimingPoints]
171,352.941176470588,4,1,0,60,1,0
11465,-100,4,2,1,30,0,0
34053,-86.9565217391304,4,1,0,45,0,1
56641,-100,4,1,1,45,0,0
71641,-66.6666666666667,4,1,1,45,0,0
73936,-100,4,2,1,30,0,0
87700,-200,4,2,1,30,0,0
103582,-100,4,2,1,30,0,0
114523,-80,4,2,1,30,0,0
115935,-66.6666666666667,4,2,1,30,0,0
125818,-86.9565217391304,4,1,0,45,0,1
148406,-100,4,1,1,45,0,0
152641,-80,4,1,1,45,0,0
169053,-100,4,1,1,45,0,0

[Colours]
Combo1 : 217,0,0
Combo2 : 169,83,255
Combo3 : 0,128,255
Combo4 : 1,239,209
Combo5 : 190,252,3
Combo6 : 252,255,128
Combo7 : 255,211,79
Combo8 : 253,108,2

[HitObjects]
400,208,11465,5,0,0:0:0:0:
400,208,11641,1,0,0:0:0:0:
400,208,11818,2,0,B|360:208|360:208|328:192,1,75,0|0,0:0|0:0,0:0:0:0:
248,144,12170,1,0,0:0:0:0:
248,232,12347,1,0,0:0:0:0:
168,188,12523,2,0,B|120:248|120:248|80:244|52:268,1,150,0|0,0:0|0:0,0:0:0:0:
108,336,13053,5,0,0:0:0:0:
196,348,13229,2,0,L|272:348,1,75,0|0,0:0|0:0,0:0:0:0:
296,260,13582,1,0,0:0:0:0:
296,260,13759,1,0,0:0:0:0:
344,184,13935,2,0,P|324:148|288:120,1,75,0|0,0:0|0:0,0:0:0:0:
376,76,14288,6,0,B|328:40|296:40|296:40|256:56|216:56,2,150,0|0|0,0:0|0:0|0:0,0:0:0:0:
444,134,15170,1,0,0:0:0:0:
376,193,15347,2,0,P|336:185|300:185,1,75
225,267,15700,2,0,P|262:275|300:276,1,75
188,184,16053,1,0,0:0:0:0:
108,228,16229,1,0,0:0:0:0:
204,96,16406,2,0,B|276:76|276:76,1,75
292,164,16759,1,0,0:0:0:0:
256,248,16935,1,0,0:0:0:0:
220,332,17112,6,0,L|296:324,1,75
440,288,17465,2,0,L|364:280,1,75,0|0,0:0|0:0,0:0:0:0:
288,224,17818,1,0,0:0:0:0:
240,152,17994,1,0,0:0:0:0:
192,76,18170,2,0,L|340:52,1,150
404,112,18700,1,0,0:0:0:0:
339,167,18876,6,0,P|305:152|268:152,1,75
200,212,19229,2,0,P|182:180|177:141,1,75
160,56,19582,1,0,0:0:0:0:
244,84,19759,1,0,0:0:0:0:
92,112,19935,2,0,B|44:160|20:208|20:208|20:240,2,150
256,192,20994,2,0,B|300:213|300:213|338:252|352:300,2,150
104,192,22053,5,0,0:0:0:0:
40,248,22229,1,0,0:0:0:0:
104,304,22406,1,0,0:0:0:0:
184,288,22582,1,0,0:0:0:0:
256,328,22759,6,0,B|304:328|304:328|332:332,1,75
368,248,23112,2,0,B|394:251|394:251|442:251,1,75
404,168,23465,2,0,B|316:168|316:168|256:152,2,150
440,84,24347,1,0,0:0:0:0:
352,60,24523,2,0,B|312:48|312:48|286:28,1,75
216,84,24876,2,0,B|187:114|187:114|174:144,1,75
112,208,25229,1,0,0:0:0:0:
112,296,25406,5,0,0:0:0:0:
112,296,25494,1,0,0:0:0:0:
112,296,25582,2,0,B|192:288|192:288|264:288,1,150
432,232,26288,5,0,0:0:0:0:
256,196,26641,1,0,0:0:0:0:
376,64,26994,1,0,0:0:0:0:
356,164,27347,2,0,P|320:160|280:168,1,75
328,256,27700,2,0,P|358:277|387:301,1,75
472,344,28053,1,0,0:0:0:0:
472,344,28229,1,4,0:0:0:0:
256,192,28406,12,0,33347,0:0:0:0:
464,328,34053,6,0,B|400:296|344:320|344:320|300:340,1,172.500003290176
200,316,34582,1,0,2:0:0:0:
128,244,34759,2,0,P|140:200|180:164,1,86.2500016450882
224,248,35112,2,0,L|312:248,1,86.2500016450882
396,192,35465,1,0,2:0:0:0:
304,144,35641,1,0,2:0:0:0:
368,64,35818,6,0,P|328:44|288:44,1,86.2500016450882
184,40,36170,1,0,2:0:0:0:
208,140,36347,1,0,2:0:0:0:
104,152,36523,2,0,P|112:196|144:224,1,86.2500016450882
244,224,36876,2,0,L|332:224,1,86.2500016450882
420,280,37229,5,0,2:0:0:0:
420,280,37406,1,0,2:0:0:0:
356,364,37582,2,0,P|324:332|309:289,1,86.2500016450882
256,204,37935,1,0,2:0:0:0:
152,200,38112,1,0,2:0:0:0:
202,294,38288,2,0,P|186:334|156:364,1,86.2500016450882
100,276,38641,6,0,P|68:244|56:196,2,86.2500016450882
152,200,39170,1,0,2:0:0:0:
112,104,39347,2,0,P|156:100|196:84,1,86.2500016450882
284,32,39700,1,0,2:0:0:0:
348,112,39876,1,0,2:0:0:0:
260,164,40053,2,0,P|216:168|176:184,1,86.2500016450882
184,80,40406,1,0,2:0:0:0:
336,192,40582,5,0,2:0:0:0:
312,316,40759,2,0,P|268:320|220:316,1,86.2500016450882
264,220,41112,2,0,P|180:224|120:300,1,172.500003290176
226,317,41641,5,0,2:0:0:0:
312,256,41818,2,0,L|392:224,1,86.2500016450882
488,188,42170,1,0,2:0:0:0:
392,144,42347,1,0,2:0:0:0:
408,40,42523,2,0,P|448:56|484:96,2,86.2500016450882
304,36,43053,5,0,2:0:0:0:
204,64,43229,2,0,L|160:76,2,43.1250008225441
228,164,43582,2,0,P|244:204|289:228,1,86.2500016450882
396,200,43935,6,0,L|228:164,1,172.500003290176,8|8,0:0|0:0,0:0:0:0:
132,124,44465,1,0,2:0:0:0:
36,160,44641,2,8,P|60:200|96:220,1,86.2500016450882
192,252,44994,1,4,2:0:0:0:
160,352,45170,1,0,2:0:0:0:
260,328,45347,2,0,P|304:320|338:281,2,86.2500016450882
252,224,45876,5,0,2:0:0:0:
260,328,46053,2,0,B|200:328|200:328|164:320,1,86.2500016450882
308,156,46406,2,0,B|368:156|368:156|400:164,1,86.2500016450882
252,224,46759,2,0,P|224:140|287:72,1,172.500003290176
376,108,47288,5,0,0:0:0:0:
320,20,47465,1,0,0:0:0:0:
216,36,47641,1,0,0:0:0:0:
112,20,47818,1,0,0:0:0:0:
56,108,47994,1,0,0:0:0:0:
40,212,48170,2,0,L|36:256,2,43.1250008225441
144,212,48523,6,0,L|144:298,1,86.2500016450882
248,284,48876,2,0,P|244:328|222:373,1,86.2500016450882
144,300,49229,1,0,2:0:0:0:
52,348,49406,1,0,2:0:0:0:
248,284,49582,6,0,P|292:284|336:260,1,86.2500016450882
348,164,49935,2,0,P|304:164|262:187,1,86.2500016450882
168,216,50288,1,0,2:0:0:0:
168,216,50465,1,0,2:0:0:0:
152,320,50641,6,0,P|196:320|238:297,2,86.2500016450882
60,272,51170,1,0,0:0:0:0:
84,172,51347,2,0,B|106:127|106:127|106:71|162:39|162:39|176:39,1,172.500003290176
216,136,51876,1,0,2:0:0:0:
252,232,52053,2,0,B|264:232|264:232|320:200|320:144|320:144|342:99,1,172.500003290176
254,39,52582,1,0,2:0:0:0:
254,39,52759,5,0,3:1:0:0:
344,26,52935,1,0,3:1:0:0:
425,62,53112,1,0,3:1:0:0:
472,140,53288,1,0,3:1:0:0:
472,230,53465,1,0,3:1:0:0:
412,297,53641,1,0,3:1:0:0:
327,328,53818,1,0,3:1:0:0:
256,192,54170,12,0,56288,0:0:0:0:
256,192,56641,6,0,P|296:184|316:120,1,112.5
256,8,57170,1,0,0:0:0:0:
240,248,58053,6,0,P|288:232|312:208,1,75,0|0,0:0|0:0,0:0:0:0:
312,176,58318,2,0,P|274:142|241:133,1,75
216,144,58582,2,0,P|205:193|214:226,1,75,0|0,0:0|0:0,0:0:0:0:
272,136,59465,6,0,P|224:152|200:176,1,75
200,208,59729,2,0,P|237:241|270:250,1,75
296,240,59994,2,0,P|306:190|297:157,1,75,0|0,0:0|0:0,0:0:0:0:
128,96,60876,5,0,0:0:0:0:
72,160,61053,1,0,0:0:0:0:
96,240,61229,2,0,P|104:304|112:328,1,75,0|0,0:0|0:0,0:0:0:0:
240,240,61582,2,0,P|232:176|224:152,1,75,0|0,0:0|0:0,0:0:0:0:
176,280,61935,2,0,P|200:320|232:344,1,75,0|0,0:0|0:0,0:0:0:0:
312,344,62288,6,0,P|345:317|366:280,1,75
336,200,62641,2,0,P|302:226|281:263,1,75,0|0,0:0|0:0,0:0:0:0:
416,352,62994,2,0,P|449:325|470:288,1,75,0|0,0:0|0:0,0:0:0:0:
416,224,63347,1,0,0:0:0:0:
376,152,63523,1,0,0:0:0:0:
296,128,63700,6,0,L|220:128,1,75
192,104,63965,2,0,L|116:104,1,75
88,80,64229,2,0,L|0:80,1,75,0|0,0:0|0:0,0:0:0:0:
3,304,65112,6,0,L|88:304,1,75,0|0,0:0|0:0,0:0:0:0:
107,280,65376,2,0,L|192:280,1,75
211,256,65641,2,0,L|296:256,1,75
424,160,66523,6,0,B|384:120|384:120|352:112,1,75,0|0,0:0|0:0,0:0:0:0:
352,200,66876,2,0,B|392:240|392:240|424:248,1,75,0|0,0:0|0:0,0:0:0:0:
404,80,67406,2,0,L|336:48,1,75
256,76,67759,1,0,0:0:0:0:
192,136,67935,6,0,P|152:152|96:152,1,75
72,232,68288,2,0,P|114:234|153:250,1,75,0|0,0:0|0:0,0:0:0:0:
96,312,68641,1,0,0:0:0:0:
176,344,68818,1,0,0:0:0:0:
224,272,68994,1,0,0:0:0:0:
304,296,69170,5,0,0:0:0:0:
304,296,69259,1,0,0:0:0:0:
304,296,69347,2,0,L|392:288,1,75
408,264,69612,2,0,L|328:232,1,75
312,208,69876,2,0,L|344:128,1,75,0|0,0:0|0:0,0:0:0:0:
168,129,70759,2,0,L|200:208,1,75,0|0,0:0|0:0,0:0:0:0:
182,232,71023,2,0,L|104:264,1,75
123,288,71288,2,0,L|208:296,1,75,0|0,0:0|0:0,0:0:0:0:
368,344,71641,6,0,B|360:312|360:312|328:296|328:296|328:248|328:248|304:232,1,112.500004291535
264,128,71994,2,0,B|256:96|256:96|224:80|224:80|224:32|224:32|200:16,1,112.500004291535,0|0,0:0|0:0,0:0:0:0:
216,24,72523,5,0,0:0:0:0:
152,192,72876,1,0,0:0:0:0:
360,192,73229,1,0,0:0:0:0:
296,24,73582,1,0,0:0:0:0:
256,192,73935,1,4,0:0:0:0:
216,352,74288,1,0,0:0:0:0:
256,192,74641,6,0,B|228:116|180:64|180:64|104:48,1,225
136,140,75347,1,0,0:0:0:0:
104,228,75523,1,0,0:0:0:0:
136,316,75700,2,0,P|168:300|208:292,1,75
376,316,76053,2,0,P|344:300|304:292,1,75
256,204,76406,6,0,L|260:92,1,112.5
128,68,76935,2,0,L|92:52,1,37.5
384,192,80641,6,0,P|352:160|304:152,1,75,0|0,0:0|0:0,0:0:0:0:
312,232,80994,1,0,0:0:0:0:
312,232,81170,1,0,0:0:0:0:
256,136,83465,5,0,0:0:0:0:
192,192,83641,1,0,0:0:0:0:
256,248,83818,1,0,0:0:0:0:
320,192,83994,1,0,0:0:0:0:
144,152,86288,6,0,P|176:120|216:120,1,75,0|0,0:0|0:0,0:0:0:0:
368,152,86641,2,0,P|336:120|296:120,1,75,0|0,0:0|0:0,0:0:0:0:
296,320,87700,6,0,L|208:320,1,75,0|0,0:0|0:0,0:0:0:0:
168,248,88406,2,0,L|212:171,1,75,0|0,0:0|0:0,0:0:0:0:
301,174,89112,2,0,L|320:208,3,37.5
196,148,91935,5,0,0:0:0:0:
32,148,92112,1,0,0:0:0:0:
156,80,92288,1,0,0:0:0:0:
72,80,92465,1,0,0:0:0:0:
256,192,101818,12,0,102876,0:0:0:0:
176,152,103229,5,0,0:0:0:0:
176,152,103406,1,0,0:0:0:0:
256,192,103582,2,0,L|336:232,2,75,0|0|0,0:0|0:0|0:0,0:0:0:0:
176,152,104112,1,0,0:0:0:0:
136,224,104288,6,0,B|152:264|152:264|176:264|192:288|192:288|240:328|240:328|296:304|336:336,1,225,0|0,0:0|0:0,0:0:0:0:
376,264,104994,1,0,0:0:0:0:
328,192,105170,1,0,0:0:0:0:
388,124,105347,2,0,P|405:84|406:39,1,75
320,40,105700,6,0,B|304:80|304:80|280:80|264:104|264:104|216:144|216:144|160:120|120:152,1,225
47,191,106406,2,0,P|56:233|56:276,1,75,0|0,0:0|0:0,0:0:0:0:
120,336,106759,2,0,P|162:335|204:327,1,75,0|0,0:0|0:0,0:0:0:0:
307,327,107112,2,0,P|349:335|392:336,1,75,0|0,0:0|0:0,0:0:0:0:
455,276,107465,2,0,P|455:233|464:192,1,75,0|0,0:0|0:0,0:0:0:0:
376,192,107818,5,0,0:0:0:0:
304,144,107994,1,0,0:0:0:0:
216,144,108170,1,0,0:0:0:0:
144,192,108347,1,0,0:0:0:0:
56,192,108523,6,0,P|32:136|32:112,1,75,0|0,0:0|0:0,0:0:0:0:
104,64,108876,1,0,0:0:0:0:
256,144,109229,1,0,0:0:0:0:
256,144,109406,1,0,0:0:0:0:
424,192,109759,1,0,0:0:0:0:
352,232,110112,1,0,0:0:0:0:
304,304,110465,1,0,0:0:0:0:
216,304,110818,1,0,0:0:0:0:
160,232,111170,1,0,0:0:0:0:
88,192,111523,5,0,0:0:0:0:
88,192,111700,2,0,B|120:160|120:160|134:123,1,75,0|0,0:0|0:0,0:0:0:0:
216,160,112053,2,0,L|296:128,1,75,0|0,0:0|0:0,0:0:0:0:
377,123,112406,2,0,B|392:160|392:160|424:192,2,75,0|0|0,0:0|0:0|0:0,0:0:0:0:
320,64,112935,1,0,0:0:0:0:
240,40,113112,6,0,B|192:40|192:40|160:80,1,75,0|0,0:0|0:0,0:0:0:0:
128,144,113465,2,0,B|94:110|94:110|43:115,1,75,0|0,0:0|0:0,0:0:0:0:
32,192,113818,2,0,B|60:215|60:215|60:263,1,75,0|0,0:0|0:0,0:0:0:0:
112,328,114170,2,0,B|145:294|145:294|140:243,1,75,0|0,0:0|0:0,0:0:0:0:
256,192,114523,6,0,P|304:168|352:192,1,93.75,0|0,0:0|0:0,0:0:0:0:
304,288,114876,2,0,P|348:317|352:371,1,93.75,0|0,0:0|0:0,0:0:0:0:
432,296,115229,2,0,P|473:265|475:213,1,93.75,0|0,0:0|0:0,0:0:0:0:
480,104,115582,2,0,P|432:128|384:104,1,93.75,0|0,0:0|0:0,0:0:0:0:
256,104,115935,6,0,B|144:96,1,112.500004291535
256,280,116288,2,0,B|356:230,1,112.500004291535
168,192,116641,2,0,B|105:285,1,112.500004291535
344,192,116994,2,0,B|351:80,1,112.500004291535
256,192,117347,12,4,124053,0:0:0:0:
352,160,124406,5,0,3:0:0:0:
256,72,124582,5,0,3:0:0:0:
160,160,124759,5,0,3:0:0:0:
428,192,125112,6,2,L|364:216,1,56.2500021457673
240,192,125376,2,2,L|160:160,1,56.2500021457673
64,228,125641,1,2,2:0:0:0:
44,340,125818,6,0,B|100:340|146:313|146:313|212:312,1,172.500003290176
300,260,126347,1,0,2:0:0:0:
332,160,126523,2,0,B|276:160|229:186|229:186|164:188,1,172.500003290176
84,124,127053,5,0,2:0:0:0:
36,32,127229,2,0,B|88:40|88:40|148:40,1,86.2500016450882
204,96,127582,1,0,2:0:0:0:
224,196,127759,1,0,2:0:0:0:
308,132,127935,1,0,2:0:0:0:
408,164,128112,1,0,2:0:0:0:
384,64,128288,2,0,B|432:64|432:64|490:56,1,86.2500016450882
408,164,128641,6,0,B|444:212|444:212|496:228|496:228|476:300,1,172.500003290176
376,296,129170,1,0,2:0:0:0:
300,364,129347,2,0,B|269:281|269:281|276:252|309:233|309:233|324:216,1,172.500003290176
320,112,129876,1,0,2:0:0:0:
408,164,130053,6,0,P|452:188|464:236,1,86.2500016450882
368,252,130406,2,0,P|319:265|277:239,1,86.2500016450882
244,160,130759,2,0,P|207:180|192:220,1,86.2500016450882
260,300,131112,1,0,0:0:0:0:
260,300,131288,1,0,2:0:0:0:
332,228,131465,6,0,B|340:160|340:160|340:116|324:56,1,172.500003290176
256,136,131994,1,0,2:0:0:0:
184,60,132170,2,0,B|169:160|169:196|169:196|177:232,1,172.500003290176
76,248,132700,1,0,2:0:0:0:
140,328,132876,6,0,B|184:328|184:328|228:320,1,86.2500016450882
176,228,133229,2,0,B|199:190|199:190|215:149,1,86.2500016450882
284,228,133582,2,0,B|316:255|316:255|343:289,1,86.2500016450882
428,348,133935,1,0,2:0:0:0:
476,256,134112,1,0,2:0:0:0:
396,192,134288,2,0,P|397:111|321:73,2,172.500003290176
188,192,135347,1,0,0:0:0:0:
320,160,135700,6,0,B|276:136|276:136|216:136,1,86.2500016450882,8|0,0:0|0:0,0:0:0:0:
164,204,136053,2,0,B|208:228|208:228|268:228,1,86.2500016450882,8|0,0:0|0:0,0:0:0:0:
232,136,136406,1,8,2:0:0:0:
128,128,136582,1,8,2:0:0:0:
76,220,136759,1,4,2:0:0:0:
144,300,136935,1,0,2:0:0:0:
240,336,137112,6,0,L|284:336,2,43.1250008225441
144,300,137465,2,0,B|103:292|103:292|72:260,1,86.2500016450882
72,144,137818,2,0,B|112:152|112:152|144:184,1,86.2500016450882
336,288,138170,6,0,B|314:235|314:235|280:194|257:124|257:124|264:80|228:52,1,258.750004935265
128,48,138876,2,0,B|152:84|152:84|192:112,1,86.2500016450882
128,192,139229,1,0,2:0:0:0:
56,264,139406,1,0,2:0:0:0:
120,344,139582,6,0,B|176:336|176:336|224:312|280:308|280:308|332:304|372:288,1,258.750004935265
336,192,140288,1,0,2:0:0:0:
256,124,140465,1,0,2:0:0:0:
176,192,140641,2,0,B|168:148|168:148|112:128,2,86.2500016450882
256,224,141170,1,0,2:0:0:0:
236,324,141347,6,0,P|288:316|340:292,1,86.2500016450882
420,296,141700,2,0,P|404:252|357:211,1,86.2500016450882
352,124,142053,2,0,P|308:144|284:172,1,86.2500016450882
204,240,142406,2,0,L|164:260,2,43.1250008225441
288,312,142759,6,0,B|336:288|336:288|392:280|436:264|436:264|452:264,2,172.500003290176
256,212,143641,1,0,2:0:0:0:
196,296,143818,6,0,B|162:254|162:254|143:200|118:161|118:161|114:145,1,172.500003290176
24,92,144347,1,0,2:0:0:0:
40,196,144523,1,0,2:0:0:0:
136,232,144700,1,0,2:0:0:0:
240,216,144876,6,0,B|288:188|288:188|288:136,1,86.2500016450882
272,56,145229,2,0,B|224:84|224:84|224:136,1,86.2500016450882
256,288,145582,1,8,2:0:0:0:
472,192,145935,1,8,2:0:0:0:
472,192,146112,1,8,2:0:0:0:
256,40,146465,1,8,2:0:0:0:
256,40,146641,1,8,2:0:0:0:
40,192,146994,1,8,2:0:0:0:
40,192,147170,1,8,2:0:0:0:
256,344,147523,5,8,2:0:0:0:
256,344,147700,1,8,2:0:0:0:
256,344,147876,1,8,2:0:0:0:
300,264,148053,2,8,P|256:256|212:264,1,86.2500016450882
256,128,148406,1,8,2:0:0:0:
256,128,149818,6,0,B|208:128|208:128|152:144,1,75,0|0,0:0|0:0,0:0:0:0:
152,112,150082,2,0,B|104:112|104:112|48:128,1,75
56,152,150347,2,0,B|64:199|64:199|89:251,1,75,0|0,0:0|0:0,0:0:0:0:
431,232,151229,2,0,B|447:199|447:199|456:152,1,75,0|0,0:0|0:0,0:0:0:0:
443,122,151494,2,0,B|408:112|408:112|360:112,1,75
339,138,151759,2,0,B|304:128|304:128|256:128,1,75,0|0,0:0|0:0,0:0:0:0:
256,192,152641,6,0,B|208:216|208:216|144:224,1,93.75,0|0,0:0|0:0,0:0:0:0:
56,192,152994,2,0,B|59:138|59:138|84:79,1,93.75,0|0,0:0|0:0,0:0:0:0:
152,16,153347,2,0,B|192:40|192:40|235:96,1,93.75,0|0,0:0|0:0,0:0:0:0:
256,192,153700,1,0,0:0:0:0:
256,296,153876,1,0,0:0:0:0:
352,240,154053,6,0,B|400:216|400:216|392:184|416:168,1,93.75,0|0,0:0|0:0,0:0:0:0:
392,144,154318,2,0,B|395:90|395:90|363:81|361:52,1,93.75
336,80,154582,2,0,B|288:104|288:104|296:135|272:152,1,93.75,0|0,0:0|0:0,0:0:0:0:
160,240,155465,2,0,B|112:216|112:216|120:184|96:168,1,93.75,0|0,0:0|0:0,0:0:0:0:
120,144,155729,2,0,B|116:90|116:90|148:81|150:52,1,93.75
176,80,155994,2,0,B|224:104|224:104|215:135|240:152,1,93.75,0|0,0:0|0:0,0:0:0:0:
256,352,156876,1,0,0:0:0:0:
256,192,157141,1,0,0:0:0:0:
256,32,157406,1,0,0:0:0:0:
480,192,158288,6,0,P|448:160|384:136,1,93.75
316,184,158641,2,0,P|260:192|204:192,1,93.75
36,192,159170,1,8,0:0:0:0:
36,192,159347,1,8,0:0:0:0:
480,192,159700,6,0,P|448:160|384:136,1,93.75
316,184,160053,2,0,P|260:192|204:192,1,93.75
232,100,160406,2,0,P|152:132|132:224,1,187.5
188,300,160935,1,0,0:0:0:0:
280,284,161112,2,0,P|248:228|192:204,1,93.75
48,192,161465,1,0,0:0:0:0:
48,288,161641,1,0,0:0:0:0:
112,356,161818,1,0,0:0:0:0:
188,300,161994,1,0,0:0:0:0:
280,284,162170,6,0,B|344:260|344:260|372:260,2,93.75
244,196,162700,1,0,0:0:0:0:
156,232,162876,2,0,P|168:136|248:104,1,187.5
384,192,163406,1,0,0:0:0:0:
384,292,163582,1,0,0:0:0:0:
304,244,163759,1,0,0:0:0:0:
304,148,163935,6,0,B|328:104|328:104|360:72,1,93.75
432,132,164288,2,0,B|464:160|464:160|492:204,1,93.75
320,312,164641,2,0,P|368:312|388:272,1,93.75
240,280,164994,2,0,P|228:324|256:360,1,93.75
256,192,165347,1,0,0:0:0:0:
256,192,165876,6,0,P|232:148|192:132,1,93.75
212,268,166229,2,0,P|256:276|304:268,1,93.75
318,132,166582,2,0,P|276:150|256:192,1,93.75
256,256,167818,6,0,L|256:208,2,46.875
256,356,168170,1,0,0:0:0:0:
256,160,169053,2,0,L|256:72,2,75,0|0|0,0:0|0:0|0:0,0:0:0:0:
