osu file format v14

[General]
AudioFilename: audio.mp3
AudioLeadIn: 0
PreviewTime: 43620
Countdown: 0
SampleSet: None
StackLeniency: 0.7
Mode: 2
LetterboxInBreaks: 0
WidescreenStoryboard: 1

[Editor]
Bookmarks: 11034,22068,33103,44137,66206,82758,93793,104827,115862,126896,137931,160000,171034,182068
DistanceSpacing: 1.5
BeatDivisor: 4
GridSize: 4
TimelineZoom: 1.8

[Metadata]
Title:HYPERDRIVE
TitleUnicode:HYPER★DRIVE
Artist:nanobii
ArtistUnicode:nanobii
Creator:Xinely
Version:Rain
Source:
Tags:
BeatmapID:1436525
BeatmapSetID:679385

[Difficulty]
HPDrainRate:6
CircleSize:3.8
OverallDifficulty:9
ApproachRate:9
SliderMultiplier:1.6
SliderTickRate:1

[Events]
//Background and Video events
0,0,"bg.png",0,0
//Break Periods
//Storyboard Layer 0 (Background)
//Storyboard Layer 1 (Fail)
//Storyboard Layer 2 (Pass)
//Storyboard Layer 3 (Foreground)
//Storyboard Sound Samples

[TimingPoints]
0,344.827586206897,4,2,0,60,1,0
11034,-100,4,2,0,70,0,0
22068,-100,4,2,0,80,0,0
38706,-100,4,3,0,80,0,0
42758,-100,4,2,0,80,0,0
44137,-100,4,2,0,100,0,1
63448,-100,4,2,0,100,0,0
82844,-100,4,2,0,70,0,0
114655,-100,4,2,0,40,0,0
114827,-100,4,2,0,50,0,0
115000,-100,4,2,0,60,0,0
115172,-100,4,2,0,70,0,0
115344,-100,4,2,0,80,0,0
115517,-66.6666666666667,4,2,0,100,0,0
115862,-100,4,2,0,70,0,0
125517,-100,4,2,0,50,0,0
126379,-100,4,2,0,70,0,0
126896,-100,4,2,0,80,0,0
132413,-100,4,3,0,80,0,0
136896,-100,4,2,0,80,0,0
137931,-100,4,2,0,100,0,1
157241,-100,4,2,0,100,0,0
157242,-100,4,2,0,100,0,0
160000,-100,4,2,0,100,0,1
160172,-100,4,2,0,100,0,0
176638,-100,4,2,0,70,0,0
182068,-100,4,2,0,80,0,0
193103,-100,4,2,0,5,0,0

[HitObjects]
200,280,0,5,2,0:0:0:0:
248,220,172,1,0,0:0:0:0:
200,160,344,1,0,0:0:0:0:
68,160,517,1,2,0:0:0:0:
20,220,689,1,0,0:0:0:0:
68,280,861,1,0,0:0:0:0:
200,280,1034,2,0,L|108:280,1,80,2|0,0:0|0:0,0:0:0:0:
412,280,1379,5,2,0:0:0:0:
460,220,1551,1,0,0:0:0:0:
412,160,1723,1,0,0:0:0:0:
280,160,1896,1,2,0:0:0:0:
232,220,2068,1,0,0:0:0:0:
280,280,2240,1,0,0:0:0:0:
412,280,2413,2,0,L|500:284,1,80,2|0,0:0|0:0,0:0:0:0:
196,152,2758,5,2,0:0:0:0:
116,144,2931,1,0,0:0:0:0:
36,140,3103,1,0,0:0:0:0:
212,72,3275,1,2,0:0:0:0:
132,64,3448,1,0,0:0:0:0:
52,60,3620,1,0,0:0:0:0:
144,124,3793,2,0,L|60:124,1,80,2|0,0:0|0:0,0:0:0:0:
304,220,4137,5,2,0:0:0:0:
384,212,4310,1,0,0:0:0:0:
464,208,4482,1,0,0:0:0:0:
288,140,4654,1,2,0:0:0:0:
368,132,4827,1,0,0:0:0:0:
448,128,4999,1,0,0:0:0:0:
356,176,5172,2,0,L|436:176,1,80,2|0,0:0|0:0,0:0:0:0:
312,292,5517,5,2,0:0:0:0:
228,268,5689,1,0,0:0:0:0:
312,228,5862,1,0,0:0:0:0:
144,292,6034,1,2,0:0:0:0:
228,268,6206,1,0,0:0:0:0:
144,228,6379,1,0,0:0:0:0:
56,260,6551,2,0,L|24:172,1,80,2|0,0:0|0:0,0:0:0:0:
208,172,6896,5,2,0:0:0:0:
280,160,7068,1,0,0:0:0:0:
352,148,7241,1,0,0:0:0:0:
160,108,7413,1,2,0:0:0:0:
272,120,7586,2,0,L|380:120,1,80,2|0,0:0|0:0,0:0:0:0:
160,160,7931,2,0,L|64:160,1,80,2|0,0:0|0:0,0:0:0:0:
268,244,8275,6,0,P|348:184|316:132,1,160,2|0,0:0|0:0,0:0:0:0:
179,144,8793,2,0,P|173:219|244:244,1,160,2|0,0:0|0:0,0:0:0:0:
364,240,9310,2,0,L|364:148,1,80,2|0,0:0|0:0,0:0:0:0:
208,124,9655,6,0,L|24:124,1,160,2|0,0:0|0:0,0:0:0:0:
148,196,10172,2,2,L|140:240,2,40,0|0|0,0:0|0:0|0:0,0:0:0:0:
248,160,10517,2,0,L|336:156,2,80,2|2|0,0:0|0:0|0:0,0:0:0:0:
80,148,11034,6,0,P|60:188|60:244,1,80,10|0,0:0|0:0,0:0:0:0:
236,208,11379,2,0,P|231:168|212:133,1,80,8|0,0:0|0:0,0:0:0:0:
76,80,11724,2,0,P|52:72|0:108,2,80,8|0|8,0:0|0:0|0:0,0:0:0:0:
196,88,12241,1,0,0:0:0:0:
120,140,12413,6,0,L|152:232,1,80,10|0,0:0|0:0,0:0:0:0:
408,200,12758,2,0,L|316:200,1,80,8|0,0:0|0:0,0:0:0:0:
171,199,13103,2,0,L|259:199,1,80,8|0,0:0|0:0,0:0:0:0:
392,196,13448,2,0,L|360:108,1,80,8|0,0:0|0:0,0:0:0:0:
224,76,13793,6,0,P|160:64|120:76,1,80,10|0,0:0|0:0,0:0:0:0:
56,96,14137,1,8,0:0:0:0:
224,76,14310,2,0,P|288:64|328:76,1,80,2|8,0:0|0:0,0:0:0:0:
392,96,14654,1,0,0:0:0:0:
228,160,14827,2,0,L|124:160,1,80,10|0,0:0|0:0,0:0:0:0:
320,232,15172,6,0,P|344:176|268:88,1,160,2|8,0:0|0:0,0:0:0:0:
156,156,15689,1,2,0:0:0:0:
272,188,15862,2,0,L|380:184,1,80,8|0,0:0|0:0,0:0:0:0:
224,264,16206,2,0,L|320:264,1,80,8|0,0:0|0:0,0:0:0:0:
100,216,16551,6,0,P|84:176|104:136,1,80,10|0,0:0|0:0,0:0:0:0:
208,192,16896,2,0,L|120:192,1,80,8|0,0:0|0:0,0:0:0:0:
284,128,17241,2,0,L|380:128,2,80,8|0|8,0:0|0:0|0:0,0:0:0:0:
136,132,17758,1,2,0:0:0:0:
248,136,17931,6,0,L|356:136,1,80,10|0,0:0|0:0,0:0:0:0:
136,132,18275,2,0,L|24:128,1,80,8|0,0:0|0:0,0:0:0:0:
248,136,18620,2,0,L|248:228,1,80,10|0,0:0|0:0,0:0:0:0:
72,132,18965,2,0,L|72:224,1,80,10|0,0:0|0:0,0:0:0:0:
308,304,19310,5,2,0:0:0:0:
376,264,19482,1,0,0:0:0:0:
444,224,19655,1,0,0:0:0:0:
256,304,19827,1,2,0:0:0:0:
188,264,19999,1,0,0:0:0:0:
120,224,20172,1,0,0:0:0:0:
232,208,20344,2,0,L|224:112,1,80,2|0,0:0|0:0,0:0:0:0:
76,104,20689,5,2,0:0:0:0:
152,88,20862,1,0,0:0:0:0:
232,104,21034,1,0,0:0:0:0:
72,240,21206,2,0,P|32:180|96:128,1,160,2|2,0:0|0:0,0:0:0:0:
216,184,21724,2,2,L|124:184,1,80,0|0,0:0|0:0,0:0:0:0:
372,180,22068,6,0,L|456:180,2,80,4|0|2,1:2|0:0|0:0,0:0:0:0:
200,168,22586,2,0,L|108:160,2,80,0|0|0,1:0|0:0|0:0,0:0:0:0:
368,176,23103,1,0,1:0:0:0:
272,168,23275,6,0,L|272:80,1,80,2|0,0:0|0:0,0:0:0:0:
436,172,23620,2,0,L|436:80,1,80,0|0,1:0|0:0,0:0:0:0:
320,112,23965,1,2,0:0:0:0:
168,164,24137,2,0,L|164:72,1,80,0|2,1:0|0:0,0:0:0:0:
320,80,24482,1,0,1:0:0:0:
176,76,24655,1,0,1:0:0:0:
428,128,24827,6,0,L|328:128,1,80,0|0,1:0|0:0,0:0:0:0:
440,176,25172,1,2,0:0:0:0:
296,184,25344,2,0,L|208:184,1,80,0|0,1:0|0:0,0:0:0:0:
304,224,25689,1,2,0:0:0:0:
152,232,25862,2,0,L|56:232,1,80,0|0,1:0|0:0,0:0:0:0:
152,280,26206,5,0,0:0:0:0:
336,308,26379,2,0,L|416:308,1,80,0|0,1:0|0:0,0:0:0:0:
336,308,26724,1,2,0:0:0:0:
152,280,26896,2,0,L|232:280,1,80,0|2,1:0|0:0,0:0:0:0:
368,272,27241,1,0,1:0:0:0:
228,276,27413,1,0,1:0:0:0:
464,264,27586,6,0,B|456:212|456:212|340:208,1,160,0|2,1:0|0:0,0:0:0:0:
164,204,28103,2,0,L|156:104,1,80,0|0,1:0|0:0,0:0:0:0:
268,116,28448,1,2,0:0:0:0:
80,216,28620,2,0,L|68:116,1,80,0|2,1:0|0:0,0:0:0:0:
168,128,28965,5,0,0:0:0:0:
360,200,29137,2,0,L|368:100,1,80,0|0,1:0|0:0,0:0:0:0:
256,112,29482,1,2,0:0:0:0:
444,212,29654,2,0,L|456:112,1,80,0|2,1:0|0:0,0:0:0:0:
260,128,29999,1,0,1:0:0:0:
412,136,30172,1,0,1:0:0:0:
124,184,30344,6,0,L|24:180,1,80,0|0,1:0|0:0,0:0:0:0:
136,128,30689,1,2,0:0:0:0:
344,184,30862,2,0,L|444:180,1,80,0|0,1:0|0:0,0:0:0:0:
332,128,31207,1,2,0:0:0:0:
148,186,31379,2,0,L|152:274,1,80,0|2,1:0|0:0,0:0:0:0:
256,262,31724,5,0,0:0:0:0:
64,184,31896,2,0,L|68:272,1,80,0|0,1:0|0:0,0:0:0:0:
172,260,32241,1,2,0:0:0:0:
344,268,32413,2,0,L|356:160,1,80,0|2,1:0|0:0,0:0:0:0:
224,232,32758,1,0,1:0:0:0:
384,256,32931,1,0,1:0:0:0:
100,264,33103,6,0,P|52:236|124:180,1,160,4|0,1:2|1:0,0:0:0:0:
208,160,33620,1,0,0:0:0:0:
352,176,33793,2,0,L|432:176,1,80,0|0,1:0|0:0,0:0:0:0:
272,172,34137,2,0,L|368:176,1,80,0|0,1:0|0:0,0:0:0:0:
184,164,34482,6,0,L|25:157,1,160,0|0,1:0|1:0,0:0:0:0:
104,160,35000,1,0,0:0:0:0:
256,172,35172,2,0,L|344:152,1,80,0|0,1:0|0:0,0:0:0:0:
168,172,35517,2,0,L|88:156,1,80,0|0,1:0|0:0,0:0:0:0:
404,156,35862,6,0,P|452:200|384:268,1,160,0|0,1:0|1:0,0:0:0:0:
256,272,36379,2,0,P|236:224|248:168,1,80,2|0,0:0|1:0,0:0:0:0:
352,228,36724,1,0,0:0:0:0:
164,188,36896,2,0,P|180:148|232:128,1,80,0|0,1:0|0:0,0:0:0:0:
400,208,37241,6,0,L|236:208,1,160,0|0,1:0|1:0,0:0:0:0:
128,208,37758,1,0,0:0:0:0:
272,208,37931,2,0,L|364:208,1,80,0|0,1:0|0:0,0:0:0:0:
208,208,38275,2,0,L|128:208,1,80,0|0,1:0|0:0,0:0:0:0:
372,212,38620,5,4,1:2:0:0:
404,188,38706,1,0,0:0:0:0:
408,152,38793,1,0,0:0:0:0:
372,128,38879,1,0,0:0:0:0:
260,124,38965,1,4,0:0:0:0:
232,120,39051,1,4,0:0:0:0:
232,96,39137,1,4,0:0:0:0:
268,96,39224,1,4,0:0:0:0:
156,124,39310,5,4,0:0:0:0:
120,120,39396,1,4,0:0:0:0:
84,128,39482,1,4,0:0:0:0:
48,148,39568,1,4,0:0:0:0:
156,124,39655,1,4,0:0:0:0:
192,120,39741,1,4,0:0:0:0:
228,128,39827,1,4,0:0:0:0:
264,148,39913,1,4,0:0:0:0:
176,204,40000,6,4,L|124:208,3,40,0|0|0|0,0:0|0:0|0:0|0:0,0:0:0:0:
260,212,40344,2,4,L|304:220,3,40,0|0|0|0,0:0|0:0|0:0|0:0,0:0:0:0:
136,160,40689,6,4,L|144:100,1,40,0|0,0:0|0:0,0:0:0:0:
88,152,40862,2,4,L|96:92,1,40,0|0,0:0|0:0,0:0:0:0:
251,161,41034,2,4,L|243:101,1,40,0|0,0:0|0:0,0:0:0:0:
304,152,41207,2,4,L|296:92,1,40,0|0,0:0|0:0,0:0:0:0:
152,156,41379,6,4,L|112:158,1,40,0|0,0:0|0:0,0:0:0:0:
56,232,41551,2,4,L|96:230,1,40,0|0,0:0|0:0,0:0:0:0:
280,152,41724,2,4,L|319:154,1,40,0|0,0:0|0:0,0:0:0:0:
376,220,41896,2,4,L|337:218,1,40,0|0,0:0|0:0,0:0:0:0:
160,240,42068,5,4,0:0:0:0:
164,280,42155,1,4,0:0:0:0:
196,304,42241,1,4,0:0:0:0:
232,304,42327,1,4,0:0:0:0:
404,248,42413,1,4,0:0:0:0:
400,288,42500,1,4,0:0:0:0:
368,312,42586,1,4,0:0:0:0:
332,312,42672,1,4,0:0:0:0:
248,308,42758,6,2,L|192:224,2,80,0|0|0,0:0|0:0|0:0,0:0:0:0:
360,280,43275,1,2,0:0:0:0:
216,160,43620,2,0,L|252:152,2,20,2|0|0,0:1|0:0|0:0,0:0:0:0:
136,184,43793,2,0,L|124:164,1,20,2|0,0:1|0:0,0:0:0:0:
32,184,43965,2,0,L|56:160,1,20,2|0,0:1|0:0,0:0:0:0:
248,100,44137,6,0,L|340:100,1,80,4|0,1:2|0:0,0:0:0:0:
160,152,44482,2,4,L|64:148,1,80,0|0,1:0|0:0,3:3:0:0:
248,216,44827,2,0,L|288:308,1,80,4|0,3:0|0:0,0:0:0:0:
144,308,45172,1,0,1:0:0:0:
384,296,45344,6,0,P|432:236|364:192,1,160,2|2,0:0|0:0,0:0:0:0:
276,184,45862,2,0,L|368:184,1,80,0|0,1:0|0:0,0:0:0:0:
96,184,46206,2,0,L|-8:180,1,80,4|0,3:0|0:0,0:0:0:0:
144,120,46551,2,0,L|48:120,1,80,0|0,1:0|0:0,0:0:0:0:
304,148,46896,6,0,P|360:132|400:136,1,80,4|0,3:0|0:0,0:0:0:0:
268,112,47241,1,0,1:0:0:0:
458,148,47413,2,0,P|402:132|362:136,1,80,2|4,0:0|3:0,0:0:0:0:
494,112,47758,1,0,0:0:0:0:
368,112,47931,2,0,L|288:112,1,80,0|0,1:0|0:0,0:0:0:0:
56,116,48275,6,0,P|40:152|48:204,1,80,2|0,0:0|0:0,0:0:0:0:
148,208,48620,1,0,1:0:0:0:
316,116,48793,2,0,P|332:152|324:204,1,80,2|4,0:0|3:0,0:0:0:0:
224,208,49138,1,0,0:0:0:0:
80,196,49310,2,0,L|76:84,1,80,0|0,1:0|0:0,0:0:0:0:
332,112,49655,6,0,P|376:112|444:120,1,80,4|0,3:0|0:0,0:0:0:0:
268,148,50000,2,0,L|364:156,1,80,0|0,1:0|0:0,0:0:0:0:
160,148,50344,2,0,L|80:155,2,80,4|0|0,3:0|0:0|1:0,0:0:0:0:
416,152,50862,1,2,0:0:0:0:
276,164,51034,6,0,L|276:260,1,80,4|0,3:0|0:0,0:0:0:0:
448,244,51379,2,0,L|448:140,1,80,0|0,1:0|0:0,0:0:0:0:
168,156,51724,2,0,L|56:152,1,80,4|0,3:0|0:0,0:0:0:0:
236,160,52068,2,0,L|332:160,1,80,0|0,1:0|0:0,0:0:0:0:
144,236,52413,5,4,3:0:0:0:
52,288,52586,1,0,0:0:0:0:
144,328,52758,1,0,1:0:0:0:
392,328,52931,5,2,0:0:0:0:
484,288,53103,1,4,3:0:0:0:
392,236,53276,1,0,0:0:0:0:
144,236,53448,2,0,P|96:204|44:188,1,80,0|0,1:0|0:0,0:0:0:0:
232,244,53793,6,0,L|320:244,1,80,4|0,3:0|0:0,0:0:0:0:
128,244,54137,2,0,L|216:244,1,80,0|0,1:0|0:0,0:0:0:0:
312,252,54482,1,4,3:0:0:0:
416,280,54655,1,0,0:0:0:0:
128,244,54827,2,0,P|79:271|125:293,1,120,4|0,1:3|0:0,0:0:0:0:
268,296,55172,6,0,L|372:288,1,80,4|0,1:2|0:0,0:0:0:0:
472,288,55517,2,0,L|372:284,1,80,0|0,1:0|0:0,0:0:0:0:
200,224,55862,1,4,3:0:0:0:
120,244,56034,1,0,0:0:0:0:
196,268,56206,1,0,1:0:0:0:
440,268,56379,6,0,P|485:212|428:168,1,160,2|2,0:0|0:0,0:0:0:0:
300,164,56896,2,0,L|412:164,1,80,0|0,1:0|0:0,0:0:0:0:
116,160,57241,2,0,L|112:56,1,80,4|0,3:0|0:0,0:0:0:0:
244,156,57586,2,0,L|248:64,1,80,0|0,1:0|0:0,0:0:0:0:
480,168,57931,6,0,P|420:188|316:164,1,160,4|0,3:0|1:0,0:0:0:0:
172,156,58448,2,2,L|360:160,1,160,2|0,0:0|0:0,0:0:0:0:
452,160,58965,2,0,L|368:160,1,80,0|0,1:0|0:0,0:0:0:0:
116,152,59310,6,0,P|84:240|124:280,1,160,2|0,0:0|1:0,0:0:0:0:
283,283,59827,2,0,L|99:279,1,160,2|0,0:0|0:0,0:0:0:0:
256,244,60344,2,0,L|340:244,1,80,0|0,1:0|0:0,0:0:0:0:
40,172,60689,6,0,L|224:176,1,160,4|0,1:2|1:0,0:0:0:0:
340,176,61206,1,0,0:0:0:0:
224,160,61379,2,0,L|200:68,1,80,4|0,3:0|0:0,0:0:0:0:
388,80,61724,2,0,L|364:176,1,80,0|0,1:0|0:0,0:0:0:0:
100,208,62068,6,0,P|44:248|116:280,1,160,4|0,1:2|1:0,0:0:0:0:
196,268,62586,1,0,0:0:0:0:
32,192,62758,2,0,L|120:192,1,80,4|0,3:0|0:0,0:0:0:0:
244,192,63103,2,0,L|344:188,1,80,0|0,1:0|0:0,0:0:0:0:
56,176,63448,5,4,1:2:0:0:
40,128,63620,1,0,0:0:0:0:
24,84,63793,1,0,0:0:0:0:
168,176,63965,1,2,0:0:0:0:
188,124,64137,1,0,0:0:0:0:
204,80,64310,1,0,0:0:0:0:
344,108,64482,5,2,0:0:0:0:
364,104,64568,1,0,3:0:0:0:
388,104,64655,1,0,3:0:0:0:
404,116,64741,1,0,3:0:0:0:
328,184,64827,1,4,3:0:0:0:
312,208,64913,1,4,3:0:0:0:
336,228,65000,1,4,3:0:0:0:
372,232,65086,1,4,3:0:0:0:
476,212,65172,1,4,3:0:0:0:
504,180,65258,1,4,3:0:0:0:
500,140,65344,1,4,3:0:0:0:
472,116,65431,1,4,3:0:0:0:
432,112,65517,5,0,1:0:0:0:
164,108,65689,1,0,1:0:0:0:
300,136,66034,2,2,L|232:140,1,40,2|2,0:1|0:1,0:0:0:0:
88,144,66206,6,0,L|92:252,1,80,4|0,1:2|0:0,0:0:0:0:
224,288,66551,1,0,1:0:0:0:
140,300,66724,1,0,0:0:0:0:
288,288,66896,1,4,3:0:0:0:
372,300,67069,1,0,0:0:0:0:
208,252,67241,2,0,L|124:248,1,80,0|0,1:0|0:0,0:0:0:0:
272,172,67586,5,4,3:0:0:0:
40,192,67758,2,0,L|56:296,1,80,2|0,0:0|1:0,0:0:0:0:
300,192,68103,2,0,L|284:296,1,80,2|4,0:0|3:0,0:0:0:0:
44,216,68448,2,0,L|52:300,1,80,2|0,0:0|1:0,0:0:0:0:
168,304,68793,1,2,0:0:0:0:
440,280,68965,6,0,P|424:224|304:208,1,160,4|0,3:0|1:0,0:0:0:0:
235,201,69482,1,0,0:0:0:0:
379,197,69655,2,0,L|407:105,1,80,4|0,3:0|0:0,0:0:0:0:
235,201,70000,2,0,L|191:101,1,80,0|0,1:0|0:0,0:0:0:0:
344,120,70344,5,4,3:0:0:0:
100,176,70517,2,0,L|12:176,1,80,2|0,0:0|1:0,0:0:0:0:
272,220,70862,2,0,L|376:224,1,80,2|4,0:0|3:0,0:0:0:0:
116,280,71206,2,0,L|24:276,2,80,2|0|0,0:0|1:0|0:0,0:0:0:0:
356,292,71724,6,0,B|404:280|404:280|272:268,1,160,4|0,3:0|1:0,0:0:0:0:
164,264,72241,1,0,0:0:0:0:
296,252,72413,2,0,L|400:256,1,80,4|0,3:0|0:0,0:0:0:0:
280,140,72758,2,0,L|380:140,1,80,0|0,1:0|0:0,0:0:0:0:
468,164,73103,5,4,3:0:0:0:
152,176,73275,2,0,L|164:88,1,80,2|0,0:0|1:0,0:0:0:0:
400,100,73620,2,0,L|504:100,1,80,2|4,0:0|3:0,0:0:0:0:
228,152,73965,2,0,L|148:152,1,80,2|0,0:0|1:0,0:0:0:0:
44,152,74310,1,0,0:0:0:0:
208,260,74482,6,0,P|276:264|344:184,1,160,4|0,3:0|1:0,0:0:0:0:
216,180,75000,2,0,L|116:180,1,80,2|4,0:0|3:0,0:0:0:0:
40,192,75344,1,0,0:0:0:0:
192,88,75517,2,0,L|292:88,1,80,0|0,1:0|0:0,0:0:0:0:
124,132,75862,5,4,3:0:0:0:
376,176,76034,2,0,L|352:288,1,80,2|0,0:0|1:0,0:0:0:0:
120,292,76379,2,0,L|228:292,1,80,2|4,0:0|3:0,0:0:0:0:
440,244,76724,2,0,L|356:236,2,80,2|0|0,0:0|1:0|0:0,0:0:0:0:
192,164,77241,6,0,P|111:154|80:224,1,160,4|0,1:2|1:0,0:0:0:0:
188,244,77758,1,0,0:0:0:0:
76,240,77931,1,4,3:0:0:0:
24,236,78103,1,0,0:0:0:0:
188,244,78275,1,0,1:0:0:0:
240,240,78447,1,0,0:0:0:0:
132,240,78620,5,4,3:0:0:0:
416,236,78793,2,0,L|408:144,1,80,2|0,0:0|1:0,0:0:0:0:
148,144,79137,2,0,L|248:144,1,80,2|4,0:0|3:0,0:0:0:0:
464,200,79482,2,0,L|364:196,2,80,2|0|0,0:0|1:0|0:0,0:0:0:0:
216,168,80000,6,0,L|56:236,1,160,4|0,3:0|1:0,0:0:0:0:
164,288,80517,1,0,0:0:0:0:
300,264,80689,2,0,L|328:168,1,80,4|0,3:0|0:0,0:0:0:0:
140,264,81034,2,0,L|112:168,1,80,0|0,1:0|0:0,0:0:0:0:
276,168,81379,5,4,3:0:0:0:
32,132,81551,2,0,L|32:244,1,80,2|0,0:0|1:0,0:0:0:0:
296,216,81896,2,0,P|356:224|388:200,1,80,2|4,0:0|3:0,0:0:0:0:
116,168,82241,2,0,P|72:160|16:176,1,80,2|0,0:0|1:0,0:0:0:0:
184,244,82586,1,0,0:0:0:0:
436,188,82758,6,0,B|320:204|320:204|432:224|432:224|348:256|320:260,1,320,4|2,1:2|0:0,0:0:0:0:
184,272,83793,1,2,0:0:0:0:
388,296,84137,5,2,0:0:0:0:
256,296,84310,2,0,L|252:196,1,80,2|0,0:0|0:0,0:0:0:0:
376,208,84655,2,0,L|456:204,1,80,2|0,0:0|0:0,0:0:0:0:
332,168,85000,2,0,L|236:168,1,80,2|0,0:0|0:0,0:0:0:0:
104,172,85344,1,2,0:0:0:0:
276,232,85517,6,0,P|328:192|260:124,1,160,2|2,0:0|0:0,0:0:0:0:
184,128,86034,1,0,0:0:0:0:
328,116,86206,2,2,L|336:224,1,80,2|0,0:0|0:0,0:0:0:0:
220,120,86551,2,0,L|204:236,1,80,2|0,0:0|0:0,0:0:0:0:
320,212,86896,5,2,0:0:0:0:
76,200,87068,2,0,L|112:312,1,80,2|0,0:0|0:0,0:0:0:0:
260,212,87413,2,0,L|224:304,1,80,2|0,0:0|0:0,0:0:0:0:
100,296,87758,2,0,L|4:292,2,80,2|0|0,0:0|0:0|0:0,0:0:0:0:
400,312,88275,6,0,P|448:264|404:264,1,160,4|0,0:0|0:0,0:0:0:0:
236,264,88793,2,0,P|180:292|240:312,1,160,2|0,0:0|0:0,0:0:0:0:
384,312,89310,2,0,P|388:256|368:216,1,80,2|0,0:0|0:0,0:0:0:0:
252,208,89655,5,2,0:0:0:0:
432,192,89827,1,2,0:0:0:0:
472,128,90000,1,0,0:0:0:0:
144,100,90172,1,2,0:0:0:0:
88,164,90344,1,0,0:0:0:0:
352,184,90517,1,2,0:0:0:0:
420,180,90689,1,0,0:0:0:0:
352,184,90862,1,0,0:0:0:0:
256,188,91034,5,2,0:0:0:0:
208,208,91206,1,0,0:0:0:0:
252,232,91379,1,0,0:0:0:0:
376,276,91551,1,2,0:0:0:0:
424,264,91724,1,0,0:0:0:0:
368,232,91896,1,0,0:0:0:0:
320,268,92068,1,2,0:0:0:0:
152,268,92241,1,0,0:0:0:0:
228,272,92413,5,2,0:0:0:0:
284,228,92586,1,0,0:0:0:0:
276,176,92758,1,0,0:0:0:0:
216,160,92931,2,2,L|152:152,1,40,0|0,0:0|0:0,0:0:0:0:
240,104,93103,2,0,P|328:156|244:176,1,240,2|0,0:0|0:0,0:0:0:0:
96,168,93793,6,0,L|96:276,1,80,2|0,0:0|0:0,0:0:0:0:
216,160,94137,2,0,L|212:268,1,80,2|0,0:0|0:0,0:0:0:0:
120,304,94482,1,2,0:0:0:0:
40,264,94655,1,0,0:0:0:0:
124,228,94827,1,2,0:0:0:0:
400,260,95000,6,0,L|408:172,1,80,2|0,0:0|0:0,0:0:0:0:
264,248,95344,2,0,L|272:148,1,80,2|0,0:0|0:0,0:0:0:0:
411,188,95689,2,0,P|311:148|251:188,1,160,2|0,0:0|0:0,0:0:0:0:
160,196,96206,2,0,L|80:164,1,80,2|0,0:0|0:0,0:0:0:0:
332,192,96551,6,0,P|372:172|408:128,1,80,2|0,0:0|0:0,0:0:0:0:
232,148,96896,2,0,P|260:175|296:192,1,80,2|0,0:0|0:0,0:0:0:0:
456,192,97241,2,0,L|368:192,2,80,2|0|0,0:0|0:0|0:0,0:0:0:0:
204,268,97758,6,0,P|136:236|124:128,1,160,2|0,0:0|0:0,0:0:0:0:
256,160,98275,1,2,0:0:0:0:
132,220,98448,2,0,P|84:240|36:240,1,80,2|0,0:0|0:0,0:0:0:0:
220,220,98793,2,0,P|255:237|295:242,1,80,2|0,0:0|0:0,0:0:0:0:
184,296,99137,1,2,0:0:0:0:
352,304,99310,6,0,P|372:276|336:236,1,80,2|0,0:0|0:0,0:0:0:0:
96,232,99655,2,0,P|73:262|93:294,1,80,2|0,0:0|0:0,0:0:0:0:
208,328,100000,1,2,0:0:0:0:
304,316,100172,1,0,0:0:0:0:
396,304,100344,1,2,0:0:0:0:
256,264,100517,6,0,L|156:268,1,80,2|0,0:0|0:0,0:0:0:0:
364,260,100862,2,0,L|452:272,1,80,2|0,0:0|0:0,0:0:0:0:
136,328,101206,2,0,P|92:292|152:196,1,160,2|2,0:0|0:0,0:0:0:0:
216,192,101724,2,2,L|272:188,1,40,0|0,0:0|0:0,0:0:0:0:
328,188,101896,6,0,L|164:196,1,160,2|0,0:0|0:0,0:0:0:0:
328,272,102413,1,2,0:0:0:0:
81,262,102586,2,0,B|53:194|53:194|133:174|133:174|249:198,1,240,2|0,0:0|0:0,0:0:0:0:
380,208,103275,2,0,L|296:152,1,80,2|0,0:0|0:0,0:0:0:0:
144,144,103620,5,2,0:0:0:0:
92,148,103793,1,0,0:0:0:0:
56,124,103965,1,0,0:0:0:0:
80,88,104137,1,0,0:0:0:0:
124,76,104310,1,2,0:0:0:0:
176,88,104482,1,2,0:0:0:0:
216,120,104655,1,0,0:0:0:0:
328,164,104827,6,0,L|436:152,1,80,2|0,0:0|0:0,0:0:0:0:
128,208,105172,2,0,L|40:204,1,80,2|0,0:0|0:0,0:0:0:0:
188,284,105517,1,2,0:0:0:0:
268,232,105689,1,0,0:0:0:0:
188,184,105862,1,0,0:0:0:0:
460,288,106034,6,0,L|284:284,1,160,2|0,0:0|0:0,0:0:0:0:
156,284,106551,2,0,P|152:244|184:192,1,80,2|0,0:0|0:0,0:0:0:0:
404,224,106896,2,0,L|428:320,1,80,2|0,0:0|0:0,0:0:0:0:
292,228,107241,2,0,L|268:324,1,80,2|0,0:0|0:0,0:0:0:0:
8,188,107586,6,0,P|56:168|164:220,1,160,2|0,0:0|0:0,0:0:0:0:
295,242,108103,2,0,P|235:290|127:262,1,160,2|0,0:0|0:0,0:0:0:0:
408,172,108620,2,0,P|472:224|488:248,1,80,2|0,0:0|0:0,0:0:0:0:
344,252,108965,6,0,L|196:172,1,160,2|0,0:0|0:0,0:0:0:0:
388,188,109482,2,0,P|424:244|376:324,1,160,2|0,0:0|0:0,0:0:0:0:
224,336,110000,2,0,L|320:336,1,80,2|0,0:0|0:0,0:0:0:0:
44,256,110344,6,0,L|240:256,1,160,2|2,0:0|0:0,0:0:0:0:
324,256,110862,1,0,0:0:0:0:
204,256,111034,1,2,0:0:0:0:
312,256,111206,1,2,0:0:0:0:
44,256,111379,6,0,L|296:264,1,240,2|0,0:0|0:0,0:0:0:0:
424,268,112068,1,2,0:0:0:0:
168,260,112241,2,0,P|124:200|252:156,1,240,2|2,0:0|0:0,0:0:0:0:
472,312,112931,6,0,P|384:280|328:236,1,160,2|0,0:0|0:0,0:0:0:0:
464,224,113448,1,2,0:0:0:0:
224,328,113620,2,0,P|136:296|80:252,1,160,2|0,0:0|0:0,0:0:0:0:
216,224,114137,1,2,0:0:0:0:
460,252,114310,6,0,P|395:298|319:324,1,160,2|2,0:0|0:0,0:0:0:0:
280,292,114827,1,2,0:0:0:0:
320,256,115000,1,2,0:0:0:0:
392,280,115172,1,2,0:0:0:0:
476,264,115344,1,2,0:0:0:0:
176,192,115517,2,0,P|112:240|180:268,1,180.000006866455,0|0,1:0|0:0,0:0:0:0:
324,260,115862,6,0,L|416:268,1,80,4|0,0:2|0:0,0:0:0:0:
256,264,116206,2,0,L|160:264,1,80,2|0,0:0|0:0,0:0:0:0:
316,172,116551,1,2,0:0:0:0:
396,172,116724,1,0,0:0:0:0:
476,176,116896,1,0,0:0:0:0:
300,220,117068,6,0,L|128:212,1,160,2|0,0:0|0:0,0:0:0:0:
268,152,117586,2,0,L|384:152,1,80,2|0,0:0|0:0,0:0:0:0:
180,144,117931,2,2,L|164:248,1,80,2|0,0:0|0:0,0:0:0:0:
304,140,118275,2,0,L|320:240,1,80,2|0,0:0|0:0,0:0:0:0:
144,296,118620,6,0,P|73:330|12:272,1,160,2|0,0:0|0:0,0:0:0:0:
160,228,119137,2,0,L|320:264,1,160,2|0,0:0|0:0,0:0:0:0:
444,276,119655,2,0,L|356:268,1,80,2|0,0:0|0:0,0:0:0:0:
176,264,120000,6,0,L|160:100,1,160,2|0,0:0|0:0,0:0:0:0:
288,148,120517,2,0,P|220:196|136:192,1,160,2|0,0:0|0:0,0:0:0:0:
256,212,121034,2,0,L|344:236,1,80,2|0,0:0|0:0,0:0:0:0:
456,268,121379,6,0,L|296:275,1,160,2|2,0:0|0:0,0:0:0:0:
104,276,122068,2,0,L|16:256,2,80,2|0|0,0:0|0:0|0:0,0:0:0:0:
240,272,122586,6,0,L|404:256,1,160,2|0,0:0|0:0,0:0:0:0:
268,272,123103,2,0,L|184:264,1,80,2|0,0:0|0:0,0:0:0:0:
336,212,123448,2,0,L|372:292,1,80,2|0,0:0|0:0,0:0:0:0:
232,176,123793,2,0,L|292:116,1,80,2|0,0:0|0:0,0:0:0:0:
468,131,124137,6,0,L|364:252,1,160,2|0,0:0|0:0,0:0:0:0:
240,244,124655,2,0,L|428:244,1,160,2|0,0:0|0:0,0:0:0:0:
280,284,125172,2,0,L|192:284,1,80,2|0,0:0|0:0,0:0:0:0:
64,288,125517,5,8,0:0:0:0:
176,288,125862,1,8,0:0:0:0:
280,284,126206,1,8,0:0:0:0:
336,284,126379,1,2,0:0:0:0:
384,316,126551,1,2,0:0:0:0:
328,344,126724,1,2,0:0:0:0:
64,296,126896,6,0,L|56:196,1,80,4|0,1:2|0:0,0:0:0:0:
220,244,127241,2,0,L|224:356,1,80,2|0,0:0|0:0,0:0:0:0:
84,300,127586,2,0,P|24:292|-28:304,2,80,2|2|2,0:0|0:0|0:0,0:0:0:0:
232,304,128103,6,0,L|408:280,2,160,2|2|2,0:0|0:0|0:0,0:0:0:0:
44,156,129137,2,0,L|123:167,2,80,2|2|2,0:0|0:0|0:0,0:0:0:0:
216,180,129655,6,0,B|284:152|284:152|196:108,1,160,2|2,0:0|0:0,0:0:0:0:
76,100,130344,2,2,L|-4:140,2,80,0|0|0,0:0|0:0|0:0,0:0:0:0:
240,196,130862,6,0,P|292:124|236:52,1,160,2|2,0:0|0:0,0:0:0:0:
148,112,131379,1,2,0:0:0:0:
304,204,131551,2,0,P|360:220|464:152,2,160,2|2|2,0:0|0:0|0:0,0:0:0:0:
60,168,132413,5,4,1:2:0:0:
88,160,132500,1,4,0:0:0:0:
116,160,132586,1,4,0:0:0:0:
144,168,132672,1,4,0:0:0:0:
184,188,132758,1,4,0:0:0:0:
224,184,132844,1,4,0:0:0:0:
264,176,132931,1,4,0:0:0:0:
296,188,133017,1,4,0:0:0:0:
264,176,133103,5,4,0:0:0:0:
232,184,133189,1,4,0:0:0:0:
264,208,133275,1,4,0:0:0:0:
312,216,133362,1,4,0:0:0:0:
264,240,133448,1,4,0:0:0:0:
224,256,133534,1,4,0:0:0:0:
172,252,133620,1,4,0:0:0:0:
136,228,133706,1,4,0:0:0:0:
312,216,133793,5,4,1:2:0:0:
264,228,133879,1,4,0:0:0:0:
216,208,133965,1,4,0:0:0:0:
188,160,134051,1,4,0:0:0:0:
200,120,134137,1,4,0:0:0:0:
228,104,134224,1,4,0:0:0:0:
260,96,134310,1,4,0:0:0:0:
316,104,134396,1,4,0:0:0:0:
352,128,134482,5,4,0:0:0:0:
404,136,134568,1,4,0:0:0:0:
444,116,134655,1,4,0:0:0:0:
448,80,134741,1,4,0:0:0:0:
424,48,134827,1,4,0:0:0:0:
384,48,134913,1,4,0:0:0:0:
352,56,135000,1,4,0:0:0:0:
312,88,135086,1,4,0:0:0:0:
136,112,135172,6,4,L|144:176,1,40,4|4,1:2|0:0,0:0:0:0:
224,184,135344,2,4,L|288:176,1,40,0|0,0:0|0:0,0:0:0:0:
56,168,135517,2,4,L|56:224,1,40,0|0,0:0|0:0,0:0:0:0:
136,232,135689,2,4,L|192:220,1,40,0|0,0:0|0:0,0:0:0:0:
368,180,135862,6,4,L|372:224,1,40,4|4,1:2|0:0,0:0:0:0:
292,268,136034,2,4,L|228:276,1,40,0|0,0:0|0:0,0:0:0:0:
452,264,136206,2,4,L|412:304,1,40,0|0,0:0|0:0,0:0:0:0:
344,328,136379,2,4,L|284:332,1,40,0|0,0:0|0:0,0:0:0:0:
168,344,136896,6,2,L|156:236,1,80,0|0,0:0|0:0,0:0:0:0:
300,240,137413,2,0,P|344:184|284:128,1,160,2|0,0:0|0:0,0:0:0:0:
48,132,137931,6,0,L|140:132,1,80,4|0,1:2|0:0,0:0:0:0:
312,180,138276,2,4,L|233:177,1,80,0|0,1:0|0:0,3:3:0:0:
100,256,138621,2,0,L|196:268,1,80,4|0,3:0|0:0,0:0:0:0:
296,324,138966,1,0,1:0:0:0:
56,324,139138,6,0,B|28:256|28:256|124:248,1,160,2|2,0:0|0:0,0:0:0:0:
236,248,139656,2,0,L|328:248,1,80,0|0,1:0|0:0,0:0:0:0:
48,188,140000,2,0,L|127:191,1,80,4|0,3:0|0:0,0:0:0:0:
252,188,140345,2,0,L|156:188,1,80,0|0,1:0|0:0,0:0:0:0:
448,168,140690,6,0,P|408:169|370:183,1,80,4|0,3:0|0:0,0:0:0:0:
272,220,141035,1,0,1:0:0:0:
140,192,141207,2,0,L|192:116,1,80,2|4,0:0|3:0,0:0:0:0:
300,140,141552,1,0,0:0:0:0:
136,136,141725,2,0,L|56:136,1,80,0|0,1:0|0:0,0:0:0:0:
352,196,142069,6,0,P|354:156|338:120,1,80,2|0,0:0|0:0,0:0:0:0:
236,184,142414,1,0,1:0:0:0:
392,208,142587,2,0,P|394:168|378:132,1,80,2|4,0:0|3:0,0:0:0:0:
252,204,142932,1,0,0:0:0:0:
404,216,143104,2,0,L|484:136,1,80,0|0,1:0|0:0,0:0:0:0:
204,224,143449,6,0,P|164:220|124:221,1,80,4|0,3:0|0:0,0:0:0:0:
276,296,143794,2,0,L|372:304,1,80,0|0,1:0|0:0,0:0:0:0:
228,292,144138,2,0,L|148:299,2,80,4|0|0,3:0|0:0|1:0,0:0:0:0:
360,280,144656,1,2,0:0:0:0:
112,256,144828,6,0,L|112:352,1,80,4|0,3:0|0:0,0:0:0:0:
256,336,145173,2,0,L|348:336,1,80,0|0,1:0|0:0,0:0:0:0:
191,258,145518,2,0,L|79:254,1,80,4|0,3:0|0:0,0:0:0:0:
288,252,145862,2,0,L|288:144,1,80,0|0,1:0|0:0,0:0:0:0:
96,192,146207,5,4,3:0:0:0:
180,192,146380,1,0,0:0:0:0:
260,208,146552,1,0,1:0:0:0:
80,108,146725,5,2,0:0:0:0:
196,104,146897,1,4,3:0:0:0:
308,132,147070,1,0,0:0:0:0:
120,232,147242,2,0,P|72:200|20:184,1,80,0|0,1:0|0:0,0:0:0:0:
320,240,147587,6,0,L|408:240,1,80,4|0,3:0|0:0,0:0:0:0:
272,240,147931,2,0,L|192:240,1,80,0|0,1:0|0:0,0:0:0:0:
132,240,148276,1,4,3:0:0:0:
60,240,148449,1,0,0:0:0:0:
312,240,148621,2,0,P|346:202|297:186,1,120,4|0,1:3|0:0,0:0:0:0:
116,168,148966,6,0,L|124:68,1,80,4|0,1:2|0:0,0:0:0:0:
252,100,149311,2,0,L|331:103,1,80,0|0,1:0|0:0,0:0:0:0:
488,132,149656,1,4,3:0:0:0:
404,168,149828,1,0,0:0:0:0:
320,196,150000,1,0,1:0:0:0:
60,228,150173,6,0,B|15:172|15:172|72:88,1,160,2|2,0:0|0:0,0:0:0:0:
208,104,150690,2,0,L|320:104,1,80,0|0,1:0|0:0,0:0:0:0:
28,184,151035,2,0,L|108:184,1,80,4|0,3:0|0:0,0:0:0:0:
228,188,151380,2,0,L|140:184,1,80,0|0,1:0|0:0,0:0:0:0:
412,252,151725,6,0,P|456:196|388:136,1,160,4|0,3:0|1:0,0:0:0:0:
276,136,152241,2,2,P|227:191|271:251,1,160,2|0,0:0|0:0,0:0:0:0:
424,252,152759,2,0,L|340:252,1,80,0|0,1:0|0:0,0:0:0:0:
80,160,153104,6,0,P|48:248|88:288,1,160,2|0,0:0|1:0,0:0:0:0:
247,291,153621,2,0,L|63:287,1,160,2|0,0:0|0:0,0:0:0:0:
216,256,154138,2,0,L|300:256,1,80,0|0,1:0|0:0,0:0:0:0:
40,172,154483,6,0,L|224:176,1,160,4|0,1:2|1:0,0:0:0:0:
320,176,155000,1,0,0:0:0:0:
468,168,155173,2,0,L|444:76,1,80,4|0,3:0|0:0,0:0:0:0:
291,86,155518,2,0,L|392:88,1,80,0|0,1:0|0:0,0:0:0:0:
120,120,155862,6,0,P|64:160|136:192,1,160,4|0,1:2|1:0,0:0:0:0:
244,208,156380,1,0,0:0:0:0:
400,176,156552,2,0,L|488:176,1,80,4|0,3:0|0:0,0:0:0:0:
348,248,156897,2,0,L|448:244,1,80,0|0,1:0|0:0,0:0:0:0:
108,216,157242,5,4,1:2:0:0:
76,212,157414,1,0,0:0:0:0:
40,208,157587,1,0,0:0:0:0:
288,216,157758,1,0,1:0:0:0:
320,212,157930,1,0,0:0:0:0:
356,208,158103,1,0,0:0:0:0:
104,212,158275,2,0,L|4:208,1,80,0|0,1:0|3:0,0:0:0:0:
160,144,158621,5,4,3:0:0:0:
176,168,158707,1,4,3:0:0:0:
200,188,158794,1,4,3:0:0:0:
236,192,158880,1,4,3:0:0:0:
280,184,158966,1,4,3:0:0:0:
312,172,159052,1,4,3:0:0:0:
328,192,159138,1,4,3:0:0:0:
312,212,159225,1,4,3:0:0:0:
272,220,159311,5,0,1:0:0:0:
124,228,159483,1,0,1:0:0:0:
272,226,159828,2,2,L|311:223,1,40,2|2,0:1|0:1,0:0:0:0:
476,204,160000,6,0,L|452:312,1,80,4|0,1:2|0:0,0:0:0:0:
304,296,160345,1,0,1:0:0:0:
168,292,160518,1,0,0:0:0:0:
264,292,160690,1,4,3:0:0:0:
360,292,160863,1,0,0:0:0:0:
188,256,161035,2,0,L|200:160,1,80,0|0,1:0|0:0,0:0:0:0:
304,164,161380,5,4,3:0:0:0:
40,192,161552,2,0,P|64:220|56:176,1,80,2|0,0:0|1:0,0:0:0:0:
340,184,161897,2,0,L|300:100,1,80,2|4,0:0|3:0,0:0:0:0:
44,148,162241,2,0,P|68:176|60:132,1,80,2|0,0:0|1:0,0:0:0:0:
196,116,162587,1,2,0:0:0:0:
444,144,162759,6,0,P|428:88|308:72,1,160,4|0,3:0|1:0,0:0:0:0:
216,68,163276,1,0,0:0:0:0:
336,152,163449,2,0,L|424:152,1,80,4|0,3:0|0:0,0:0:0:0:
220,156,163794,2,0,L|176:56,1,80,0|0,1:0|0:0,0:0:0:0:
344,120,164138,5,4,3:0:0:0:
100,176,164311,2,0,L|64:88,1,80,2|0,0:0|1:0,0:0:0:0:
312,220,164656,2,0,L|416:224,1,80,2|4,0:0|3:0,0:0:0:0:
144,288,165000,2,0,L|92:392,2,80,2|0|0,0:0|1:0|0:0,0:0:0:0:
404,292,165518,6,0,B|452:280|452:280|320:268,1,160,4|0,3:0|1:0,0:0:0:0:
224,240,166035,1,0,0:0:0:0:
340,204,166207,2,0,L|444:208,1,80,4|0,3:0|0:0,0:0:0:0:
300,200,166552,2,0,L|220:200,1,80,0|0,1:0|0:0,0:0:0:0:
352,192,166897,5,4,3:0:0:0:
104,168,167069,2,0,L|116:80,1,80,2|0,0:0|0:0,0:0:0:0:
376,128,167413,2,0,L|365:207,1,80,2|4,0:0|3:0,0:0:0:0:
114,247,167758,2,0,L|168:168,2,80,2|0|0,0:0|1:0|0:0,0:0:0:0:
248,304,168276,6,0,P|316:308|280:232,1,160,4|0,3:0|1:0,0:0:0:0:
172,200,168794,2,0,L|72:200,2,80,2|4|0,0:0|3:0|0:0,0:0:0:0:
304,200,169311,2,0,L|404:200,1,80,0|0,1:0|0:0,0:0:0:0:
236,144,169656,5,4,3:0:0:0:
480,180,169828,2,0,L|456:292,1,80,2|0,0:0|1:0,0:0:0:0:
216,296,170173,2,0,L|136:296,1,80,2|4,0:0|3:0,0:0:0:0:
384,244,170518,2,0,L|463:251,2,80,2|0|0,0:0|1:0|0:0,0:0:0:0:
92,208,171035,6,0,P|131:143|205:157,1,160,4|0,1:2|1:0,0:0:0:0:
148,224,171552,1,0,0:0:0:0:
92,244,171725,1,4,3:0:0:0:
140,280,171897,1,0,0:0:0:0:
192,248,172069,1,0,1:0:0:0:
132,240,172241,1,0,0:0:0:0:
284,284,172414,5,4,3:0:0:0:
36,248,172587,2,0,L|36:156,1,80,2|0,0:0|1:0,0:0:0:0:
280,248,172931,2,0,L|280:144,1,80,2|4,0:0|3:0,0:0:0:0:
28,144,173276,2,0,L|107:147,2,80,2|0|0,0:0|1:0|0:0,0:0:0:0:
304,200,173794,6,0,P|348:160|276:100,1,160,4|0,3:0|1:0,0:0:0:0:
184,160,174311,1,0,0:0:0:0:
324,204,174483,2,0,L|352:108,1,80,4|0,3:0|0:0,0:0:0:0:
180,204,174828,2,0,L|152:108,1,80,0|0,1:0|0:0,0:0:0:0:
296,124,175173,5,4,3:0:0:0:
32,132,175345,2,0,L|120:132,1,80,2|0,0:0|1:0,0:0:0:0:
368,200,175690,2,0,P|380:164|368:96,1,80,2|4,0:0|3:0,0:0:0:0:
128,184,176035,2,0,P|84:176|28:192,1,80,2|0,0:0|1:0,0:0:0:0:
164,248,176380,1,0,0:0:0:0:
436,188,176551,6,0,B|352:216|352:216|432:240|432:240|256:236,1,320,4|2,1:2|0:0,0:0:0:0:
132,224,177586,1,2,0:0:0:0:
308,224,177930,5,2,0:0:0:0:
188,232,178103,2,0,L|120:184,1,80,2|0,0:0|0:0,0:0:0:0:
320,224,178448,2,0,L|385:177,1,80,2|0,0:0|0:0,0:0:0:0:
236,228,178793,2,0,L|168:180,1,80,2|0,0:0|0:0,0:0:0:0:
48,176,179137,1,2,0:0:0:0:
317,224,179310,6,0,P|369:184|301:116,1,160,2|2,0:0|0:0,0:0:0:0:
220,120,179827,1,0,0:0:0:0:
328,116,179999,2,2,L|336:224,1,80,2|0,0:0|0:0,0:0:0:0:
220,120,180344,2,0,L|204:236,1,80,2|0,0:0|0:0,0:0:0:0:
320,212,180689,5,2,0:0:0:0:
156,212,180861,2,0,L|192:324,1,80,2|0,0:0|0:0,0:0:0:0:
296,220,181206,2,0,L|266:294,1,80,2|0,0:0|0:0,0:0:0:0:
120,320,181551,2,0,L|24:316,2,80,2|0|0,0:0|0:0|0:0,0:0:0:0:
404,276,182068,6,0,B|444:236|444:236|328:236,1,160,2|2,0:0|0:0,0:0:0:0:
176,220,182758,2,2,P|139:205|88:220,2,80,2|0|2,0:0|0:0|0:0,0:0:0:0:
300,232,183275,6,2,B|356:228|356:228|240:212,1,160
85,238,183965,2,0,B|29:234|29:234|132:220,1,160,2|2,0:0|0:0,0:0:0:0:
221,214,184482,2,0,L|309:234,1,80,2|0,0:0|0:0,0:0:0:0:
408,228,184827,6,0,L|224:272,1,160,2|2,0:0|0:0,0:0:0:0:
85,238,185517,2,0,L|57:130,2,80,2|0|2,0:0|0:0|0:0,0:0:0:0:
204,256,186034,6,0,P|280:280|348:228,1,160,2|0,0:0|0:0,0:0:0:0:
408,196,186551,1,2,0:0:0:0:
268,168,186724,2,0,L|180:176,1,80,2|0,0:0|0:0,0:0:0:0:
324,164,187068,2,0,L|440:184,1,80,2|0,0:0|0:0,0:0:0:0:
228,104,187413,6,0,B|164:132|164:132|256:140,1,160,2|0,0:0|0:0,0:0:0:0:
384,136,187931,2,0,L|380:240,1,80,2|0,0:0|0:0,0:0:0:0:
252,280,188275,2,0,P|216:276|173:296,2,80,2|0|2,0:0|0:0|0:0,0:0:0:0:
404,329,188793,6,0,L|244:277,1,160,2|2,0:0|0:0,0:0:0:0:
92,286,189482,2,0,L|264:278,1,160,2|2,0:0|0:0,0:0:0:0:
360,256,190000,2,0,L|256:252,1,80,2|0,0:0|0:0,0:0:0:0:
148,224,190344,6,0,B|88:184|88:184|160:112,1,160,2|2,0:0|0:0,0:0:0:0:
352,160,191034,2,0,L|360:68,2,80,2|2|0,0:0|0:0|0:0,0:0:0:0:
212,240,191551,6,0,P|148:260|68:200,1,160,2|2,0:0|0:0,0:0:0:0:
196,208,192068,1,2,0:0:0:0:
324,256,192241,2,0,P|396:264|480:336,1,160,2|2,0:0|0:0,0:0:0:0:
336,352,192758,1,2,0:0:0:0:
136,292,192931,1,2,0:0:0:0:
256,192,193103,12,0,195517,0:0:0:0:
