osu file format v12

[General]
AudioFilename: real world.mp3
AudioLeadIn: 1500
PreviewTime: 47889
Countdown: 0
SampleSet: Soft
StackLeniency: 0.7
Mode: 0
LetterboxInBreaks: 0

[Editor]
DistanceSpacing: 2
BeatDivisor: 4
GridSize: 4

[Metadata]
Title:Real World (TV Size)
TitleUnicode:リアルワールド (TV Size)
Artist:nano.RIPE
ArtistUnicode:nano.RIPE
Creator:Guy
Version:maaagic wa Suitai Shimashita
Source:Jinrui wa Suitai Shimashita
Tags:maaagic opening alacat
BeatmapID:200045
BeatmapSetID:69328

[Difficulty]
HPDrainRate:7
CircleSize:4
OverallDifficulty:7
ApproachRate:9
SliderMultiplier:2
SliderTickRate:2

[Events]
//Background and Video events
0,0,"BG.jpg",0,0
Video,500,"video.avi"
//Break Periods
//Storyboard Layer 0 (Background)
//Storyboard Layer 1 (Fail)
//Storyboard Layer 2 (Pass)
//Storyboard Layer 3 (Foreground)
//Storyboard Sound Samples
//Background Colour Transformations
3,100,163,162,255

[TimingPoints]
581,306.122448979592,7,2,1,60,1,0
7545,-100,7,2,1,40,0,0
8004,-100,7,2,1,60,0,0
9458,306.122448979592,4,2,3,50,1,0
13514,-100,4,2,1,40,0,0
14279,-100,4,2,3,50,0,0
17340,-100,4,2,1,35,0,0
17876,-100,4,2,1,50,0,0
18029,-100,4,2,1,40,0,0
18565,-100,4,2,1,35,0,0
19253,-100,4,2,3,50,0,0
28054,-100,4,2,3,30,0,0
28208,-100,4,2,3,50,0,0
28361,-100,4,2,1,25,0,0
28743,-100,4,2,1,30,0,0
29049,-100,4,2,3,50,0,0
37391,-100,4,2,3,30,0,0
37544,-100,4,2,3,50,0,0
38156,-100,4,2,1,25,0,0
38845,-166.666666666667,4,2,1,40,0,0
39917,-166.666666666667,4,2,1,20,0,0
40223,-166.666666666667,4,2,1,40,0,0
41141,-166.666666666667,4,2,1,20,0,0
41447,-166.666666666667,4,2,1,40,0,0
42366,-166.666666666667,4,2,1,20,0,0
42825,-166.666666666667,4,2,1,30,0,0
43437,-66.6666666666667,4,2,1,50,0,0
43743,-100,4,2,1,60,0,0
46192,-100,4,2,1,35,0,0
46498,-100,4,2,1,40,0,0
46958,-100,4,2,1,50,0,0
47187,-100,4,2,1,60,0,0
48641,-100,4,2,1,60,0,1
52927,-100,4,2,1,35,0,1
53233,-100,4,2,1,40,0,1
53539,-100,4,2,1,50,0,1
56753,-100,4,2,1,40,0,1
57060,-100,4,2,1,50,0,1
57672,-100,4,2,1,40,0,1
57978,-100,4,2,1,45,0,1
58284,-100,4,2,1,50,0,1
58437,-100,4,2,1,60,0,1
62723,-100,4,2,1,35,0,1
63029,-100,4,2,1,40,0,1
63335,-100,4,2,1,60,0,1
65401,-100,4,2,1,40,0,1
65784,-100,4,2,1,60,0,1
66473,-100,4,2,1,50,0,1
66855,-100,4,2,1,60,0,1
67391,-100,4,2,1,35,0,1
67468,-100,4,2,1,35,0,0
67697,-100,4,2,1,40,0,0
68233,-100,4,2,1,60,0,1
70682,-100,4,2,1,50,0,1
70759,-100,4,2,1,60,0,1
72442,-100,4,2,1,35,0,1
72825,-100,4,2,1,40,0,1
73131,-100,4,2,1,50,0,1
76116,-100,4,2,1,40,0,1
76804,-100,4,2,1,50,0,1
77340,-100,4,2,1,40,0,1
77876,-100,4,2,1,50,0,1
78029,-100,4,2,1,60,0,1
81090,-100,4,2,1,40,0,1
82315,-100,4,2,1,35,0,1
82621,-100,4,2,1,30,0,1
82927,-100,4,2,1,60,0,1
84534,-100,4,2,1,50,0,1
84687,-100,4,2,1,60,0,1
85146,-100,4,2,1,35,0,1
85376,-100,4,2,1,50,0,1
86218,-100,4,2,1,40,0,1
87213,-100,4,2,1,50,0,0

[Colours]
Combo1 : 121,214,116
Combo2 : 255,184,149
Combo3 : 171,201,245

[HitObjects]
432,192,581,6,0,L|432:292,1,100,12|0,0:0|0:0,0:0:0:0:
272,292,887,2,0,P|310:259|358:242,1,100,8|0,0:0|0:0,0:0:0:0:
368,360,1193,1,8,0:0:0:0:
272,292,1346,1,0,0:0:0:0:
368,360,1499,1,8,0:0:0:0:
208,340,1652,5,0,0:0:0:0:
368,360,1805,1,8,0:0:0:0:
208,340,1958,1,0,0:0:0:0:
304,212,2111,1,8,0:0:0:0:
368,360,2264,1,0,0:0:0:0:
208,240,2417,1,8,0:0:0:0:
208,240,2723,6,0,B|136:240|136:240|112:256,1,100,12|0,0:0|0:0,0:0:0:0:
152,140,3029,2,0,L|56:204,1,100,8|0,0:0|0:0,0:0:0:0:
144,56,3336,2,0,L|48:120,2,100,8|0|8,0:0|0:0|0:0,0:0:0:0:
264,56,3795,5,0,0:0:0:0:
376,168,3948,1,8,0:0:0:0:
224,212,4101,1,0,0:0:0:0:
320,112,4254,1,8,0:0:0:0:
280,268,4407,1,0,0:0:0:0:
432,224,4560,1,8,0:0:0:0:
432,224,4866,6,0,B|432:264|432:264|440:284|440:284|440:324,1,100,12|0,0:0|0:0,0:0:0:0:
360,160,5172,2,0,B|360:120|360:120|368:100|368:100|368:60,1,100,8|0,0:0|0:0,0:0:0:0:
212,100,5478,1,8,0:0:0:0:
52,100,5632,1,0,0:0:0:0:
212,100,5785,1,8,0:0:0:0:
372,100,5938,6,0,B|444:100|444:100|468:116,1,100,0|8,0:0|0:0,0:0:0:0:
276,176,6244,2,0,L|376:176,1,100,0|8,0:0|0:0,0:0:0:0:
192,252,6550,1,0,0:0:0:0:
192,252,6703,1,8,0:0:0:0:
72,144,7009,6,0,L|72:244,1,100,12|0,0:0|0:0,0:0:0:0:
224,192,7315,1,8,0:0:0:0:
72,244,7468,1,0,0:0:0:0:
192,348,7621,1,8,0:0:0:0:
192,318,7698,1,8,0:0:0:0:
192,288,7774,1,8,0:0:0:0:
192,258,7851,1,8,0:0:0:0:
192,228,7927,1,8,0:0:0:0:
392,264,8081,5,12,0:0:0:0:
392,264,9458,6,0,P|392:216|368:172,1,100,6|0,0:0|0:0,0:0:0:0:
248,152,9764,2,0,P|248:200|272:244,1,100,8|0,0:0|0:0,0:0:0:0:
152,228,10070,1,2,0:0:0:0:
36,260,10223,1,0,0:0:0:0:
152,228,10376,1,8,0:0:0:0:
212,36,10529,6,0,B|308:64|308:64|340:160,1,200,6|0,0:0|0:0,0:0:0:0:
376,272,10988,1,8,0:0:0:0:
392,72,11141,2,0,L|424:167,2,100,2|0|0,0:0|0:0|0:0,0:0:0:0:
256,276,11600,2,0,L|224:181,1,100,8|0,0:0|0:0,0:0:0:0:
56,288,11906,5,2,0:0:0:0:
56,288,12060,1,0,0:0:0:0:
72,128,12213,5,8,0:0:0:0:
120,240,12366,1,0,0:0:0:0:
240,252,12519,1,2,0:0:0:0:
80,236,12672,5,0,0:0:0:0:
176,304,12825,1,8,0:0:0:0:
128,108,12978,6,0,L|128:308,1,200,6|0,0:0|0:0,0:0:0:0:
320,252,13437,1,8,0:0:0:0:
244,344,13590,5,8,0:0:0:0:
232,316,13667,1,8,0:0:0:0:
208,300,13743,1,8,0:0:0:0:
224,180,13896,1,8,0:0:0:0:
68,220,14049,5,4,0:0:0:0:
188,236,14202,1,0,0:0:0:0:
260,140,14355,6,0,P|356:160|443:115,1,200,6|8,0:0|0:0,0:0:0:0:
443,114,14815,1,0,0:0:0:0:
404,228,14968,2,0,L|404:328,2,100,2|0|8,0:0|0:0|0:0,0:0:0:0:
284,68,15427,6,0,B|296:104|284:144|284:144|296:180|284:216|284:216|296:264,1,200,6|0,0:0|0:0,0:0:0:0:
84,228,15886,5,10,0:0:0:0:
168,312,16039,1,0,0:0:0:0:
216,180,16192,1,2,0:0:0:0:
328,296,16345,1,0,0:0:0:0:
388,128,16498,1,10,0:0:0:0:
504,264,16651,1,0,0:0:0:0:
336,204,16804,5,2,0:0:0:0:
268,304,16958,1,0,0:0:0:0:
388,312,17111,1,8,0:0:0:0:
192,340,17264,1,2,0:0:0:0:
268,156,17417,6,0,L|287:110,1,50,8|8,0:0|0:0,0:0:0:0:
192,24,17570,2,0,L|199:74,1,50,8|8,0:0|0:0,0:0:0:0:
132,200,17723,2,0,L|151:154,1,50,8|8,0:0|0:0,0:0:0:0:
88,84,17876,1,4,0:0:0:0:
92,88,18182,5,8,0:0:0:0:
132,200,18335,1,10,0:0:0:0:
56,292,18488,1,8,0:0:0:0:
176,312,18641,5,8,0:0:0:0:
204,304,18718,1,8,0:0:0:0:
228,320,18794,1,8,0:0:0:0:
256,312,18871,1,8,0:0:0:0:
280,328,18947,1,8,0:0:0:0:
308,320,19024,1,8,0:0:0:0:
332,336,19100,1,8,0:0:0:0:
360,328,19177,1,8,0:0:0:0:
384,344,19253,6,0,P|436:344|480:320,1,100,4|0,0:0|0:0,0:0:0:0:
484,200,19560,2,0,P|438:226|412:268,1,100,8|0,0:0|0:0,0:0:0:0:
372,152,19866,2,0,P|284:108|184:112,1,200,0|8,0:0|0:0,0:0:0:0:
184,111,20325,1,0,0:0:0:0:
76,60,20478,6,0,L|76:160,1,100
76,280,20784,1,8,0:0:0:0:
224,220,20937,1,0,0:0:0:0:
76,280,21243,5,0,0:0:0:0:
184,332,21396,1,8,0:0:0:0:
284,264,21549,1,0,0:0:0:0:
392,316,21702,6,0,P|404:264|396:216,1,100
288,166,22009,2,0,P|276:218|284:264,1,100,8|0,0:0|0:0,0:0:0:0:
397,219,22315,2,0,L|510:174,1,100
280,48,22621,2,0,L|393:93,1,100,8|0,0:0|0:0,0:0:0:0:
180,116,22927,5,0,0:0:0:0:
72,66,23080,1,0,0:0:0:0:
288,166,23233,1,8,0:0:0:0:
180,116,23386,1,0,0:0:0:0:
416,76,23692,5,0,0:0:0:0:
452,192,23845,1,8,0:0:0:0:
380,152,23998,1,0,0:0:0:0:
416,268,24151,6,0,P|424:320|416:368,1,100
264,316,24457,2,0,P|256:264|264:216,1,100,8|0,0:0|0:0,0:0:0:0:
432,148,24764,2,0,B|396:184|396:184|345:198,1,100
220,140,25070,2,0,L|316:113,1,100,8|0,0:0|0:0,0:0:0:0:
220,140,25376,6,0,P|244:236|220:332,1,200,0|8,0:0|0:0,0:0:0:0:
100,348,25835,1,0,0:0:0:0:
220,332,25988,2,0,L|340:316,1,100
404,236,26294,1,8,0:0:0:0:
319,319,26447,1,0,0:0:0:0:
288,200,26600,6,0,P|280:152|288:100,1,100
180,152,26906,2,0,L|154:248,1,100,8|0,0:0|0:0,0:0:0:0:
396,156,27213,2,0,L|466:85,1,100,0|0,0:0|0:0,0:0:0:0:
180,152,27519,2,0,L|83:177,1,100,8|0,0:0|0:0,0:0:0:0:
168,312,27825,5,0,0:0:0:0:
140,196,27978,1,0,0:0:0:0:
168,312,28131,1,12,0:0:0:0:
208,156,28284,1,0,0:0:0:0:
364,112,28437,6,0,L|442:90,1,50,8|8,0:0|0:0,0:0:0:0:
408,180,28590,2,0,L|456:191,1,50,8|8,0:0|0:0,0:0:0:0:
412,260,28743,1,8,0:0:0:0:
400,288,28820,1,8,0:0:0:0:
372,300,28896,1,8,0:0:0:0:
360,328,28973,1,8,0:0:0:0:
332,340,29049,6,0,P|284:356|236:356,1,100,4|0,0:0|0:0,0:0:0:0:
260,196,29355,1,8,0:0:0:0:
275,294,29509,1,0,0:0:0:0:
260,196,29662,2,0,L|244:97,1,100,0|0,0:0|0:0,0:0:0:0:
128,64,29968,2,0,L|143:162,1,100,8|0,0:0|0:0,0:0:0:0:
28,132,30274,5,0,0:0:0:0:
360,128,30580,1,8,0:0:0:0:
368,248,30733,2,0,P|348:296|348:344,1,100,0|0,0:0|0:0,0:0:0:0:
464,316,31039,1,0,0:0:0:0:
268,276,31192,1,8,0:0:0:0:
464,316,31345,1,0,0:0:0:0:
268,276,31498,6,0,L|170:256,1,100,0|0,0:0|0:0,0:0:0:0:
40,160,31804,2,0,L|138:180,1,100,8|0,0:0|0:0,0:0:0:0:
40,160,32111,2,0,P|16:256|40:352,1,200,0|8,0:0|0:0,0:0:0:0:
140,284,32570,1,0,0:0:0:0:
284,352,32723,5,0,0:0:0:0:
284,352,33029,1,8,0:0:0:0:
368,268,33182,1,0,0:0:0:0:
482,298,33335,1,0,0:0:0:0:
288,272,33488,1,0,0:0:0:0:
440,228,33641,5,8,0:0:0:0:
288,272,33794,1,0,0:0:0:0:
173,162,33947,2,0,P|160:116|168:64,1,100,0|0,0:0|0:0,0:0:0:0:
364,104,34253,2,0,L|246:110,1,100,8|0,0:0|0:0,0:0:0:0:
264,109,34560,2,0,P|290:201|274:305,1,200,0|8,0:0|0:0,0:0:0:0:
156,324,35019,1,0,0:0:0:0:
275,303,35172,6,0,L|394:282,1,100,0|0,0:0|0:0,0:0:0:0:
452,196,35478,1,8,0:0:0:0:
373,285,35631,1,0,0:0:0:0:
356,168,35784,1,0,0:0:0:0:
260,240,35937,1,0,0:0:0:0:
220,128,36090,1,8,0:0:0:0:
104,152,36243,1,0,0:0:0:0:
220,128,36396,2,0,L|336:104,2,100,0|0|8,0:0|0:0|0:0,0:0:0:0:
104,152,37009,5,0,0:0:0:0:
294,224,37315,2,0,P|346:236|386:260,1,100,8|4,0:0|0:0,0:0:0:0:
386,260,37621,2,0,P|398:158|454:81,1,200,0|8,0:0|0:0,0:0:0:0:
458,85,38080,1,0,0:0:0:0:
296,56,38233,5,8,0:0:0:0:
296,56,38386,1,8,0:0:0:0:
176,36,38539,1,8,0:0:0:0:
176,36,38692,1,8,0:0:0:0:
100,128,38845,6,0,P|88:188|100:244,1,119.999996337891,2|0,0:0|0:0,0:0:0:0:
176,188,39304,2,0,P|188:248|176:304,1,119.999996337891,2|0,0:0|0:0,0:0:0:0:
180,309,39764,2,0,L|241:309,1,59.9999981689454,2|8,0:0|0:0,0:0:0:0:
308,244,40070,6,0,P|388:208|476:232,2,179.999994506836,10|2|2,0:0|0:0|0:0,0:0:0:0:
292,100,41141,5,8,0:0:0:0:
292,100,41294,2,0,L|176:68,1,119.999996337891,10|0,2:0|0:0,0:0:0:0:
184,152,41753,2,0,L|68:120,1,119.999996337891,2|0,2:0|0:0,0:0:0:0:
76,204,42213,1,2,0:0:0:0:
164,228,42366,1,8,0:0:0:0:
192,312,42519,1,10,0:0:0:0:
288,92,43131,1,4,0:0:0:0:
288,92,43437,6,0,L|288:244,1,150.000005722046,8|0,0:0|0:0,0:0:0:0:
288,360,43743,5,4,0:0:0:0:
392,300,43896,1,0,0:0:0:0:
288,360,44049,1,8,0:0:0:0:
368,220,44202,2,0,P|388:172|388:124,1,100,4|0,0:0|0:0,0:0:0:0:
228,144,44509,1,0,0:0:0:0:
92,112,44662,1,8,0:0:0:0:
228,144,44815,1,0,0:0:0:0:
256,260,44968,6,0,P|264:312|256:360,2,100,4|0|8,0:0|0:0|0:0,0:0:0:0:
408,308,45427,1,4,0:0:0:0:
408,308,45733,5,0,0:0:0:0:
372,152,45886,1,8,0:0:0:0:
408,308,46039,1,0,0:0:0:0:
256,260,46192,5,8,0:0:0:0:
256,260,46345,1,8,0:0:0:0:
144,224,46498,1,8,0:0:0:0:
144,224,46651,1,8,0:0:0:0:
152,144,46804,5,8,0:0:0:0:
184,296,46957,1,8,0:0:0:0:
296,192,47111,1,8,0:0:0:0:
36,96,47264,6,0,B|64:172|24:240|24:240|35:290,1,200,4|8,0:0|0:0,0:0:0:0:
39,294,47723,1,8,0:0:0:0:
39,294,48641,6,0,P|56:244|88:208,1,100,4|0,0:0|0:0,0:0:0:0:
196,324,48947,1,8,0:0:0:0:
168,208,49100,1,0,0:0:0:0:
276,324,49253,1,8,0:0:0:0:
168,208,49406,1,0,0:0:0:0:
320,256,49560,1,8,0:0:0:0:
436,148,49713,5,0,0:0:0:0:
436,148,49866,2,0,L|436:248,1,100,8|0,0:0|0:0,0:0:0:0:
336,316,50172,1,8,0:0:0:0:
240,244,50325,1,0,0:0:0:0:
312,148,50478,1,8,0:0:0:0:
264,312,50631,1,0,0:0:0:0:
244,172,50784,5,8,0:0:0:0:
244,172,50937,1,0,0:0:0:0:
112,120,51090,2,0,P|104:172|112:220,1,100,8|0,0:0|0:0,0:0:0:0:
212,288,51396,1,8,0:0:0:0:
320,232,51549,1,0,0:0:0:0:
212,288,51702,6,0,P|168:308|116:312,1,100,8|0,0:0|0:0,0:0:0:0:
32,128,52009,2,0,P|80:132|127:155,1,100,8|0,0:0|0:0,0:0:0:0:
28,328,52315,2,0,L|55:231,1,100,8|0,0:0|0:0,0:0:0:0:
256,100,52621,2,0,L|283:196,1,100,8|0,0:0|0:0,0:0:0:0:
132,328,52927,6,0,L|180:341,3,50,8|8|8|8,0:0|0:0|0:0|0:0,0:0:0:0:
228,226,53233,2,0,L|180:240,3,50,8|8|8|8,0:0|0:0|0:0|0:0,0:0:0:0:
180,140,53539,6,0,P|176:92|192:40,1,100,4|0,0:0|0:0,0:0:0:0:
355,112,53845,2,0,L|255:100,1,100,8|0,0:0|0:0,0:0:0:0:
424,212,54151,2,0,L|324:200,2,100,0|8|8,0:0|0:0|0:0,0:0:0:0:
352,376,54611,5,0,0:0:0:0:
352,376,54764,2,0,P|366:326|362:278,1,100,0|0,0:0|0:0,0:0:0:0:
248,316,55070,1,8,0:0:0:0:
160,236,55223,1,0,0:0:0:0:
48,272,55376,1,0,0:0:0:0:
244,232,55529,1,8,0:0:0:0:
244,232,55682,1,8,0:0:0:0:
112,80,55835,5,0,0:0:0:0:
112,80,55988,2,0,L|112:180,1,100
112,300,56294,1,8,0:0:0:0:
36,160,56447,1,0,0:0:0:0:
216,244,56600,1,0,0:0:0:0:
376,128,56753,1,8,0:0:0:0:
376,128,56830,1,8,0:0:0:0:
376,128,56906,1,8,0:0:0:0:
336,244,57060,5,4,0:0:0:0:
336,244,57366,2,0,P|328:292|336:344,1,100,0|8,0:0|0:0,0:0:0:0:
448,296,57672,1,8,0:0:0:0:
448,296,57748,1,8,0:0:0:0:
448,296,57825,1,8,0:0:0:0:
452,136,57978,5,8,0:0:0:0:
460,164,58054,1,8,0:0:0:0:
468,192,58131,1,8,0:0:0:0:
348,88,58284,5,8,0:0:0:0:
304,112,58361,1,8,0:0:0:0:
256,96,58437,2,0,P|216:68|164:60,1,100,4|0,0:0|0:0,0:0:0:0:
72,192,58743,2,0,P|120:196|167:178,1,100,8|0,0:0|0:0,0:0:0:0:
236,324,59049,2,0,P|188:341|140:337,1,100,8|0,0:0|0:0,0:0:0:0:
308,228,59355,2,0,P|356:232|404:215,1,100,8|0,0:0|0:0,0:0:0:0:
340,112,59662,5,8,0:0:0:0:
340,112,59815,1,0,0:0:0:0:
364,272,59968,1,8,0:0:0:0:
276,164,60121,1,0,0:0:0:0:
284,284,60274,1,8,0:0:0:0:
212,216,60427,1,0,0:0:0:0:
352,240,60580,5,8,0:0:0:0:
180,288,60733,1,0,0:0:0:0:
52,163,60886,2,0,P|32:120|32:68,1,100,8|0,0:0|0:0,0:0:0:0:
208,32,61192,2,0,P|228:75|228:127,1,100,8|0,0:0|0:0,0:0:0:0:
228,126,61498,6,0,L|324:153,1,100,8|0,0:0|0:0,0:0:0:0:
448,267,61804,2,0,L|352:240,1,100,8|0,0:0|0:0,0:0:0:0:
156,248,62111,2,0,P|204:244|252:223,1,100,8|0,0:0|0:0,0:0:0:0:
324,364,62417,2,0,P|276:360|227:339,1,100,8|0,0:0|0:0,0:0:0:0:
304,248,62723,5,8,0:0:0:0:
308,252,62799,1,8,0:0:0:0:
312,256,62876,1,8,0:0:0:0:
316,260,62952,1,8,0:0:0:0:
320,264,63029,5,8,0:0:0:0:
315,214,63105,1,8,0:0:0:0:
332,168,63182,1,8,0:0:0:0:
369,134,63259,1,8,0:0:0:0:
416,119,63335,6,0,P|420:172|444:216,1,100,4|0,0:0|0:0,0:0:0:0:
420,332,63641,1,8,0:0:0:0:
164,220,63794,6,0,P|140:267|139:318,1,100,4|0,0:0|0:0,0:0:0:0:
256,296,64100,1,0,0:0:0:0:
256,296,64253,1,8,0:0:0:0:
256,56,64406,6,0,L|256:156,1,100,4|0,0:0|0:0,0:0:0:0:
376,132,64713,1,0,0:0:0:0:
328,24,64866,1,8,0:0:0:0:
140,272,65019,6,0,P|148:224|140:172,1,100,4|0,0:0|0:0,0:0:0:0:
32,224,65325,1,0,0:0:0:0:
124,352,65478,1,8,0:0:0:0:
124,352,65554,1,8,0:0:0:0:
124,352,65631,1,8,0:0:0:0:
284,336,65784,6,0,P|332:320|368:284,1,100,4|0,0:0|0:0,0:0:0:0:
484,316,66090,1,8,0:0:0:0:
464,156,66243,1,0,0:0:0:0:
304,156,66396,1,0,0:0:0:0:
440,240,66549,1,8,0:0:0:0:
328,304,66702,1,8,0:0:0:0:
384,132,66855,6,0,L|384:332,1,200,4|0,0:0|0:0,0:0:0:0:
384,332,67315,1,8,0:0:0:0:
268,300,67468,2,0,L|222:325,2,50,8|8|8,0:0|0:0|0:0,0:0:0:0:
108,304,67774,5,8,0:0:0:0:
132,272,67850,1,8,0:0:0:0:
172,272,67927,1,8,0:0:0:0:
196,240,68003,1,8,0:0:0:0:
236,240,68080,1,8,0:0:0:0:
260,208,68156,1,8,0:0:0:0:
300,208,68233,6,0,P|348:192|380:156,1,100,4|0,0:0|0:0,0:0:0:0:
244,36,68539,2,0,L|309:136,1,100,8|0,0:0|0:0,0:0:0:0:
264,316,68845,2,0,L|199:216,1,100,8|0,0:0|0:0,0:0:0:0:
348,28,69151,2,0,L|413:128,1,100,8|0,0:0|0:0,0:0:0:0:
160,324,69457,5,8,0:0:0:0:
160,324,69611,1,0,0:0:0:0:
72,244,69764,1,8,0:0:0:0:
48,360,69917,1,0,0:0:0:0:
156,240,70070,1,8,0:0:0:0:
312,272,70223,1,0,0:0:0:0:
132,284,70376,1,8,0:0:0:0:
328,316,70529,1,0,0:0:0:0:
464,128,70682,6,0,P|424:96|376:84,1,100,4|0,0:0|0:0,0:0:0:0:
372,204,70988,2,0,L|377:303,1,100,8|0,0:0|0:0,0:0:0:0:
240,160,71294,2,0,L|245:259,1,100,8|0,0:0|0:0,0:0:0:0:
108,116,71600,2,0,L|113:215,1,100,8|0,0:0|0:0,0:0:0:0:
304,160,71906,5,8,0:0:0:0:
304,160,72060,1,0,0:0:0:0:
256,312,72213,1,8,0:0:0:0:
256,312,72366,1,0,0:0:0:0:
148,196,72519,5,8,0:0:0:0:
164,220,72595,1,8,0:0:0:0:
180,244,72672,1,8,0:0:0:0:
196,268,72748,1,8,0:0:0:0:
224,260,72825,5,8,0:0:0:0:
249,272,72901,1,8,0:0:0:0:
275,285,72978,1,8,0:0:0:0:
301,298,73054,1,8,0:0:0:0:
321,277,73131,6,0,P|360:248|412:240,1,100,4|0,0:0|0:0,0:0:0:0:
408,360,73437,1,8,0:0:0:0:
488,224,73590,1,0,0:0:0:0:
408,360,73743,1,0,0:0:0:0:
256,312,73896,1,8,0:0:0:0:
256,312,74049,1,8,0:0:0:0:
408,164,74202,5,0,0:0:0:0:
408,164,74355,2,0,P|392:212|360:248,1,100
212,164,74662,2,0,P|228:116|260:80,1,100,8|0,0:0|0:0,0:0:0:0:
312,164,74968,1,0,0:0:0:0:
240,260,75121,1,8,0:0:0:0:
112,164,75274,1,8,0:0:0:0:
92,324,75427,5,0,0:0:0:0:
92,324,75580,2,0,L|92:224,1,100
16,132,75886,1,8,0:0:0:0:
16,252,76039,1,0,0:0:0:0:
168,304,76192,5,8,0:0:0:0:
288,200,76345,1,8,0:0:0:0:
188,208,76498,1,8,0:0:0:0:
388,192,76651,5,4,0:0:0:0:
388,192,76957,2,0,L|388:292,1,100,0|8,0:0|0:0,0:0:0:0:
480,368,77264,1,0,0:0:0:0:
324,340,77417,5,8,0:0:0:0:
296,336,77493,1,8,0:0:0:0:
268,332,77570,1,8,0:0:0:0:
240,328,77646,1,8,0:0:0:0:
212,324,77723,1,8,0:0:0:0:
96,272,77876,5,8,0:0:0:0:
112,224,77952,1,8,0:0:0:0:
80,184,78029,2,0,P|64:136|68:88,1,100,4|0,0:0|0:0,0:0:0:0:
224,116,78335,1,8,0:0:0:0:
192,232,78488,1,0,0:0:0:0:
392,224,78641,1,8,0:0:0:0:
360,340,78794,1,0,0:0:0:0:
324,108,78947,1,8,0:0:0:0:
292,224,79100,1,0,0:0:0:0:
175,254,79253,6,0,L|58:284,1,100,8|0,0:0|0:0,0:0:0:0:
248,111,79560,2,0,L|152:136,1,100,8|0,0:0|0:0,0:0:0:0:
36,168,79866,1,8,0:0:0:0:
104,72,80019,1,0,0:0:0:0:
220,244,80172,1,8,0:0:0:0:
112,192,80325,1,0,0:0:0:0:
320,176,80478,5,8,0:0:0:0:
320,176,80784,2,0,P|340:128|340:80,1,100,8|0,0:0|0:0,0:0:0:0:
248,111,81090,2,0,L|198:101,3,50,8|8|8|8,0:0|0:0|0:0|0:0,0:0:0:0:
112,152,81396,2,0,L|162:162,3,50,8|8|8|8,0:0|0:0|0:0|0:0,0:0:0:0:
116,252,81702,5,8,0:0:0:0:
120,256,81779,1,8,0:0:0:0:
124,260,81855,1,8,0:0:0:0:
128,264,81932,1,8,0:0:0:0:
132,268,82009,1,8,0:0:0:0:
136,272,82085,1,8,0:0:0:0:
140,276,82162,1,8,0:0:0:0:
144,280,82238,1,8,0:0:0:0:
148,284,82315,5,8,0:0:0:0:
159,235,82391,1,8,0:0:0:0:
184,192,82468,1,8,0:0:0:0:
222,159,82544,1,8,0:0:0:0:
267,140,82621,1,8,0:0:0:0:
317,135,82697,1,8,0:0:0:0:
365,146,82774,1,8,0:0:0:0:
408,171,82850,1,8,0:0:0:0:
441,208,82927,6,0,P|440:260|464:304,1,100,4|0,0:0|0:0,0:0:0:0:
348,340,83233,1,8,0:0:0:0:
152,140,83386,6,0,L|152:240,1,100,4|0,0:0|0:0,0:0:0:0:
32,248,83692,1,0,0:0:0:0:
132,316,83845,1,8,0:0:0:0:
348,212,83998,5,4,0:0:0:0:
348,212,84304,1,0,0:0:0:0:
272,116,84457,1,8,0:0:0:0:
392,100,84611,5,4,0:0:0:0:
244,40,84764,1,0,0:0:0:0:
118,138,84917,1,0,0:0:0:0:
236,160,85070,1,8,0:0:0:0:
40,228,85223,5,8,0:0:0:0:
40,228,85299,1,8,0:0:0:0:
40,228,85376,2,0,P|68:272|72:320,1,100,4|0,0:0|0:0,0:0:0:0:
184,364,85682,1,8,0:0:0:0:
172,164,85835,2,0,L|209:273,1,100,4|0,0:0|0:0,0:0:0:0:
324,284,86141,1,0,0:0:0:0:
256,164,86294,1,8,0:0:0:0:
256,164,86447,1,8,0:0:0:0:
432,72,86753,5,8,0:0:0:0:
296,220,86906,1,8,0:0:0:0:
99,176,87060,1,8,0:0:0:0:
412,188,87213,1,8,0:0:0:0:
