osu file format v12

[General]
AudioFilename: real world.mp3
AudioLeadIn: 1500
PreviewTime: 47889
Countdown: 0
SampleSet: Soft
StackLeniency: 0.7
Mode: 0
LetterboxInBreaks: 0

[Editor]
DistanceSpacing: 1.2
BeatDivisor: 4
GridSize: 4

[Metadata]
Title:Real World (TV Size)
TitleUnicode:リアルワールド (TV Size)
Artist:nano.RIPE
ArtistUnicode:nano.RIPE
Creator:Guy
Version:Hard
Source:Jinrui wa Suitai Shimashita
Tags:maaagic opening alacat
BeatmapID:200125
BeatmapSetID:69328

[Difficulty]
HPDrainRate:6
CircleSize:4
OverallDifficulty:6
ApproachRate:8
SliderMultiplier:1.3
SliderTickRate:1

[Events]
//Background and Video events
0,0,"BG.jpg",0,0
Video,500,"video.avi"
//Break Periods
//Storyboard Layer 0 (Background)
//Storyboard Layer 1 (Fail)
//Storyboard Layer 2 (Pass)
//Storyboard Layer 3 (Foreground)
//Storyboard Sound Samples
//Background Colour Transformations
3,100,163,162,255

[TimingPoints]
581,306.122448979592,7,1,0,50,1,0
657,-100,7,2,1,50,0,0
2647,-100,7,1,0,50,0,0
2800,-100,7,2,1,50,0,0
4790,-100,7,1,0,50,0,0
4943,-100,7,2,1,50,0,0
6933,-100,7,1,0,50,0,0
7086,-100,7,2,1,50,0,0
8081,-100,7,1,0,60,0,0
9458,306.122448979592,4,2,1,50,1,0
9534,-100,4,2,1,60,0,0
10529,-100,4,2,1,50,0,0
10605,-100,4,2,1,60,0,0
12978,-100,4,2,1,50,0,0
13054,-100,4,2,1,60,0,0
14355,-100,4,2,1,50,0,0
15503,-100,4,2,1,60,0,0
19253,-100,4,2,1,40,0,0
29049,-100,4,2,1,50,0,0
37468,-100,4,2,1,40,0,0
37927,-100,4,2,1,50,0,0
38845,-133.333333333333,4,2,1,40,0,0
43743,-100,4,2,1,50,0,0
46192,-100,4,2,1,40,0,0
47570,-100,4,2,1,50,0,0
48641,-100,4,2,1,60,0,1
53539,-100,4,2,1,50,0,1
53616,-100,4,2,1,60,0,1
57672,-100,4,2,1,50,0,1
58437,-100,4,2,1,60,0,1
64253,-100,4,2,1,50,0,1
64406,-100,4,2,1,60,0,1
64866,-100,4,2,1,50,0,1
65019,-100,4,2,1,60,0,1
65478,-100,4,2,1,60,0,1
67468,-100,4,2,1,50,0,0
68233,-100,4,2,1,60,0,1
73131,-100,4,2,1,50,0,1
73208,-100,4,2,1,60,0,1
75580,-100,4,2,1,50,0,1
76651,-100,4,2,1,40,0,1
77264,-100,4,2,1,50,0,1
78029,-100,4,2,1,60,0,1
83845,-100,4,2,1,50,0,1
83998,-100,4,2,1,60,0,1
84458,-100,4,2,1,50,0,1
84611,-100,4,2,1,60,0,1
85070,-100,4,2,1,50,0,1
87213,-100,4,2,1,60,0,0

[Colours]
Combo1 : 121,214,116
Combo2 : 255,184,149
Combo3 : 171,201,245

[HitObjects]
92,208,581,6,0,P|112:280|164:332,1,130,4|8,0:0|0:0,0:0:0:0:
304,320,1193,2,0,L|368:320,2,65,8|0|8,0:0|0:0|0:0,0:0:0:0:
224,320,1652,2,0,P|256:256|272:244,1,65,0|8,0:0|0:0,0:0:0:0:
328,244,1958,1,0,0:0:0:0:
404,244,2111,2,0,P|420:216|428:180,1,65,8|0,0:0|0:0,0:0:0:0:
352,172,2417,2,0,P|332:140|304:112,1,65,8|0,0:0|0:0,0:0:0:0:
313,120,2723,5,4,0:0:0:0:
256,296,3029,1,8,0:0:0:0:
160,172,3336,2,0,P|180:140|208:112,2,65,8|0|8,0:0|0:0|0:0,0:0:0:0:
84,192,3795,2,0,P|104:224|136:252,2,65,0|8|0,0:0|0:0|0:0,0:0:0:0:
108,116,4254,1,8,0:0:0:0:
160,172,4407,1,0,0:0:0:0:
236,188,4560,1,8,0:0:0:0:
236,32,4866,6,0,P|312:44|372:84,1,130,4|8,0:0|0:0,0:0:0:0:
356,228,5478,2,0,L|356:300,2,65,8|0|8,0:0|0:0|0:0,0:0:0:0:
356,148,5938,2,0,L|288:148,1,65,0|8,0:0|0:0,0:0:0:0:
216,228,6244,2,0,L|288:228,1,65,0|8,0:0|0:0,0:0:0:0:
212,148,6550,2,0,L|140:148,1,65,0|8,0:0|0:0,0:0:0:0:
76,308,7009,6,0,P|148:336|200:336,1,130,4|8,0:0|0:0,0:0:0:0:
256,280,7468,1,0,0:0:0:0:
312,336,7621,2,0,P|352:328|392:328,2,65,8|0|8,0:0|0:0|0:0,0:0:0:0:
256,280,8081,1,4,0:0:0:0:
256,72,9458,6,0,P|324:100|368:172,1,130,6|8,0:0|0:0,0:0:0:0:
364,220,9917,1,0,0:0:0:0:
288,220,10070,2,0,P|248:220|212:212,2,65,0|0|8,0:0|0:0|0:0,0:0:0:0:
324,288,10529,2,0,P|248:312|188:356,1,130,4|0,0:0|0:0,0:0:0:0:
128,348,10988,1,8,0:0:0:0:
52,324,11141,2,0,B|20:276|20:276|36:224|24:180,1,130,0|0,0:0|0:0,0:0:0:0:
48,128,11600,2,0,P|84:148|104:180,1,65,8|0,0:0|0:0,0:0:0:0:
160,216,11906,6,0,P|200:204|228:176,1,65,0|0,0:0|0:0,0:0:0:0:
294,189,12213,2,0,P|312:204|352:216,1,65,8|0,0:0|0:0,0:0:0:0:
352,292,12519,2,0,P|312:304|294:318,2,65,0|0|8,0:0|0:0|0:0,0:0:0:0:
420,252,12978,2,0,P|472:192|472:116,1,130,4|0,0:0|0:0,0:0:0:0:
420,96,13437,2,0,P|400:132|408:168,1,65,8|0,0:0|0:0,0:0:0:0:
340,200,13743,1,0,0:0:0:0:
312,100,13896,1,0,0:0:0:0:
240,172,14049,1,4,0:0:0:0:
156,292,14355,6,0,P|84:252|56:188,1,130,4|8,0:0|0:0,0:0:0:0:
64,132,14815,1,0,0:0:0:0:
108,68,14968,2,0,P|140:40|176:28,2,65,0|0|8,0:0|0:0|0:0,0:0:0:0:
176,108,15427,2,0,P|252:136|328:136,1,130,4|0,0:0|0:0,0:0:0:0:
356,84,15886,2,0,L|404:152,1,65,8|0,0:0|0:0,0:0:0:0:
352,204,16192,2,0,L|308:272,1,65,0|0,0:0|0:0,0:0:0:0:
244,228,16498,2,0,P|240:268|252:304,1,65,8|0,0:0|0:0,0:0:0:0:
312,336,16804,6,0,P|352:324|380:304,2,65,0|0|8,0:0|0:0|0:0,0:0:0:0:
246,292,17264,2,0,P|211:306|179:334,2,65,0|0|0,0:0|0:0|0:0,0:0:0:0:
316,260,17723,1,8,0:0:0:0:
348,188,17876,1,4,0:0:0:0:
256,192,17952,12,4,19253,0:0:0:0:
244,344,19560,5,8,0:0:0:0:
108,272,19866,2,8,P|76:200|92:128,1,130,0|8,0:0|0:0,0:0:0:0:
188,36,20478,2,0,P|220:108|204:180,1,130,2|8,0:0|0:0,0:0:0:0:
297,157,20937,2,0,P|292:108|324:36,1,130,0|0,0:0|0:0,0:0:0:0:
404,36,21396,2,0,P|428:76|428:108,1,65,8|0,0:0|0:0,0:0:0:0:
376,152,21702,6,0,P|356:228|296:276,1,130,2|8,0:0|0:0,0:0:0:0:
136,152,22315,2,0,P|156:228|191:263,1,130,0|8,0:0|0:0,0:0:0:0:
228,112,22927,2,0,P|176:60|120:52,1,130,2|8,0:0|0:0,0:0:0:0:
56,92,23386,2,0,P|34:162|53:215,1,130,0|0,0:0|0:0,0:0:0:0:
124,244,23845,2,0,P|152:264|176:296,1,65,8|0,0:0|0:0,0:0:0:0:
240,320,24151,6,0,P|272:332|312:336,1,65,2|0,0:0|0:0,0:0:0:0:
352,276,24457,2,0,P|320:264|280:260,1,65,8|0,0:0|0:0,0:0:0:0:
212,248,24764,2,0,P|152:240|96:192,1,130,0|8,0:0|0:0,0:0:0:0:
192,72,25376,2,0,P|252:80|308:128,2,130,2|8|0,0:0|0:0|0:0,0:0:0:0:
96,196,26294,2,0,L|60:268,1,65,8|0,0:0|0:0,0:0:0:0:
96,328,26600,5,2,0:0:0:0:
168,356,26753,1,0,0:0:0:0:
236,320,26906,2,0,P|276:276|340:244,2,130,8|0|8,0:0|0:0|0:0,0:0:0:0:
444,316,27825,2,0,P|464:256|440:172,1,130,2|8,0:0|0:0,0:0:0:0:
400,132,28284,1,0,0:0:0:0:
320,136,28437,2,0,L|292:160,3,32.5,8|0|0|0,0:0|0:0|0:0|0:0,0:0:0:0:
276,192,28743,2,0,L|268:224,3,32.5,8|0|0|0,0:0|0:0|0:0|0:0,0:0:0:0:
240,252,29049,6,0,P|204:236|172:208,1,65,4|0,0:0|0:0,0:0:0:0:
276,192,29355,2,0,P|312:208|344:236,1,65,8|0,0:0|0:0,0:0:0:0:
404,256,29662,2,0,P|439:179|445:110,1,130,0|8,0:0|0:0,0:0:0:0:
292,84,30274,1,2,0:0:0:0:
292,84,30580,2,0,P|256:92|216:92,1,65,8|0,0:0|0:0,0:0:0:0:
152,84,30886,2,0,L|76:60,2,65,0|0|8,0:0|0:0|0:0,0:0:0:0:
88,240,31498,6,0,P|104:276|108:312,1,65,2|0,0:0|0:0,0:0:0:0:
180,332,31804,2,0,L|256:348,1,65,8|0,0:0|0:0,0:0:0:0:
324,348,32111,2,0,P|420:312|444:284,1,130,0|8,0:0|0:0,0:0:0:0:
396,144,32723,2,0,P|300:180|276:208,1,130,2|8,0:0|0:0,0:0:0:0:
232,260,33182,2,0,P|168:288|96:288,1,130,0|0,0:0|0:0,0:0:0:0:
44,248,33641,1,8,0:0:0:0:
44,172,33794,1,0,0:0:0:0:
92,112,33947,6,0,B|144:100|144:100|188:140|240:140,1,130,2|8,0:0|0:0,0:0:0:0:
288,136,34406,1,0,0:0:0:0:
368,136,34560,2,0,P|408:136|448:128,2,65,0|0|8,0:0|0:0|0:0,0:0:0:0:
288,136,35019,1,0,0:0:0:0:
324,204,35172,2,0,P|312:244|296:280,1,65,2|0,0:0|0:0,0:0:0:0:
240,216,35478,2,0,P|216:248|188:276,1,65,8|0,0:0|0:0,0:0:0:0:
152,204,35784,2,0,P|120:232|88:252,2,65,0|0|8,0:0|0:0|0:0,0:0:0:0:
204,144,36243,1,0,0:0:0:0:
244,76,36396,6,0,P|304:68|360:116,1,130,2|8,0:0|0:0,0:0:0:0:
404,168,36855,1,0,0:0:0:0:
372,240,37009,2,0,P|352:280|348:320,1,65,0|0,0:0|0:0,0:0:0:0:
424,292,37315,2,0,P|444:252|444:220,1,65,8|4,0:0|0:0,0:0:0:0:
404,168,37621,6,0,B|340:152|304:200|304:200|260:196,1,130,2|8,0:0|0:0,0:0:0:0:
220,156,38080,1,0,0:0:0:0:
280,108,38233,2,0,P|240:88|204:84,1,65
152,120,38539,2,0,P|148:160|152:196,1,65,8|0,0:0|0:0,0:0:0:0:
204,232,38845,6,0,P|152:260|100:260,1,97.50000371933,4|0,0:0|0:0,0:0:0:0:
80,216,39304,2,0,P|76:152|80:96,1,97.50000371933,2|0,0:0|0:0,0:0:0:0:
92,64,39764,2,0,P|124:56|152:60,1,48.750001859665,2|0,0:0|0:0,0:0:0:0:
196,68,40070,2,0,P|304:116|344:120,2,146.250005578995,2|2|2,0:0|0:0|0:0,0:0:0:0:
124,160,41294,6,0,P|96:220|64:256,1,97.50000371933,2|0,0:0|0:0,0:0:0:0:
108,292,41753,2,0,P|164:292|220:308,1,97.50000371933,2|0,0:0|0:0,0:0:0:0:
260,324,42213,1,0,0:0:0:0:
316,344,42366,2,0,P|364:304|392:256,1,97.50000371933,2|0,0:0|0:0,0:0:0:0:
340,168,42978,2,0,P|292:208|264:256,1,97.50000371933,2|0,0:0|0:0,0:0:0:0:
232,280,43437,2,0,L|176:288,1,48.750001859665,8|0,0:0|0:0,0:0:0:0:
104,240,43743,6,0,P|96:160|124:88,1,130,4|8,0:0|0:0,0:0:0:0:
184,88,44202,2,0,P|192:168|164:236,1,130,4|0,0:0|0:0,0:0:0:0:
168,292,44662,1,8,0:0:0:0:
236,328,44815,1,0,0:0:0:0:
312,308,44968,2,0,P|392:276|460:276,1,130,4|8,0:0|0:0,0:0:0:0:
412,200,45427,2,0,P|468:144|500:72,1,130,4|0,0:0|0:0,0:0:0:0:
424,60,45886,2,0,L|352:72,1,65,8|0,0:0|0:0,0:0:0:0:
280,68,46192,6,0,P|240:144|240:196,1,130,2|8,0:0|0:0,0:0:0:0:
280,252,46651,2,0,P|320:176|320:124,1,130,0|8,0:0|0:0,0:0:0:0:
280,68,47111,1,8,0:0:0:0:
204,72,47264,2,0,P|120:64|48:84,1,130,4|8,0:0|0:0,0:0:0:0:
8,116,47723,1,8,0:0:0:0:
8,116,48641,6,0,L|40:192,1,65,12|0,0:0|0:0,0:0:0:0:
112,168,48947,2,0,L|81:99,1,65,8|0,0:0|0:0,0:0:0:0:
164,100,49253,2,0,L|196:176,1,65,8|0,0:0|0:0,0:0:0:0:
268,148,49560,2,0,L|236:72,1,65,8|0,0:0|0:0,0:0:0:0:
300,36,49866,2,0,P|380:32|426:75,1,130,8|8,0:0|0:0,0:0:0:0:
376,128,50325,1,0,0:0:0:0:
396,200,50478,2,0,P|428:228|460:240,1,65,8|0,0:0|0:0,0:0:0:0:
484,168,50784,2,0,L|484:88,1,65,8|0,0:0|0:0,0:0:0:0:
418,60,51090,6,0,P|350:104|276:120,1,130,8|8,0:0|0:0,0:0:0:0:
228,100,51549,1,0,0:0:0:0:
156,132,51702,2,0,L|128:212,1,65,8|0,0:0|0:0,0:0:0:0:
200,236,52009,2,0,L|228:156,1,65,8|0,0:0|0:0,0:0:0:0:
296,196,52315,2,0,B|352:224|352:224|372:256|408:284,2,130,8|8|8,0:0|0:0|0:0,0:0:0:0:
244,140,53080,1,0,0:0:0:0:
168,124,53233,1,8,0:0:0:0:
116,180,53386,1,0,0:0:0:0:
132,256,53539,6,0,P|204:300|264:312,1,130,4|8,0:0|0:0,0:0:0:0:
324,308,53998,1,0,0:0:0:0:
400,296,54151,2,0,P|424:260|432:228,2,65,0|0|8,0:0|0:0|0:0,0:0:0:0:
324,308,54611,1,0,0:0:0:0:
348,232,54764,2,0,P|340:152|300:84,1,130,2|8,0:0|0:0,0:0:0:0:
268,48,55223,1,0,0:0:0:0:
192,36,55376,2,0,P|152:48|124:64,2,65,0|0|8,0:0|0:0|0:0,0:0:0:0:
96,156,55835,5,0,0:0:0:0:
96,156,55988,2,0,P|176:132|236:92,1,130,2|8,0:0|0:0,0:0:0:0:
268,48,56447,2,0,P|344:64|408:108,1,130,0|8,0:0|0:0,0:0:0:0:
420,164,56906,1,8,0:0:0:0:
400,240,57060,5,4,0:0:0:0:
256,328,57366,1,8,0:0:0:0:
112,240,57672,1,8,0:0:0:0:
92,164,57825,2,0,P|76:124|68:84,2,65,8|0|8,0:0|0:0|0:0,0:0:0:0:
168,180,58284,1,0,0:0:0:0:
148,104,58437,6,0,L|208:48,1,65,12|0,0:0|0:0,0:0:0:0:
268,92,58743,2,0,L|210:147,1,65,8|0,0:0|0:0,0:0:0:0:
292,172,59049,2,0,L|352:116,1,65,8|0,0:0|0:0,0:0:0:0:
408,168,59355,2,0,L|348:224,1,65,8|0,0:0|0:0,0:0:0:0:
292,248,59662,5,8,0:0:0:0:
224,212,59815,1,0,0:0:0:0:
216,136,59968,2,0,P|204:104|172:64,1,65,8|0,0:0|0:0,0:0:0:0:
112,72,60274,2,0,P|80:92|52:124,1,65,8|0,0:0|0:0,0:0:0:0:
36,184,60580,2,0,P|32:224|40:264,1,65,8|0,0:0|0:0,0:0:0:0:
108,276,60886,6,0,P|164:304|216:352,1,130,8|8,0:0|0:0,0:0:0:0:
320,236,61498,2,0,P|256:248|192:236,2,130,8|8|8,0:0|0:0|0:0,0:0:0:0:
388,200,62264,1,0,0:0:0:0:
388,124,62417,1,8,0:0:0:0:
328,76,62570,1,0,0:0:0:0:
252,96,62723,2,0,P|224:116|200:140,1,65,8|0,0:0|0:0,0:0:0:0:
232,208,63029,2,0,L|264:280,1,65,8|0,0:0|0:0,0:0:0:0:
292,336,63335,6,0,P|216:332|180:272,1,130,4|8,0:0|0:0,0:0:0:0:
156,220,63794,2,0,P|168:144|200:96,1,130,4|8,0:0|0:0,0:0:0:0:
248,40,64253,1,8,0:0:0:0:
172,28,64406,2,0,P|112:88|92:140,1,130,4|0,0:0|0:0,0:0:0:0:
80,204,64866,2,0,P|44:196|12:172,1,65,8|4,0:0|0:0,0:0:0:0:
64,40,65325,1,0,0:0:0:0:
64,40,65478,1,8,0:0:0:0:
64,40,65631,1,0,0:0:0:0:
140,48,65784,6,0,P|220:60|288:100,1,130,8|8,0:0|0:0,0:0:0:0:
284,156,66243,2,0,P|244:228|188:280,2,130,8|8|4,0:0|0:0|0:0,0:0:0:0:
364,24,67162,1,0,0:0:0:0:
444,32,67315,6,0,P|460:60|480:104,1,65,8|0,0:0|0:0,0:0:0:0:
424,152,67621,2,0,P|408:124|388:80,1,65,0|0,0:0|0:0,0:0:0:0:
320,116,67927,1,8,0:0:0:0:
336,194,68080,1,0,0:0:0:0:
320,272,68233,6,0,P|256:284|192:272,1,130,12|8,0:0|0:0,0:0:0:0:
192,116,68845,2,0,P|256:104|320:116,1,130,8|8,0:0|0:0,0:0:0:0:
448,192,69457,2,8,L|292:192,1,130,8|8,0:0|0:0,0:0:0:0:
240,192,69917,2,0,L|172:192,1,65,0|8,0:0|0:0,0:0:0:0:
96,192,70223,1,0,0:0:0:0:
40,136,70376,6,0,P|36:100|40:68,1,65,8|0,0:0|0:0,0:0:0:0:
112,40,70682,2,0,P|192:52|256:84,1,130,4|8,0:0|0:0,0:0:0:0:
268,224,71294,2,0,P|188:212|124:180,2,130,8|8|8,0:0|0:0|0:0,0:0:0:0:
420,184,72213,1,8,0:0:0:0:
340,52,72519,2,0,L|288:112,1,65,8|0,0:0|0:0,0:0:0:0:
220,84,72825,2,0,L|276:20,1,65,8|0,0:0|0:0,0:0:0:0:
188,16,73131,6,0,P|148:68|176:144,1,130,4|8,0:0|0:0,0:0:0:0:
220,176,73590,1,0,0:0:0:0:
296,172,73743,2,0,P|364:200|384:276,1,130,0|8,0:0|0:0,0:0:0:0:
256,336,74355,2,0,P|176:320|116:280,1,130,2|8,0:0|0:0,0:0:0:0:
80,240,74815,1,0,0:0:0:0:
96,164,74968,2,0,B|120:120|120:120|176:104|212:76,1,130,0|8,0:0|0:0,0:0:0:0:
348,80,75427,5,0,0:0:0:0:
348,80,75580,2,0,P|300:148|248:180,1,130,2|8,0:0|0:0,0:0:0:0:
184,184,76039,1,0,0:0:0:0:
116,224,76192,2,0,P|132:260|152:292,2,65,0|8|8,0:0|0:0|0:0,0:0:0:0:
112,148,76651,5,4,0:0:0:0:
256,60,76957,1,8,0:0:0:0:
400,148,77264,1,8,0:0:0:0:
400,224,77417,2,0,L|400:304,1,65,8|0,0:0|0:0,0:0:0:0:
328,252,77723,2,0,L|328:172,1,65,8|0,0:0|0:0,0:0:0:0:
328,108,78029,6,0,P|244:108|172:120,1,130,12|8,0:0|0:0,0:0:0:0:
140,168,78488,1,0,0:0:0:0:
88,228,78641,2,0,P|52:208|28:184,2,65,8|0|8,0:0|0:0|0:0,0:0:0:0:
164,244,79100,1,0,0:0:0:0:
240,256,79253,2,0,P|316:224|392:224,1,130,8|8,0:0|0:0,0:0:0:0:
440,240,79713,1,0,0:0:0:0:
456,164,79866,2,0,P|420:76|376:32,1,130,8|8,0:0|0:0,0:0:0:0:
244,44,80478,6,0,B|200:44|200:44|160:68|112:68,1,130,8|8,0:0|0:0,0:0:0:0:
76,220,81090,2,0,P|120:288|176:324,2,130,8|8|8,0:0|0:0|0:0,0:0:0:0:
228,176,82009,1,8,0:0:0:0:
376,128,82315,2,0,P|332:60|292:31,1,130,8|8,0:0|0:0,0:0:0:0:
100,96,82927,6,0,P|96:180|120:252,1,130,4|8,0:0|0:0,0:0:0:0:
160,280,83386,2,0,P|236:308|312:304,1,130,4|0,0:0|0:0,0:0:0:0:
356,280,83845,1,8,0:0:0:0:
296,232,83998,2,0,P|220:204|144:208,1,130,4|0,0:0|0:0,0:0:0:0:
92,212,84457,2,0,P|56:188|32:160,1,65,8|4,0:0|0:0,0:0:0:0:
68,100,84764,2,0,B|72:68|72:68|120:76|172:48,1,130,0|8,0:0|0:0,0:0:0:0:
296,136,85376,6,0,P|324:192|296:248,1,130,4|8,0:0|0:0,0:0:0:0:
216,248,85835,2,0,P|188:192|216:136,1,130,4|0,0:0|0:0,0:0:0:0:
256,192,86294,12,8,87213,0:0:0:0:
