osu file format v12

[General]
AudioFilename: nano.RIPE - Omokage Warp.mp3
AudioLeadIn: 0
PreviewTime: 65533
Countdown: 0
SampleSet: Soft
StackLeniency: 0.7
Mode: 0
LetterboxInBreaks: 1

[Editor]
Bookmarks: 133592,139094
DistanceSpacing: 1
BeatDivisor: 2
GridSize: 4

[Metadata]
Title:Omokage Warp
TitleUnicode:面影ワープ
Artist:nano.RIPE
ArtistUnicode:nano.RIPE
Creator:raheta_adi
Version:Normal
Source:Hanasaku Iroha
Tags:opening ohana DakeDekaane hanairo
BeatmapID:185101
BeatmapSetID:57426

[Difficulty]
HPDrainRate:4
CircleSize:3
OverallDifficulty:3
ApproachRate:5
SliderMultiplier:0.8
SliderTickRate:1

[Events]
//Background and Video events
0,0,"hanasaku_iroha.jpg",0,0
//Break Periods
2,84027,86627
2,161740,168913
//Storyboard Layer 0 (Background)
//Storyboard Layer 1 (Fail)
//Storyboard Layer 2 (Pass)
//Storyboard Layer 3 (Foreground)
//Storyboard Sound Samples
//Background Colour Transformations
3,100,255,255,255

[TimingPoints]
6113,285.714285714286,4,1,1,65,1,0
47113,-100,4,2,1,65,0,0
48255,-100,4,1,1,65,0,0
48541,-100,4,2,1,65,0,0
49255,-100,4,1,1,65,0,0
49398,-100,4,2,1,65,0,0
50113,-100,4,1,1,65,0,0
50255,-100,4,2,1,65,0,0
51827,-100,4,1,1,65,0,0
51970,-100,4,2,1,65,0,0
52970,-100,4,1,1,65,0,0
53113,-100,4,2,1,65,0,0
54113,-100,4,1,1,65,0,0
54970,-100,4,2,1,65,0,0
56398,-100,4,1,1,65,0,0
63184,-100,4,1,1,60,0,0
65541,-100,4,1,1,65,0,1
83827,-100,4,1,1,65,0,0
104684,-100,4,1,1,55,0,0
104827,-100,4,1,1,45,0,0
104970,-100,4,1,1,40,0,0
105113,-100,4,1,1,35,0,0
105255,-100,4,1,1,30,0,0
105398,-100,4,1,1,25,0,0
106684,-100,4,2,1,65,0,0
107827,-100,4,1,1,65,0,0
107970,-100,4,2,1,65,0,0
108541,-100,4,1,1,65,0,0
108827,-100,4,2,1,65,0,0
109398,-100,4,1,1,65,0,0
109684,-100,4,2,1,65,0,0
111255,-100,4,1,1,65,0,0
111398,-100,4,2,1,65,0,0
112398,-100,4,1,1,65,0,0
112541,-100,4,2,1,65,0,0
113541,-100,4,1,1,65,0,0
113684,-100,4,2,1,65,0,0
114255,-100,4,1,1,65,0,0
114541,-100,4,2,1,65,0,0
115827,-100,4,1,1,65,0,0
120398,-100,4,1,1,60,0,0
122684,-100,4,1,1,65,0,0
124970,-100,4,1,1,65,0,1
143255,-100,4,1,1,65,0,0
161541,-100,4,2,1,65,0,0
170684,-100,4,1,1,65,0,0
175255,-100,4,1,1,60,0,0
177113,-100,4,1,1,65,0,0
177541,-100,4,1,1,65,0,1
185255,-100,4,1,1,65,0,0
194398,-100,4,1,1,60,0,0
194684,-100,4,1,1,50,0,0
194970,-100,4,1,1,40,0,0
195255,-100,4,1,1,30,0,0
195541,-100,4,1,1,20,0,0

[Colours]
Combo1 : 253,91,224
Combo2 : 123,252,120
Combo3 : 96,253,253
Combo4 : 252,112,112

[HitObjects]
136,80,6112,2,0,P|208:48|312:56,1,160
408,152,7255,2,0,B|432:192|464:208|464:208|456:256|488:288,1,160
328,240,8398,2,0,B|288:248|256:216|192:248,2,120
220,124,9827,2,0,L|156:68,1,80
104,128,10398,1,0,0:0:0:0:
48,184,10684,1,4,0:0:0:0:
200,224,11255,6,0,P|168:288|192:376,1,160,8|0,0:0|0:0,0:0:0:0:
344,328,12398,1,8,0:0:0:0:
412,288,12684,1,0,0:0:0:0:
480,332,12970,2,0,P|484:252|416:208,1,160,0|8,0:0|0:0,0:0:0:0:
344,208,13827,2,0,P|372:148|436:132,2,120,0|0|8,0:0|0:0|0:0,0:0:0:0:
296,272,14970,2,0,L|192:272,1,80,0|0,0:0|0:0,0:0:0:0:
144,132,15827,6,0,L|24:244,1,160,8|0,0:0|0:0,0:0:0:0:
88,296,16684,2,0,L|16:368,2,80,0|8|0,0:0|0:0|0:0,0:0:0:0:
160,332,17541,2,0,L|288:204,1,160,0|8,0:0|0:0,0:0:0:0:
352,236,18398,2,0,P|327:161|256:140,1,160,0|0,0:0|0:0,0:0:0:0:
184,176,19255,1,8,0:0:0:0:
148,248,19541,1,0,0:0:0:0:
212,300,19827,6,0,B|292:272|320:348|384:312,1,160,4|8,0:0|0:0,0:0:0:0:
440,288,20684,2,0,P|484:240|472:168,2,120,0|0|8,0:0|0:0|0:0,0:0:0:0:
408,216,21827,2,0,P|368:208|304:224,1,80,0|4,0:0|0:0,0:0:0:0:
212,320,22684,5,8,0:0:0:0:
132,304,22970,2,0,B|152:236|224:240|224:240|236:184,1,160
312,208,23827,2,0,P|296:152|256:128,1,80,8|0,0:0|0:0,0:0:0:0:
328,72,24398,2,0,P|376:120|396:216,1,160,0|8,0:0|0:0,0:0:0:0:
440,276,25255,6,0,B|388:316|336:252|284:276,1,160,0|0,0:0|0:0,0:0:0:0:
312,352,26113,2,0,P|252:352|220:324,1,80,8|0,0:0|0:0,0:0:0:0:
196,272,26684,2,0,B|208:208|264:192|264:192|280:132,1,160,0|8,0:0|0:0,0:0:0:0:
356,156,27541,2,0,P|336:88|256:68,1,160
180,48,28398,2,0,P|136:36|96:32,1,80,8|0,0:0|0:0,0:0:0:0:
96,112,28970,6,0,P|72:184|88:288,1,160,4|8,0:0|0:0,0:0:0:0:
112,340,29827,1,0,0:0:0:0:
200,204,30398,1,0,0:0:0:0:
276,176,30684,2,0,L|296:276,1,80,8|0,0:0|0:0,0:0:0:0:
360,304,31255,6,0,P|432:272|464:200,1,160,4|8,0:0|0:0,0:0:0:0:
488,120,32113,1,0,0:0:0:0:
336,72,32684,1,0,0:0:0:0:
256,88,32970,6,0,L|160:96,1,80,8|0,0:0|0:0,0:0:0:0:
136,168,33541,2,0,B|200:176|200:176|232:200|232:200|296:208,1,160,0|8,0:0|0:0,0:0:0:0:
368,216,34398,1,0,0:0:0:0:
432,268,34684,6,0,L|380:340,1,80,0|8,0:0|0:0,0:0:0:0:
304,340,35255,2,0,L|208:316,1,80,0|8,0:0|0:0,0:0:0:0:
160,368,35827,2,0,P|72:336|56:256,1,160,4|8,0:0|0:0,0:0:0:0:
136,288,36684,2,0,L|272:204,1,160
232,136,37541,6,0,B|264:112|264:112|312:112,2,80,8|0|0,0:0|0:0|0:0,0:0:0:0:
272,208,38398,2,0,P|296:296|360:336,1,160,0|0,0:0|0:0,0:0:0:0:
456,208,39541,1,0,0:0:0:0:
396,152,39827,2,0,L|316:104,1,80,8|0,0:0|0:0,0:0:0:0:
260,156,40398,2,0,B|228:180|180:124|132:172,2,120,4|2|0,0:0|0:0|0:0,0:0:0:0:
316,216,41541,1,0,0:0:0:0:
200,324,42113,5,8,0:0:0:0:
128,360,42398,1,0,0:0:0:0:
128,280,42684,2,0,P|112:208|160:128,1,160,0|8,0:0|0:0,0:0:0:0:
228,116,43541,1,0,0:0:0:0:
288,168,43827,2,0,B|352:168|352:168|384:192|384:192|456:192,1,160,0|8,0:0|0:0,0:0:0:0:
416,116,44684,1,0,0:0:0:0:
348,72,44970,2,0,P|196:48|108:184,1,320,4|0,0:0|0:0,0:0:0:0:
408,284,47255,6,0,L|324:256,1,80,4|0,0:0|0:0,0:0:0:0:
256,232,47827,2,0,L|176:208,1,80
228,144,48398,2,0,P|300:104|332:16,1,160,0|2,0:0|0:0,0:0:0:0:
412,36,49255,1,0,0:0:0:0:
464,96,49541,2,0,P|407:156|399:230,1,160,0|0,0:0|0:0,0:0:0:0:
256,300,50684,1,8,0:0:0:0:
104,232,51255,6,0,L|24:304,2,80,0|2|0,0:0|0:0|0:0,0:0:0:0:
208,112,52398,2,0,L|208:32,2,80,0|2|0,0:0|0:0|0:0,0:0:0:0:
320,232,53541,1,0,0:0:0:0:
396,212,53827,1,2,0:0:0:0:
376,288,54113,2,0,B|320:352|216:256|136:312,1,240,0|0,0:0|1:0,0:0:0:0:
76,268,55255,1,8,0:0:0:0:
120,128,55827,5,4,0:0:0:0:
280,112,56398,1,4,1:0:0:0:
360,136,56684,1,0,0:0:0:0:
440,160,56970,2,8,P|456:216|456:256,2,80,8|0|0,0:0|0:0|0:0,0:0:0:0:
304,240,58113,1,8,0:0:0:0:
144,232,58684,6,0,B|92:264|56:224|8:256,2,120,4|2|4,0:0|0:0|0:0,0:0:0:0:
144,232,59827,1,0,0:0:0:0:
296,176,60398,1,8,0:0:0:0:
348,112,60684,1,0,0:0:0:0:
400,176,60970,2,0,P|432:240|432:336,1,160,4|8,0:0|0:0,0:0:0:0:
288,264,62113,2,0,P|208:304|128:304,1,160,4|8,0:0|0:0,0:0:0:0:
64,280,62970,1,0,0:0:0:0:
132,180,63398,6,0,P|200:156|248:112,1,120
332,52,64255,2,0,P|392:76|432:116,1,120
376,352,65541,6,0,B|400:312|400:312|480:296|472:208,1,160,4|8,0:0|0:0,0:0:0:0:
392,232,66398,1,0,0:0:0:0:
436,164,66684,2,0,B|368:128|320:192|320:192|264:188,1,160,2|8,0:0|0:0,0:0:0:0:
224,148,67541,1,0,0:0:0:0:
148,172,67827,2,0,P|60:196|36:260,2,160,2|8|2,0:0|0:0|0:0,0:0:0:0:
264,284,69541,5,8,0:0:0:0:
352,152,70113,2,0,P|432:136|512:152,1,160,2|8,0:0|0:0,0:0:0:0:
472,224,70970,1,0,0:0:0:0:
408,280,71255,2,0,P|328:296|248:280,1,160,2|8,0:0|0:0,0:0:0:0:
176,248,72113,2,0,P|140:272|88:288,1,80,0|2,0:0|0:0,0:0:0:0:
52,224,72684,1,0,0:0:0:0:
96,156,72970,1,8,0:0:0:0:
176,168,73255,6,8,P|256:128|336:120,1,160,0|0,0:0|0:0,0:0:0:0:
400,88,74113,2,0,P|428:120|444:168,1,80,8|0,0:0|0:0,0:0:0:0:
368,188,74684,2,0,P|312:236|288:332,1,160,4|8,0:0|0:0,0:0:0:0:
128,320,75827,6,0,P|96:240|40:192,1,160,2|8,0:0|0:0,0:0:0:0:
72,120,76684,1,0,0:0:0:0:
152,120,76970,2,0,P|184:200|240:248,1,160,2|8,0:0|0:0,0:0:0:0:
352,136,78113,2,0,L|384:240,1,80,2|0,0:0|0:0,0:0:0:0:
400,296,78684,5,8,0:0:0:0:
256,360,79255,2,0,P|232:288|248:208,1,160,4|8,0:0|0:0,0:0:0:0:
280,48,80398,1,2,0:0:0:0:
200,64,80684,1,8,0:0:0:0:
144,124,80970,1,2,0:0:0:0:
64,128,81255,1,6,0:0:0:0:
256,192,81541,12,4,83827,0:0:0:0:
128,192,87827,6,0,L|96:112,1,80,8|0,0:0|0:0,0:0:0:0:
20,100,88398,2,0,P|68:44|156:60,1,160,4|8,0:0|0:0,0:0:0:0:
224,72,89255,2,0,L|392:120,1,160,0|0,0:0|0:0,0:0:0:0:
456,132,90113,2,0,L|424:216,1,80,8|0,0:0|0:0,0:0:0:0:
356,244,90684,2,0,P|280:276|232:352,1,160,0|8,0:0|0:0,0:0:0:0:
156,336,91541,2,0,P|124:276|36:244,1,160
48,164,92398,2,0,L|144:160,1,80,8|0,0:0|0:0,0:0:0:0:
208,152,92970,6,0,P|272:120|312:36,1,160,0|8,0:0|0:0,0:0:0:0:
392,40,93827,2,0,L|488:40,2,80,0|0|8,0:0|0:0|0:0,0:0:0:0:
400,120,94684,2,0,L|428:208,1,80,0|8,0:0|0:0,0:0:0:0:
356,240,95255,2,0,P|284:212|204:236,1,160,0|8,0:0|0:0,0:0:0:0:
132,256,96113,2,0,L|72:96,1,160
144,64,96970,5,8,0:0:0:0:
208,112,97255,1,0,0:0:0:0:
272,64,97541,1,0,0:0:0:0:
336,112,97827,1,0,0:0:0:0:
488,144,98398,2,0,P|472:232|424:312,1,160,0|0,0:0|0:0,0:0:0:0:
364,316,99255,1,8,0:0:0:0:
284,332,99541,1,0,0:0:0:0:
304,256,99827,2,0,B|232:208|176:264|176:264,1,120
104,336,100684,2,0,P|72:296|72:248,1,80
140,128,101541,5,8,0:0:0:0:
200,72,101827,1,0,0:0:0:0:
272,112,102113,2,0,P|320:184|336:264,1,160,0|8,0:0|0:0,0:0:0:0:
400,312,102970,1,0,0:0:0:0:
420,236,103255,2,0,P|402:163|358:83,1,160,0|8,0:0|0:0,0:0:0:0:
292,48,104113,1,0,0:0:0:0:
256,192,104398,12,0,105541,0:0:0:0:
392,80,106684,5,2,0:0:0:0:
320,120,106970,2,0,P|256:128|168:192,1,160
104,144,107827,1,0,0:0:0:0:
32,184,108113,2,0,L|60:264,1,80,0|2,0:0|0:0,0:0:0:0:
88,336,108684,2,0,L|172:308,1,80
240,280,109255,6,0,L|208:200,2,80,0|0|0,0:0|0:0|0:0,0:0:0:0:
312,248,110113,2,0,L|280:168,1,80,8|0,0:0|0:0,0:0:0:0:
240,112,110684,2,0,P|272:88|320:88,1,80,2|0,0:0|0:0,0:0:0:0:
368,136,111255,1,0,0:0:0:0:
440,104,111541,2,0,P|456:176|440:264,1,160,0|0,0:0|0:0,0:0:0:0:
376,312,112398,5,0,1:0:0:0:
296,288,112684,2,0,P|272:248|272:208,1,80,0|2,0:0|0:0,0:0:0:0:
336,172,113255,1,0,0:0:0:0:
284,112,113541,1,0,0:0:0:0:
216,156,113827,2,0,L|136:180,1,80,0|2,0:0|0:0,0:0:0:0:
72,224,114398,2,0,P|64:190|56:144,1,80,0|8,0:0|0:0,0:0:0:0:
196,72,115255,6,0,P|268:56|356:72,1,160,4|4,0:0|0:0,0:0:0:0:
428,40,116113,2,0,P|472:68|492:104,1,80
416,128,116684,2,0,P|392:160|384:216,1,80
464,200,117255,2,0,P|448:248|416:272,1,80
360,312,117827,1,0,0:0:0:0:
280,336,118113,2,0,B|216:352|168:312|168:312|96:344|40:264,1,240,4|0,0:0|0:0,0:0:0:0:
128,240,119255,1,0,0:0:0:0:
184,88,119827,6,0,P|216:116|271:128,1,80
325,96,120398,2,4,P|295:59|247:50,2,80
312,176,121255,1,0,0:0:0:0:
384,212,121541,2,4,P|354:249|306:258,2,80
312,176,122398,1,4,0:0:0:0:
224,256,122827,6,0,B|180:244|140:264|104:256,3,120,4|0|4|0,0:0|0:0|0:0|0:0,0:0:0:0:
40,216,124398,1,0,0:0:0:0:
64,136,124684,1,0,0:0:0:0:
136,176,124970,6,0,P|208:168|272:104,1,160,4|8,0:0|0:0,0:0:0:0:
408,32,126113,1,2,0:0:0:0:
440,168,126684,1,8,0:0:0:0:
440,248,126970,1,0,0:0:0:0:
368,208,127255,2,0,B|304:208|304:208|264:224|264:224|192:224,1,160,2|8,0:0|0:0,0:0:0:0:
80,152,128398,1,2,0:0:0:0:
40,304,128970,5,8,0:0:0:0:
200,336,129541,2,0,B|240:328|240:328|312:352|352:280,1,160,2|8,0:0|0:0,0:0:0:0:
216,200,130684,2,0,B|176:180|156:152|156:152|108:176|56:168,1,160,2|8,0:0|0:0,0:0:0:0:
56,88,131541,2,0,P|100:84|152:48,1,80,0|2,0:0|0:0,0:0:0:0:
212,80,132113,2,0,P|244:120|284:136,1,80,0|8,0:0|0:0,0:0:0:0:
340,96,132684,1,2,0:0:0:0:
440,216,133255,5,0,0:0:0:0:
360,224,133541,1,8,0:0:0:0:
352,304,133827,1,0,0:0:0:0:
272,328,134113,2,0,L|104:296,1,160,2|8,0:0|0:0,0:0:0:0:
40,156,135255,2,0,P|48:108|48:68,1,80,2|0,0:0|0:0,0:0:0:0:
128,96,135827,6,0,P|176:92|232:92,2,80,8|0|2,0:0|0:0|0:0,0:0:0:0:
288,128,136970,2,0,B|312:88|360:96|360:96|384:144|432:144,1,160,8|2,0:0|0:0,0:0:0:0:
416,304,138113,2,0,B|384:302|360:350|360:350|312:358|288:318,1,160,8|2,0:0|0:0,0:0:0:0:
312,160,139255,1,8,0:0:0:0:
160,104,139827,2,0,P|128:136|120:192,1,80,2|0,0:0|0:0,0:0:0:0:
176,224,140398,2,0,P|152:264|112:288,1,80,8|2,0:0|0:0,0:0:0:0:
256,192,140970,12,4,143255,0:0:0:0:
184,272,143827,6,0,P|160:208|184:116,1,160,8|0,0:0|0:0,0:0:0:0:
300,104,144827,2,0,L|400:128,1,80
456,212,145541,2,0,P|432:296|368:344,2,160,0|8|0,0:0|0:0|0:0,0:0:0:0:
377,122,147113,2,0,L|300:104,1,80
188,60,147827,6,0,B|108:80|108:80|52:140,1,160,0|8,0:0|0:0,0:0:0:0:
120,184,148684,2,0,B|176:240|176:240|196:320,1,160
276,332,149541,2,0,L|372:344,1,80,8|0,0:0|0:0,0:0:0:0:
412,284,150113,2,0,B|424:244|424:244|496:224|488:140,1,160,0|8,0:0|0:0,0:0:0:0:
408,164,150970,5,0,0:0:0:0:
292,56,151541,1,0,0:0:0:0:
224,96,151827,1,8,0:0:0:0:
260,168,152113,1,0,0:0:0:0:
200,220,152398,1,0,0:0:0:0:
76,320,152970,6,0,P|28:304|-4:272,1,80,8|0,0:0|0:0,0:0:0:0:
124,176,153827,1,0,0:0:0:0:
176,116,154113,2,0,L|268:100,1,80,8|0,0:0|0:0,0:0:0:0:
336,108,154684,2,0,P|388:168|404:260,1,160,0|8,0:0|0:0,0:0:0:0:
388,324,155541,1,0,0:0:0:0:
240,264,156113,6,0,L|300:200,1,80,0|8,0:0|0:0,0:0:0:0:
236,152,156684,2,0,L|172:100,1,80
36,184,157541,1,8,0:0:0:0:
92,244,157827,2,0,B|168:280|168:280|212:348,1,160,0|0,0:0|0:0,0:0:0:0:
288,356,158684,2,0,L|324:280,1,80,8|0,0:0|0:0,0:0:0:0:
400,292,159255,6,0,P|368:220|280:216,1,160,0|8,0:0|0:0,0:0:0:0:
216,236,160113,1,0,0:0:0:0:
140,96,160684,2,0,L|228:72,1,80,0|8,0:0|0:0,0:0:0:0:
296,76,161255,2,0,L|380:104,1,80,0|4,0:0|0:0,0:0:0:0:
272,184,170113,5,4,0:0:0:0:
160,64,170684,6,0,P|144:128|64:176,1,160,4|0,0:0|0:0,0:0:0:0:
120,328,171827,1,0,0:0:0:0:
280,328,172398,1,0,0:0:0:0:
336,268,172684,1,0,0:0:0:0:
280,208,172970,2,0,P|344:192|440:208,1,160,4|0,0:0|0:0,0:0:0:0:
496,152,173827,1,0,0:0:0:0:
440,96,174113,2,0,B|368:56|328:112|272:64,1,160,4|0,0:0|0:0,0:0:0:0:
208,96,174970,5,0,0:0:0:0:
160,160,175255,1,4,0:0:0:0:
216,216,175541,1,0,0:0:0:0:
296,192,175827,1,4,0:0:0:0:
288,112,176112,1,0,0:0:0:0:
208,96,176398,2,4,L|128:48,2,80
328,200,177541,6,0,L|280:264,1,80,12|0,0:0|0:0,0:0:0:0:
216,212,178113,2,0,L|168:276,1,80,2|0,0:0|0:0,0:0:0:0:
108,220,178684,2,0,L|60:284,2,80,8|0|2,0:0|0:0|0:0,0:0:0:0:
164,160,179541,1,0,0:0:0:0:
232,116,179827,2,0,P|312:92|384:124,2,160,8|2|8,0:0|0:0|0:0,0:0:0:0:
304,256,181541,5,2,0:0:0:0:
168,336,182113,2,0,P|144:264|176:184,1,160,12|2,0:0|0:0,0:0:0:0:
104,144,182970,1,0,0:0:0:0:
152,80,183255,2,0,L|88:32,2,80,8|0|2,0:0|0:0|0:0,0:0:0:0:
224,112,184113,5,0,0:0:0:0:
296,148,184398,2,2,P|320:196|328:244,1,80,8|0,0:0|0:0,0:0:0:0:
404,200,184970,2,2,P|428:256|428:296,1,80
268,264,185827,1,0,0:0:0:0:
196,300,186112,1,0,0:0:0:0:
136,244,186398,1,0,0:0:0:0:
68,288,186684,6,2,P|20:216|44:136,1,160,6|2,0:0|0:0,0:0:0:0:
184,72,187827,2,0,P|264:120|344:96,1,160,2|0,0:0|0:0,0:0:0:0:
404,88,188684,1,0,0:0:0:0:
432,164,188970,2,0,P|420:225|468:305,1,160,6|0,0:0|0:0,0:0:0:0:
400,344,189827,1,0,0:0:0:0:
324,316,190113,1,6,0:0:0:0:
164,328,190684,6,0,P|140:288|92:264,1,80,8|0,0:0|0:0,0:0:0:0:
40,232,191255,1,4,0:0:0:0:
32,72,191827,2,8,B|88:40|144:96|192:64,1,160,8|0,0:0|0:0,0:0:0:0:
264,96,192684,1,0,0:0:0:0:
332,140,192970,1,2,0:0:0:0:
412,144,193255,1,2,0:0:0:0:
256,192,193541,12,4,195827,0:0:0:0:
