osu file format v12

[General]
AudioFilename: nano.RIPE - Omokage Warp.mp3
AudioLeadIn: 0
PreviewTime: 65533
Countdown: 0
SampleSet: Normal
StackLeniency: 0.7
Mode: 0
LetterboxInBreaks: 1

[Editor]
Bookmarks: 133592
DistanceSpacing: 0.5
BeatDivisor: 4
GridSize: 4

[Metadata]
Title:Omokage Warp
TitleUnicode:面影ワープ
Artist:nano.RIPE
ArtistUnicode:nano.RIPE
Creator:raheta_adi
Version:Hard
Source:Hanasaku Iroha
Tags:opening ohana DakeDekaane hanairo
BeatmapID:173090
BeatmapSetID:57426

[Difficulty]
HPDrainRate:5
CircleSize:4
OverallDifficulty:6
ApproachRate:8
SliderMultiplier:1.3
SliderTickRate:1

[Events]
//Background and Video events
0,0,"hanasaku_iroha.jpg",0,0
//Break Periods
2,84027,87077
2,161741,169363
//Storyboard Layer 0 (Background)
//Storyboard Layer 1 (Fail)
//Storyboard Layer 2 (Pass)
//Storyboard Layer 3 (Foreground)
//Storyboard Sound Samples
//Background Colour Transformations
3,100,255,255,255

[TimingPoints]
6113,285.714285714286,4,1,2,65,1,0
47113,-200,4,2,1,65,0,0
48255,-200,4,1,1,65,0,0
48541,-200,4,2,1,65,0,0
49255,-200,4,1,1,65,0,0
49398,-200,4,2,1,65,0,0
50113,-200,4,1,1,65,0,0
50255,-200,4,2,1,65,0,0
51827,-200,4,1,1,65,0,0
51970,-200,4,2,1,65,0,0
52970,-200,4,1,1,65,0,0
53113,-200,4,2,1,65,0,0
54113,-200,4,1,1,65,0,0
54398,-200,4,2,1,65,0,0
54498,-200,4,2,1,65,0,0
55541,-100,4,2,1,65,0,0
55898,-100,4,1,1,65,0,0
63184,-100,4,1,1,60,0,0
65541,-100,4,1,1,65,0,1
83827,-100,4,1,1,65,0,0
87827,-100,4,1,2,65,0,0
104684,-100,4,1,1,55,0,0
104827,-100,4,1,1,45,0,0
104970,-100,4,1,1,40,0,0
105113,-100,4,1,1,35,0,0
105255,-100,4,1,1,30,0,0
105398,-100,4,1,1,25,0,0
106684,-200,4,2,1,65,0,0
107827,-200,4,1,1,65,0,0
107970,-200,4,2,1,65,0,0
108541,-200,4,1,1,65,0,0
108827,-200,4,2,1,65,0,0
109398,-200,4,1,1,65,0,0
109684,-200,4,2,1,65,0,0
111255,-200,4,1,1,65,0,0
111398,-200,4,2,1,65,0,0
112398,-200,4,1,1,65,0,0
112541,-200,4,2,1,65,0,0
113541,-200,4,1,1,65,0,0
113684,-200,4,2,1,65,0,0
114255,-200,4,1,1,65,0,0
114541,-200,4,2,1,65,0,0
115113,-100,4,2,1,65,0,0
115327,-100,4,1,1,65,0,0
120398,-100,4,1,1,60,0,0
122684,-100,4,1,1,65,0,0
124970,-100,4,1,1,65,0,1
143255,-100,4,1,2,65,0,0
161541,-100,4,2,1,65,0,0
170684,-100,4,1,1,65,0,0
175255,-100,4,1,1,60,0,0
177113,-100,4,1,1,65,0,0
177541,-100,4,1,1,65,0,1
185255,-100,4,1,1,65,0,0
194398,-100,4,1,1,60,0,0
194684,-100,4,1,1,50,0,0
194970,-100,4,1,1,40,0,0
195255,-100,4,1,1,30,0,0
195541,-100,4,1,1,20,0,0

[Colours]
Combo1 : 253,91,224
Combo2 : 123,252,120
Combo3 : 96,253,253
Combo4 : 252,112,112

[HitObjects]
88,80,6112,2,0,L|240:80,1,130
288,160,6684,2,0,L|136:160,1,130
224,240,7255,2,0,L|368:240,1,130
416,320,7827,2,0,L|280:320,1,130
184,320,8398,1,0,0:0:0:0:
104,256,8684,5,0,0:0:0:0:
104,256,8827,1,0,0:0:0:0:
104,152,9113,1,0,0:0:0:0:
104,152,9255,1,0,0:0:0:0:
184,80,9541,2,0,L|256:80,1,65
320,152,9970,1,0,0:0:0:0:
320,152,10113,2,0,L|360:152,8,32.5,0|0|0|0|0|0|0|0|4,0:0|0:0|0:0|0:0|0:0|0:0|0:0|0:0|0:0,0:0:0:0:
392,232,10970,6,0,P|400:296|360:352,1,130,8|0,0:0|0:0,0:0:0:0:
264,332,11541,2,0,L|204:364,2,65,8|0|0,0:0|0:0|0:0,0:0:0:0:
312,240,12113,1,8,0:0:0:0:
252,156,12398,2,0,P|188:152|112:168,1,130,0|8,0:0|0:0,0:0:0:0:
80,192,12827,1,0,0:0:0:0:
32,216,12970,6,0,P|20:148|32:84,1,130,0|8,0:0|0:0,0:0:0:0:
124,44,13541,2,0,P|188:28|252:44,1,130,0|8,0:0|0:0,0:0:0:0:
344,88,14113,1,0,0:0:0:0:
436,136,14398,1,8,0:0:0:0:
440,240,14684,5,0,0:0:0:0:
376,320,14970,2,8,L|320:272,1,65,8|0,0:0|0:0,0:0:0:0:
280,304,15255,2,0,P|216:328|152:296,1,130,0|8,0:0|0:0,0:0:0:0:
72,256,15827,1,0,0:0:0:0:
128,168,16113,6,0,L|60:108,2,65,0|8|0,0:0|0:0|0:0,0:0:0:0:
208,104,16684,2,0,L|184:32,2,65,8|8|0,0:0|0:0|0:0,0:0:0:0:
312,104,17255,2,0,L|336:32,2,65,0|8|8,0:0|0:0|0:0,0:0:0:0:
392,168,17827,6,0,L|500:80,2,130,0|0|8,0:0|0:0|0:0,0:0:0:0:
320,248,18684,1,0,0:0:0:0:
216,248,18970,1,8,0:0:0:0:
144,168,19255,2,0,L|56:48,2,130,0|0|4,0:0|0:0|0:0,0:0:0:0:
48,208,20113,6,0,L|128:320,1,130,2|0,0:0|0:0,0:0:0:0:
224,336,20684,1,2,0:0:0:0:
320,336,20970,1,0,0:0:0:0:
424,312,21255,2,0,L|504:200,1,130,2|0,0:0|0:0,0:0:0:0:
432,128,21827,1,2,0:0:0:0:
432,128,21970,1,0,0:0:0:0:
432,128,22113,6,0,P|384:72|320:48,1,130,4|2,0:0|0:0,0:0:0:0:
232,72,22684,2,0,P|200:120|120:144,1,130,0|2,0:0|0:0,0:0:0:0:
48,208,23255,2,0,P|16:264|48:328,1,130,0|2,0:0|0:0,0:0:0:0:
128,368,23827,1,0,0:0:0:0:
204,296,24113,6,0,P|268:280|316:232,2,130,2|0|2,0:0|1:0|0:0,0:0:0:0:
168,200,24970,1,0,0:0:0:0:
128,104,25255,2,0,P|64:120|16:168,2,130,2|0|2,0:0|1:0|0:0,0:0:0:0:
168,200,26113,1,0,0:0:0:0:
224,104,26398,5,2,0:0:0:0:
272,200,26684,2,0,L|272:336,1,130,0|8,0:0|0:0,0:0:0:0:
324,332,27113,2,0,P|388:316|428:268,1,130,2|8,0:0|0:0,0:0:0:0:
456,224,27542,1,0,0:0:0:0:
484,180,27685,2,0,P|428:140|408:72,1,130,2|0,0:0|0:0,0:0:0:0:
372,44,28113,1,8,0:0:0:0:
280,92,28398,5,0,0:0:0:0:
248,92,28541,1,0,2:0:0:0:
216,92,28684,1,0,1:0:0:0:
128,40,28970,6,0,P|32:120|56:240,1,260
136,304,29827,1,8,0:0:0:0:
232,352,30113,2,0,P|296:376|360:344,1,130,0|8,0:0|0:0,0:0:0:0:
428,284,30684,2,0,L|428:212,1,65
428,168,30970,1,0,0:0:0:0:
352,96,31255,5,0,0:0:0:0:
280,176,31541,2,0,L|144:176,1,130,8|0,0:0|0:0,0:0:0:0:
208,264,32113,2,0,L|72:264,1,130,8|0,0:0|0:0,0:0:0:0:
32,168,32684,1,8,0:0:0:0:
84,80,32970,2,0,L|28:32,2,65,0|0|2,0:0|0:0|0:0,0:0:0:0:
152,160,33541,6,0,L|288:160,1,130,0|2,0:0|0:0,0:0:0:0:
336,160,33970,2,0,B|392:160|424:184|448:240,1,130,8|0,0:0|0:0,0:0:0:0:
440,272,34398,2,0,B|423:311|391:335|335:335,1,130,2|0,0:0|0:0,0:0:0:0:
192,336,34970,1,8,0:0:0:0:
128,224,35255,1,0,0:0:0:0:
260,224,35541,1,8,0:0:0:0:
192,336,35827,6,2,P|60:336|4:224,1,260
48,136,36684,1,8,0:0:0:0:
88,104,36827,2,2,P|176:72|272:104,1,195,0|2,0:0|0:0,0:0:0:0:
360,152,37541,1,0,0:0:0:0:
384,176,37684,1,0,0:0:0:0:
392,208,37827,1,8,0:0:0:0:
384,240,37970,1,0,0:0:0:0:
360,264,38113,1,0,0:0:0:0:
272,312,38398,5,8,0:0:0:0:
232,280,38541,2,0,L|128:184,1,130,2|0,0:0|0:0,0:0:0:0:
96,160,38970,1,8,0:0:0:0:
88,112,39113,2,0,P|144:48|264:24,1,195,2|2,0:0|0:0,0:0:0:0:
344,64,39827,6,0,L|416:64,2,65,0|0|2,0:0|0:0|0:0,0:0:0:0:
248,112,40398,2,0,P|268:176|332:216,1,130,0|2,0:0|0:0,0:0:0:0:
368,200,40827,2,0,P|264:240|204:316,1,195,0|2,0:0|0:0,0:0:0:0:
108,312,41541,2,0,L|44:192,1,130,0|8,0:0|0:0,0:0:0:0:
136,144,42113,5,0,0:0:0:0:
168,144,42255,1,8,0:0:0:0:
200,144,42398,1,8,0:0:0:0:
288,88,42684,6,0,P|320:152|392:176,1,130,0|2,0:0|0:0,0:0:0:0:
424,176,43113,2,0,P|336:192|280:280,1,195,0|2,0:0|0:0,0:0:0:0:
168,368,43827,1,0,0:0:0:0:
64,272,44113,1,2,0:0:0:0:
168,176,44398,1,0,0:0:0:0:
280,272,44684,1,2,0:0:0:0:
256,192,44970,12,0,46113,2:0:0:0:
264,48,47255,5,4,0:0:0:0:
168,104,47541,2,0,L|192:176,1,65,0|2,0:0|0:0,0:0:0:0:
280,240,48113,2,0,L|256:168,1,65,0|0,0:0|0:0,0:0:0:0:
288,64,48684,2,0,L|312:136,1,65,0|2,0:0|0:0,0:0:0:0:
400,200,49255,2,0,L|376:128,2,65,0|2|0,0:0|0:0|0:0,0:0:0:0:
424,276,50113,2,0,L|448:340,1,65,0|0,0:0|0:0,0:0:0:0:
368,336,50684,6,0,L|312:376,1,65,8|0,0:0|0:0,0:0:0:0:
244,340,51255,1,2,0:0:0:0:
168,352,51541,2,0,P|136:360|96:352,1,65,0|0,0:0|0:0,0:0:0:0:
132,284,52113,1,0,0:0:0:0:
196,240,52398,1,2,0:0:0:0:
124,204,52684,6,0,L|92:132,1,65,0|0,0:0|0:0,0:0:0:0:
36,100,53255,2,0,P|60:76|100:68,1,65,0|2,0:0|0:0,0:0:0:0:
168,68,53827,1,0,0:0:0:0:
200,68,53970,1,0,0:0:0:0:
232,68,54113,1,0,0:0:0:0:
292,116,54398,6,0,L|364:116,1,65,0|2,0:0|0:0,0:0:0:0:
408,56,54970,2,0,P|436:112|408:176,1,130,0|0,0:0|0:0,0:0:0:0:
472,256,55827,6,0,P|408:328|240:344,1,260,4|0,0:0|0:0,0:0:0:0:
152,320,56684,1,0,0:0:0:0:
104,296,56827,2,0,P|40:256|24:144,1,195
72,56,57541,2,0,P|144:80|176:144,1,130
252,56,58113,2,0,P|285:96|357:120,1,130,0|0,0:0|0:0,0:0:0:0:
488,216,58684,6,0,B|464:264|432:272|400:264|384:240|376:216|352:216|352:216|328:216|320:240|296:264|272:264|272:264|248:264|232:240|224:216|200:216|200:216|176:216|168:240|152:264|120:272|88:264|56:208,1,520,4|4,0:0|0:0,0:0:0:0:
144,40,60398,6,0,L|296:40,1,130
376,40,60970,2,0,P|400:104|376:168,1,130,4|0,0:0|0:0,0:0:0:0:
340,192,61398,2,0,P|276:200|204:192,1,130,4|0,0:0|0:0,0:0:0:0:
164,168,61827,2,0,P|172:244|148:312,1,130,4|0,0:0|0:0,0:0:0:0:
200,328,62255,2,0,P|268:340|344:332,1,130,4|0,0:0|0:0,0:0:0:0:
376,316,62684,1,4,0:0:0:0:
424,240,62970,6,0,P|440:176|416:112,1,130,4|0,0:0|0:0,0:0:0:0:
384,80,63398,2,0,L|240:80,1,130,4|0,0:0|0:0,0:0:0:0:
216,120,63827,2,0,P|192:184|216:248,1,130,4|0,0:0|0:0,0:0:0:0:
256,272,64255,2,0,L|400:272,1,130,4|0,0:0|0:0,0:0:0:0:
440,272,64684,1,0,0:0:0:0:
480,72,64970,2,0,L|480:112,7,32.5
480,48,65541,6,0,L|344:48,1,130,4|8,0:0|0:0,0:0:0:0:
280,128,66113,2,0,L|432:128,1,130,2|8,0:0|0:0,0:0:0:0:
352,216,66684,2,0,L|216:216,1,130,2|8,0:0|0:0,0:0:0:0:
180,244,67113,1,0,0:0:0:0:
144,280,67255,2,0,P|96:240|80:176,1,130,2|8,0:0|0:0,0:0:0:0:
120,80,67827,6,0,P|184:56|240:80,2,130,2|8|2,0:0|0:0|0:0,0:0:0:0:
180,164,68684,2,0,L|180:300,1,130,8|2,0:0|0:0,0:0:0:0:
272,344,69255,2,8,L|272:208,1,130,8|2,0:0|0:0,0:0:0:0:
376,216,69827,6,0,P|352:160|296:120,1,130,8|2,0:0|0:0,0:0:0:0:
192,120,70398,2,0,P|136:160|120:216,1,130,8|2,0:0|0:0,0:0:0:0:
192,288,70970,2,0,L|152:352,2,65,8|0|2,0:0|0:0|0:0,0:0:0:0:
296,288,71541,2,0,L|336:352,2,65,8|0|2,0:0|0:0|0:0,0:0:0:0:
312,184,72113,6,0,L|176:184,1,130,8|2,0:0|0:0,0:0:0:0:
120,104,72684,1,8,0:0:0:0:
240,32,72970,1,2,0:0:0:0:
360,104,73255,2,0,P|432:200|368:312,1,260,8|8,0:0|0:0,0:0:0:0:
288,368,74113,5,0,0:0:0:0:
216,296,74398,1,8,0:0:0:0:
136,368,74684,2,0,P|72:336|64:264,1,130,6|8,0:0|0:0,0:0:0:0:
80,232,75113,1,0,0:0:0:0:
104,184,75255,2,0,L|240:184,1,130,2|8,0:0|0:0,0:0:0:0:
288,272,75827,6,0,P|352:240|376:168,1,130,2|8,0:0|0:0,0:0:0:0:
472,152,76398,2,0,P|432:96|368:64,1,130,2|8,0:0|0:0,0:0:0:0:
328,64,76827,1,0,0:0:0:0:
280,64,76970,2,0,L|144:64,1,130,2|8,0:0|0:0,0:0:0:0:
88,152,77541,1,2,0:0:0:0:
144,240,77827,6,0,L|280:240,1,130,8|2,0:0|0:0,0:0:0:0:
376,240,78398,1,8,0:0:0:0:
432,152,78684,1,2,0:0:0:0:
304,80,78970,2,0,B|276:140|276:140|208:172,1,130,8|2,0:0|0:0,0:0:0:0:
120,192,79541,2,0,B|65:224|65:224|40:288,1,130,8|2,0:0|0:0,0:0:0:0:
132,328,80113,1,8,0:0:0:0:
192,244,80398,5,0,0:0:0:0:
224,244,80541,1,0,0:0:0:0:
256,244,80684,1,8,0:0:0:0:
288,244,80827,1,0,0:0:0:0:
320,244,80970,1,2,0:0:0:0:
256,136,81255,1,2,0:0:0:0:
256,192,81541,12,4,83827,0:0:0:0:
256,112,87827,6,0,L|256:48,2,65
152,136,88398,2,0,B|152:240|152:240|64:240|32:336,1,260,4|0,0:0|0:0,0:0:0:0:
136,344,89255,2,0,P|200:360|272:344,1,130,8|0,0:0|0:0,0:0:0:0:
356,308,89827,1,8,0:0:0:0:
444,256,90113,2,0,L|468:192,1,65
488,148,90398,1,8,0:0:0:0:
440,56,90684,6,0,B|352:56|352:56|288:88|288:88|168:88,1,260,4|0,0:0|0:0,0:0:0:0:
112,160,91541,2,0,P|176:184|224:240,1,130,8|0,0:0|0:0,0:0:0:0:
272,312,92113,1,8,0:0:0:0:
328,224,92398,2,2,L|384:176,2,65
224,320,92970,5,0,0:0:0:0:
120,224,93255,1,2,0:0:0:0:
224,128,93541,1,0,0:0:0:0:
328,224,93827,1,2,0:0:0:0:
256,336,94113,5,0,0:0:0:0:
120,288,94398,1,2,0:0:0:0:
120,144,94684,1,0,0:0:0:0:
272,144,94970,1,2,0:0:0:0:
272,296,95255,2,2,B|200:312|160:344|160:344|64:344|24:304,1,260,0|0,0:0|0:0,0:0:0:0:
40,200,96113,1,2,0:0:0:0:
88,176,96255,2,2,B|136:128|192:136|192:136|256:72,1,195
352,72,96970,5,0,0:0:0:0:
384,88,97113,1,0,0:0:0:0:
408,104,97255,1,8,0:0:0:0:
424,136,97398,1,0,0:0:0:0:
432,168,97541,1,0,0:0:0:0:
440,272,97827,5,8,0:0:0:0:
408,312,97970,2,2,B|336:312|336:312|280:344,1,130,2|0,0:0|0:0,0:0:0:0:
232,344,98398,1,8,0:0:0:0:
176,344,98541,2,2,B|112:344|64:336|16:256,1,195,2|10,0:0|0:0,0:0:0:0:
24,152,99255,5,0,0:0:0:0:
56,152,99398,1,0,0:0:0:0:
88,152,99541,1,8,0:0:0:0:
160,76,99827,2,0,P|200:128|264:132,1,130,0|8,0:0|0:0,0:0:0:0:
308,112,100255,2,0,P|408:104|472:176,1,195,0|8,0:0|0:0,0:0:0:0:
400,264,100970,1,0,0:0:0:0:
344,352,101255,6,0,L|208:352,1,130,8|0,0:0|0:0,0:0:0:0:
184,352,101684,1,0,0:0:0:0:
152,352,101827,1,8,0:0:0:0:
120,352,101970,1,0,0:0:0:0:
88,352,102113,2,2,P|32:304|24:240,1,130
24,200,102541,2,2,L|232:200,1,195
296,80,103255,5,0,0:0:0:0:
296,80,103541,1,8,0:0:0:0:
400,176,103827,1,0,0:0:0:0:
400,176,104113,1,8,0:0:0:0:
296,272,104398,1,0,0:0:0:0:
256,192,104684,12,0,105541,0:0:0:0:
256,120,106684,5,4,0:0:0:0:
312,160,106970,2,0,L|368:200,2,65,0|2|0,0:0|0:0|0:0,0:0:0:0:
256,120,107827,1,0,0:0:0:0:
200,160,108113,2,0,L|144:208,2,65,0|2|0,0:0|0:0|0:0,0:0:0:0:
256,120,108970,1,2,0:0:0:0:
320,96,109255,5,0,0:0:0:0:
392,104,109541,1,0,0:0:0:0:
440,152,109827,1,0,0:0:0:0:
464,216,110113,2,0,P|480:256|472:288,1,65,8|0,0:0|0:0,0:0:0:0:
408,256,110684,2,0,P|384:288|352:304,1,65,2|0,0:0|0:0,0:0:0:0:
336,232,111255,6,0,L|272:184,1,65,0|0,0:0|0:0,0:0:0:0:
224,152,111827,1,2,0:0:0:0:
152,168,112113,1,0,0:0:0:0:
120,232,112398,1,0,0:0:0:0:
48,248,112684,1,0,0:0:0:0:
24,320,112970,6,0,P|56:320|96:304,1,65,2|0,0:0|0:0,0:0:0:0:
120,328,113398,1,0,0:0:0:0:
152,320,113541,1,0,0:0:0:0:
216,280,113827,1,0,0:0:0:0:
280,320,114113,1,2,0:0:0:0:
332,260,114398,2,0,P|368:252|392:228,1,65,0|8,0:0|0:0,0:0:0:0:
360,80,115255,6,0,P|240:32|104:48,1,260,4|0,0:0|0:0,0:0:0:0:
160,136,116113,1,0,0:0:0:0:
184,152,116255,1,0,0:0:0:0:
208,168,116398,2,0,L|320:240,1,130
368,144,116970,2,0,L|248:72,1,130
152,64,117541,5,0,0:0:0:0:
56,104,117827,1,0,0:0:0:0:
104,240,118113,2,0,P|232:256|336:344,1,260,4|0,0:0|0:0,0:0:0:0:
416,280,118970,2,0,B|456:248|456:248|456:208|456:208|480:176,1,130
392,128,119541,5,0,0:0:0:0:
304,176,119827,1,0,0:0:0:0:
216,128,120113,1,0,0:0:0:0:
120,176,120398,6,0,L|24:264,2,130,4|0|4,0:0|0:0|0:0,0:0:0:0:
184,256,121255,2,0,B|256:256|256:256|304:288,2,130,4|0|4,0:0|0:0|0:0,0:0:0:0:
120,176,122113,1,4,0:0:0:0:
120,176,122398,6,0,L|256:176,1,130,4|0,0:0|0:0,0:0:0:0:
304,176,122827,1,0,0:0:0:0:
360,176,122970,1,0,0:0:0:0:
272,64,123255,1,0,0:0:0:0:
224,72,123398,1,4,0:0:0:0:
176,64,123541,1,0,0:0:0:0:
128,72,123684,1,4,0:0:0:0:
56,152,123970,2,0,L|56:216,1,65,0|4,0:0|0:0,0:0:0:0:
184,280,124398,6,0,L|216:280,7,32.5
256,280,124970,2,0,L|368:192,1,130,4|8,0:0|0:0,0:0:0:0:
288,128,125541,2,0,L|192:40,1,130,2|8,0:0|0:0,0:0:0:0:
120,112,126113,1,2,0:0:0:0:
152,208,126398,5,8,0:0:0:0:
240,256,126684,1,2,0:0:0:0:
344,264,126970,2,0,L|352:336,2,65,8|0|2,0:0|0:0|0:0,0:0:0:0:
448,240,127541,2,0,P|400:176|344:160,1,130,8|2,0:0|0:0,0:0:0:0:
408,72,128113,2,0,P|336:56|280:88,1,130,8|2,0:0|0:0,0:0:0:0:
192,48,128684,5,8,0:0:0:0:
124,128,128970,1,2,0:0:0:0:
172,220,129255,1,8,0:0:0:0:
276,200,129541,1,2,0:0:0:0:
288,96,129827,1,8,0:0:0:0:
392,128,130113,6,0,P|456:160|488:232,1,130,2|8,0:0|0:0,0:0:0:0:
400,272,130684,1,2,0:0:0:0:
368,272,130827,1,0,0:0:0:0:
336,272,130970,1,8,0:0:0:0:
304,272,131113,1,0,0:0:0:0:
272,272,131255,1,2,0:0:0:0:
168,272,131541,6,0,L|24:272,2,130,8|2|8,0:0|0:0|0:0,0:0:0:0:
224,184,132398,1,2,0:0:0:0:
224,184,132684,2,0,B|336:184|336:184|376:112|464:120,1,260,8|8,0:0|0:0,0:0:0:0:
440,232,133541,1,2,0:0:0:0:
464,336,133827,6,0,L|328:336,1,130,8|2,0:0|0:0,0:0:0:0:
256,272,134398,2,0,L|144:176,1,130,8|2,0:0|0:0,0:0:0:0:
64,232,134970,2,0,L|176:328,2,130,8|2|8,0:0|0:0|0:0,0:0:0:0:
24,136,135827,1,2,0:0:0:0:
80,48,136113,5,8,0:0:0:0:
184,56,136398,2,2,B|256:88|320:72|320:72|320:136|392:184,2,260
112,128,137827,2,0,B|128:176|80:200|80:264,1,130,8|0,0:0|0:0,0:0:0:0:
152,328,138398,1,8,0:0:0:0:
240,272,138684,6,2,B|272:268|272:268|312:264|368:308|424:248|464:244|464:244|496:240,1,260
408,176,139541,1,8,0:0:0:0:
320,120,139827,2,0,L|256:80,1,65
256,136,140113,2,0,L|192:184,1,65,8|0,0:0|0:0,0:0:0:0:
184,128,140398,1,0,0:0:0:0:
256,248,140684,1,8,0:0:0:0:
256,192,140970,12,4,143255,0:0:0:0:
452,236,143541,6,0,P|388:220|332:176,1,130,0|8,0:0|0:0,0:0:0:0:
256,120,144113,1,0,0:0:0:0:
240,104,144255,2,0,L|208:44,2,65,2|8|2,0:0|0:0|0:0,0:0:0:0:
168,180,144827,2,0,P|104:168|32:184,1,130,2|2,0:0|0:0,0:0:0:0:
20,336,145541,5,8,0:0:0:0:
124,324,145827,2,0,P|188:308|244:264,1,130,0|8,0:0|0:0,0:0:0:0:
304,188,146399,1,0,0:0:0:0:
316,172,146541,2,0,L|348:112,2,65,2|10|2,0:0|0:0|0:0,0:0:0:0:
364,268,147113,2,0,P|432:284|500:272,1,130,2|2,0:0|0:0,0:0:0:0:
252,108,147827,6,0,B|196:116|156:84|108:84,1,130,8|0,0:0|0:0,0:0:0:0:
52,160,148398,1,8,0:0:0:0:
44,176,148541,2,0,L|8:240,2,65,0|2|0,0:0|0:0|0:0,0:0:0:0:
132,232,149113,1,0,0:0:0:0:
172,264,149255,2,8,B|212:264|212:264|252:288|252:288|308:288|308:288,1,130,2|8,0:0|0:0,0:0:0:0:
324,272,149684,2,0,B|348:296|348:296|384:296,1,65
472,248,150113,6,0,L|452:184,1,65,8|0,0:0|0:0,0:0:0:0:
428,140,150398,1,2,0:0:0:0:
336,92,150684,2,0,P|296:84|256:84,1,65,8|0,0:0|0:0,0:0:0:0:
220,84,150970,2,0,P|180:92|140:92,1,65,2|0,0:0|0:0,0:0:0:0:
92,172,151398,1,0,0:0:0:0:
60,212,151541,1,2,0:0:0:0:
132,288,151827,2,0,L|200:296,2,65,8|0|2,0:0|0:0|0:0,0:0:0:0:
60,212,152398,6,0,P|136:196|176:148,1,130,8|2,0:0|0:0,0:0:0:0:
200,116,152827,1,0,0:0:0:0:
236,76,152970,2,0,L|312:76,1,65,8|0,0:0|0:0,0:0:0:0:
396,116,153398,2,0,P|444:176|460:236,1,130
412,248,153827,2,0,P|368:256|336:252,1,65,2|0,0:0|0:0,0:0:0:0:
324,300,154113,2,0,P|276:312|244:312,1,65,8|0,0:0|0:0,0:0:0:0:
208,312,154398,1,2,0:0:0:0:
120,256,154684,6,0,L|32:256,2,65,8|0|2,0:0|0:0|0:0,0:0:0:0:
104,152,155255,1,8,0:0:0:0:
104,152,155398,1,0,0:0:0:0:
188,92,155684,2,0,P|212:164|256:212,1,130
284,240,156113,2,0,P|312:260|348:272,1,65,2|0,0:0|0:0,0:0:0:0:
384,296,156398,2,0,P|416:320|460:328,2,65,8|0|2,0:0|0:0|0:0,0:0:0:0:
288,332,156970,6,0,P|224:344|148:324,2,130,8|2|8,0:0|0:0|0:0,0:0:0:0:
336,312,157684,1,0,0:0:0:0:
396,228,157970,2,0,P|380:160|396:100,1,130
296,64,158541,2,0,P|260:120|192:156,1,130
160,172,158970,1,2,0:0:0:0:
68,220,159255,6,0,P|96:284|140:324,1,130,8|2,0:0|0:0,0:0:0:0:
244,340,159827,1,8,0:0:0:0:
276,332,159970,1,0,0:0:0:0:
308,336,160113,1,2,0:0:0:0:
340,332,160255,1,0,0:0:0:0:
428,276,160541,2,0,L|428:204,1,65,0|2,0:0|0:0,0:0:0:0:
392,112,160970,2,0,L|312:100,1,65,8|0,0:0|0:0,0:0:0:0:
276,104,161255,2,0,L|224:160,1,65
260,196,161541,5,4,0:0:0:0:
124,72,170113,5,4,0:0:0:0:
384,160,170684,6,0,L|304:272,1,130,4|0,0:0|0:0,0:0:0:0:
208,264,171255,2,0,L|288:152,1,130
336,72,171827,1,4,0:0:0:0:
232,96,172113,5,0,0:0:0:0:
184,112,172255,1,0,0:0:0:0:
144,144,172398,1,0,0:0:0:0:
120,192,172541,1,0,0:0:0:0:
104,240,172684,1,0,0:0:0:0:
224,320,172970,6,0,B|328:320|328:320|376:352|376:352|480:352,1,260,4|0,0:0|0:0,0:0:0:0:
424,264,173827,1,0,0:0:0:0:
368,176,174113,1,4,0:0:0:0:
432,48,174398,5,0,0:0:0:0:
392,48,174541,1,0,0:0:0:0:
352,48,174684,1,0,0:0:0:0:
312,48,174827,1,0,0:0:0:0:
272,48,174970,1,0,0:0:0:0:
192,104,175255,6,2,L|48:104,1,130,6|2,0:0|0:0,0:0:0:0:
320,160,175827,2,2,L|456:160,1,130,6|2,0:0|0:0,0:0:0:0:
192,216,176398,2,2,L|56:216,1,130,6|2,0:0|0:0,0:0:0:0:
320,264,176970,2,0,L|368:264,7,32.5
380,264,177541,6,2,P|436:232|480:168,1,130,6|8,0:0|0:0,0:0:0:0:
428,88,178113,2,0,B|372:84|348:124|284:124,1,130,2|8,0:0|0:0,0:0:0:0:
200,128,178684,2,0,B|155:129|131:89|75:93,1,130,2|8,0:0|0:0,0:0:0:0:
28,184,179255,1,2,0:0:0:0:
96,264,179541,6,0,L|24:320,2,65,8|0|2,0:0|0:0|0:0,0:0:0:0:
192,304,180113,1,8,0:0:0:0:
296,304,180398,2,0,P|368:296|416:248,1,130,2|8,0:0|0:0,0:0:0:0:
328,200,180970,2,0,L|192:200,1,130,2|8,0:0|0:0,0:0:0:0:
264,120,181541,2,0,L|400:120,1,130,2|8,0:0|0:0,0:0:0:0:
376,224,182113,6,2,P|384:288|336:344,1,130,2|2,0:0|0:0,0:0:0:0:
184,256,182684,2,2,P|176:192|216:128,1,130
352,200,183255,6,2,P|360:264|312:320,1,130
152,240,183827,2,2,P|144:176|184:112,1,130
320,176,184398,6,2,P|328:240|280:296,1,130
160,352,184970,1,2,0:0:0:0:
40,280,185255,2,2,P|40:136|136:96,1,260
208,168,186113,2,0,P|280:168|328:136,1,130,0|2,0:0|0:0,0:0:0:0:
408,72,186684,5,4,0:0:0:0:
320,24,186970,1,0,0:0:0:0:
232,76,187255,1,4,0:0:0:0:
136,32,187541,1,0,0:0:0:0:
60,104,187827,1,4,0:0:0:0:
116,192,188113,5,0,0:0:0:0:
220,176,188398,1,4,0:0:0:0:
304,240,188684,2,0,P|368:264|416:312,1,130,0|4,0:0|0:0,0:0:0:0:
324,364,189255,1,0,0:0:0:0:
228,320,189541,2,0,B|180:320|180:320|148:304|148:304|100:304,2,130,0|0|4,0:0|0:0|0:0,0:0:0:0:
304,256,190398,6,0,P|296:200|224:168,1,130,0|8,0:0|0:0,0:0:0:0:
288,80,190970,2,0,L|152:40,1,130,0|4,0:0|0:0,0:0:0:0:
104,128,191541,2,0,L|240:168,1,130,0|8,0:0|0:0,0:0:0:0:
176,256,192113,1,0,0:0:0:0:
256,320,192398,1,4,0:0:0:0:
336,256,192684,1,0,0:0:0:0:
344,152,192970,5,2,0:0:0:0:
304,120,193113,1,0,0:0:0:0:
256,112,193256,1,2,0:0:0:0:
208,120,193399,1,0,0:0:0:0:
168,152,193542,1,6,0:0:0:0:
256,192,193827,12,4,195827,0:0:0:0:
