osu file format v12

[General]
AudioFilename: nano.RIPE - Omokage Warp.mp3
AudioLeadIn: 0
PreviewTime: 65533
Countdown: 0
SampleSet: Normal
StackLeniency: 0.7
Mode: 0
LetterboxInBreaks: 1

[Editor]
Bookmarks: 54113
DistanceSpacing: 0.7
BeatDivisor: 2
GridSize: 4

[Metadata]
Title:Omokage Warp
TitleUnicode:面影ワープ
Artist:nano.RIPE
ArtistUnicode:nano.RIPE
Creator:raheta_adi
Version:Easy
Source:Hanasaku Iroha
Tags:opening ohana DakeDekaane hanairo
BeatmapID:173089
BeatmapSetID:57426

[Difficulty]
HPDrainRate:2
CircleSize:3
OverallDifficulty:2
ApproachRate:3
SliderMultiplier:0.7
SliderTickRate:1

[Events]
//Background and Video events
0,0,"hanasaku_iroha.jpg",0,0
//Break Periods
2,84027,86958
2,161741,168673
//Storyboard Layer 0 (Background)
//Storyboard Layer 1 (Fail)
//Storyboard Layer 2 (Pass)
//Storyboard Layer 3 (Foreground)
//Storyboard Sound Samples
//Background Colour Transformations
3,100,255,255,255

[TimingPoints]
6113,285.714285714286,4,1,1,70,1,0
47113,-100,4,2,1,70,0,0
56398,-100,4,1,1,70,0,0
65541,-100,4,1,1,70,0,1
83827,-100,4,1,1,70,0,0
106684,-100,4,2,1,70,0,0
115755,-100,4,1,1,70,0,0
124970,-100,4,1,1,70,0,1
143255,-100,4,1,1,70,0,0
161541,-100,4,2,1,50,0,0
170184,-100,4,1,1,70,0,0
177541,-100,4,1,1,70,0,1
186113,-100,4,1,1,70,0,0
194398,-100,4,1,1,60,0,0
194684,-100,4,1,1,50,0,0
194970,-100,4,1,1,40,0,0
195255,-100,4,1,1,30,0,0
195541,-100,4,1,1,20,0,0

[Colours]
Combo1 : 253,91,224
Combo2 : 123,252,120
Combo3 : 96,253,253
Combo4 : 252,112,112

[HitObjects]
72,296,6112,2,0,L|172:192,1,140
240,128,7255,1,0,0:0:0:0:
312,196,7827,2,0,P|336:264|392:312,1,140
464,256,8970,2,0,P|400:220|392:144,1,140
324,84,10113,1,0,0:0:0:0:
236,40,10684,6,0,P|110:90|122:226,1,280,4|8,0:0|0:0,0:0:0:0:
184,288,12398,1,0,0:0:0:0:
268,340,12970,2,0,B|296:284|296:284|436:328|464:192,1,280,0|8,0:0|0:0,0:0:0:0:
364,196,14684,1,0,0:0:0:0:
296,128,15255,5,0,0:0:0:0:
472,40,16398,1,8,0:0:0:0:
280,40,17541,5,0,0:0:0:0:
208,104,18112,1,0,0:0:0:0:
160,184,18684,2,0,B|25:132,2,140,8|0|4,0:0|0:0|0:0,0:0:0:0:
320,296,20970,1,8,0:0:0:0:
168,168,22113,5,0,0:0:0:0:
72,164,22684,1,0,0:0:0:0:
44,256,23255,1,8,0:0:0:0:
128,308,23827,1,0,0:0:0:0:
208,252,24398,6,0,P|344:272|464:196,1,280,0|8,0:0|0:0,0:0:0:0:
476,104,26113,1,0,0:0:0:0:
388,144,26684,2,0,P|332:180|256:172,1,140
172,132,27827,2,0,B|100:132,2,70,8|0|0,0:0|0:0|0:0,0:0:0:0:
272,136,28970,5,4,0:0:0:0:
440,236,30113,1,8,0:0:0:0:
396,148,30684,1,0,0:0:0:0:
344,64,31255,1,0,0:0:0:0:
144,64,32398,6,0,B|88:120|96:192,1,140,8|0,0:0|0:0,0:0:0:0:
192,168,33541,2,0,B|192:248|144:296,1,140,0|0,0:0|0:0,0:0:0:0:
224,352,34684,2,0,B|304:296|400:336|400:336|496:288,2,280,8|0|8,0:0|0:0|0:0,0:0:0:0:
140,300,37541,5,0,0:0:0:0:
56,248,38113,1,0,0:0:0:0:
152,80,39255,1,8,0:0:0:0:
240,120,39827,1,0,0:0:0:0:
328,72,40398,2,0,B|396:44|479:77,2,140,0|0|8,0:0|0:0|0:0,0:0:0:0:
152,160,42684,5,0,0:0:0:0:
56,184,43255,1,0,0:0:0:0:
60,284,43827,1,8,0:0:0:0:
152,252,44398,1,0,0:0:0:0:
256,192,44970,12,0,46113,2:0:0:0:
336,192,47255,6,0,B|403:173|476:192,2,140,4|0|8,0:0|0:0|0:0,0:0:0:0:
272,120,48970,1,0,0:0:0:0:
208,48,49541,2,0,B|136:24|64:48,2,140,0|0|8,0:0|0:0|0:0,0:0:0:0:
140,120,51255,1,0,0:0:0:0:
48,160,51827,6,0,B|52:224|136:232|136:232|64:296|104:384,1,280,2|8,0:0|0:0,0:0:0:0:
208,328,53541,1,0,0:0:0:0:
312,372,54113,2,0,B|346:297|274:233|274:233|358:225|362:161,1,280,2|8,0:0|0:0,0:0:0:0:
356,64,55827,1,4,0:0:0:0:
256,64,56398,5,4,0:0:0:0:
96,176,57541,1,4,0:0:0:0:
176,344,58684,1,4,0:0:0:0:
368,344,59827,1,4,0:0:0:0:
448,168,60970,1,4,0:0:0:0:
360,120,61541,5,0,0:0:0:0:
272,72,62113,2,0,B|198:45|120:79,2,140,0|0|4,0:0|0:0|0:0,0:0:0:0:
312,160,63827,1,4,0:0:0:0:
256,240,64398,1,4,0:0:0:0:
200,160,64970,1,0,0:0:0:0:
136,232,65541,5,4,0:0:0:0:
72,160,66113,2,0,P|96:96|168:72,1,140,0|8,0:0|0:0,0:0:0:0:
208,152,67255,2,0,B|240:224,2,70,0|0|8,0:0|0:0|0:0,0:0:0:0:
264,72,68398,2,0,B|344:56|403:119,1,140,0|8,0:0|0:0,0:0:0:0:
480,152,69541,6,0,P|472:224|432:288,2,140,0|8|0,0:0|0:0|0:0,0:0:0:0:
416,80,71255,1,8,0:0:0:0:
328,104,71827,1,0,0:0:0:0:
240,64,72398,2,0,P|172:52|104:72,1,140,8|0,0:0|0:0,0:0:0:0:
176,140,73541,2,0,P|184:204|232:260,1,140,8|0,0:0|0:0,0:0:0:0:
312,204,74684,6,0,B|376:184|454:209,2,140,12|0|8,0:0|0:0|0:0,0:0:0:0:
348,296,76398,2,0,B|288:336|204:332,1,140,0|8,0:0|0:0,0:0:0:0:
128,288,77541,2,0,B|64:248|60:171,1,140,0|8,0:0|0:0,0:0:0:0:
112,88,78684,5,0,0:0:0:0:
200,136,79255,1,8,0:0:0:0:
288,88,79827,1,0,0:0:0:0:
372,136,80398,2,0,L|432:180,1,70,8|0,0:0|0:0,0:0:0:0:
412,224,80970,2,0,L|480:272,1,70
256,192,81541,12,4,83827,0:0:0:0:
480,276,88398,6,0,P|364:344|248:276,1,280,0|8,0:0|0:0,0:0:0:0:
160,328,90112,1,0,0:0:0:0:
88,256,90684,2,0,B|32:168|32:168|72:88|176:64,1,280,0|8,0:0|0:0,0:0:0:0:
200,160,92398,1,0,0:0:0:0:
248,248,92970,6,0,B|400:248,2,140,0|0|8,0:0|0:0|0:0,0:0:0:0:
280,152,94684,1,0,0:0:0:0:
232,64,95255,2,0,P|100:72|112:196,1,280,0|8,0:0|0:0,0:0:0:0:
24,248,96970,1,0,0:0:0:0:
56,336,97541,5,0,0:0:0:0:
192,200,98684,1,8,0:0:0:0:
264,272,99255,1,0,0:0:0:0:
328,200,99827,1,0,0:0:0:0:
392,272,100398,1,0,0:0:0:0:
456,200,100970,1,8,0:0:0:0:
264,192,102112,5,0,0:0:0:0:
288,96,102684,1,0,0:0:0:0:
200,56,103255,2,0,B|136:96|136:96|144:176|60:184|60:184|4:248,2,280,8|0|8,0:0|0:0|0:0,0:0:0:0:
264,240,106684,5,4,0:0:0:0:
360,208,107255,1,0,0:0:0:0:
448,240,107827,2,8,B|448:96,2,140,8|0|0,0:0|0:0|0:0,0:0:0:0:
448,336,109541,1,0,0:0:0:0:
348,332,110113,2,0,P|304:280|224:252,1,140,8|0,0:0|0:0,0:0:0:0:
176,328,111255,6,0,P|110:301|66:249,2,140,2|0|8,0:0|0:0|0:0,0:0:0:0:
264,288,112970,1,0,0:0:0:0:
340,228,113541,1,2,0:0:0:0:
264,168,114112,1,0,0:0:0:0:
176,120,114684,2,0,B|32:120,2,140,8|4|4,0:0|0:0|0:0,0:0:0:0:
344,24,116970,5,8,0:0:0:0:
448,184,118112,1,4,0:0:0:0:
352,352,119255,1,8,0:0:0:0:
256,328,119827,1,0,0:0:0:0:
200,248,120398,6,0,B|152:144|24:144,2,210,4|0|4,0:0|0:0|0:0,0:0:0:0:
248,328,122684,2,8,B|328:328|328:328|376:272,2,140,4|0|4,0:0|0:0|0:0,0:0:0:0:
280,236,124398,1,4,0:0:0:0:
312,144,124970,6,0,B|224:116|208:64|208:64|148:88|60:32,1,280,4|8,0:0|0:0,0:0:0:0:
40,132,126684,2,8,B|40:212,2,70,0|0|8,0:0|0:0|0:0,0:0:0:0:
136,120,127827,2,0,B|160:200|136:272,1,140,0|8,0:0|0:0,0:0:0:0:
240,256,128970,6,0,B|384:256,2,140,0|8|0,0:0|0:0|0:0,0:0:0:0:
168,320,130684,2,0,B|80:320|56:232,2,140,8|0|8,0:0|0:0|0:0,0:0:0:0:
264,352,132398,1,0,0:0:0:0:
264,256,132970,1,8,0:0:0:0:
168,224,133541,1,0,0:0:0:0:
80,192,134112,5,4,0:0:0:0:
80,96,134684,2,0,B|224:96,1,140,0|8,0:0|0:0,0:0:0:0:
312,120,135827,2,0,B|384:152,2,70,0|0|8,0:0|0:0|0:0,0:0:0:0:
288,216,136970,2,0,B|288:296|368:328,1,140,0|8,0:0|0:0,0:0:0:0:
424,248,138112,5,0,0:0:0:0:
376,160,138684,2,0,B|248:88|96:160,1,280,4|8,0:0|0:0,0:0:0:0:
64,240,140398,1,0,0:0:0:0:
256,192,140970,12,4,143255,0:0:0:0:
92,148,143827,6,0,P|164:140|212:84,1,140,0|8,0:0|0:0,0:0:0:0:
308,92,144970,2,0,P|352:139|424:147,1,140
400,244,146113,2,0,L|260:244,1,140,0|8,0:0|0:0,0:0:0:0:
228,336,147255,2,0,L|72:336,1,140
44,248,148398,5,0,0:0:0:0:
120,188,148970,1,8,0:0:0:0:
196,128,149541,1,0,0:0:0:0:
116,72,150113,2,0,P|48:96|8:156,1,140
44,240,151255,6,0,P|112:260|188:256,1,140,8|0,0:0|0:0,0:0:0:0:
256,196,152398,1,4,0:0:0:0:
188,124,152970,2,0,B|236:68|236:68|304:48,1,140,0|8,0:0|0:0,0:0:0:0:
388,88,154113,2,0,B|408:156|408:156|472:188,1,140
424,272,155255,5,0,0:0:0:0:
344,328,155827,1,8,0:0:0:0:
264,268,156398,2,0,P|240:200|256:132,2,140
204,344,158113,2,0,P|152:304|80:304,1,140,8|0,0:0|0:0,0:0:0:0:
116,212,159255,5,0,0:0:0:0:
180,140,159827,2,0,L|336:140,1,140,0|8,0:0|0:0,0:0:0:0:
388,212,160970,1,0,0:0:0:0:
456,140,161541,1,4,0:0:0:0:
160,328,170113,5,4,0:0:0:0:
88,264,170684,22,0,B|32:200|96:128,1,140,4|0,0:0|0:0,0:0:0:0:
168,88,171827,2,0,B|312:88,1,140,4|0,0:0|0:0,0:0:0:0:
400,128,172970,2,4,B|448:200|400:264,2,140,4|0|4,0:0|0:0|0:0,0:0:0:0:
312,160,174684,1,0,0:0:0:0:
220,192,175255,2,8,B|220:48,2,140,12|0|12,0:0|0:0|0:0,0:0:0:0:
208,288,176970,1,4,0:0:0:0:
296,240,177541,6,0,B|360:272|360:272|440:272,2,140,12|0|8,0:0|0:0|0:0,0:0:0:0:
208,288,179255,1,0,0:0:0:0:
136,216,179827,1,8,0:0:0:0:
192,136,180398,1,0,0:0:0:0:
288,152,180970,1,8,0:0:0:0:
304,248,181541,1,0,0:0:0:0:
400,264,182113,6,0,B|368:344|280:336,1,140,12|0,0:0|0:0,0:0:0:0:
208,280,183255,2,0,B|97:187,1,140,8|0,0:0|0:0,0:0:0:0:
176,128,184398,2,0,B|260:194|260:194|344:127,2,210,8|2|4,0:0|0:0|0:0,0:0:0:0:
88,176,186684,6,0,B|168:208|160:280|160:280|248:272|288:336,1,280,4|8,0:0|0:0,0:0:0:0:
376,360,188398,1,0,0:0:0:0:
448,304,188970,2,0,B|424:224|478:181|478:181|424:120|440:40,1,280,4|12,0:0|0:0,0:0:0:0:
352,96,190684,1,0,0:0:0:0:
280,160,191255,6,12,B|224:285|104:151|40:285,2,280,4|4|4,0:0|0:0|0:0,0:0:0:0:
256,192,193827,12,0,195827,0:0:0:0:
