osu file format v14

[General]
AudioFilename: nano. RIPE - Omokage Warp.mp3
AudioLeadIn: 0
PreviewTime: 55480
Countdown: 0
SampleSet: Soft
StackLeniency: 0.7
Mode: 3
LetterboxInBreaks: 0
SpecialStyle: 0
WidescreenStoryboard: 1

[Editor]
Bookmarks: 5167,9738,18880,28021,37163,46304,55446,64587,73729,80585,89727
DistanceSpacing: 1.7
BeatDivisor: 4
GridSize: 4
TimelineZoom: 1.8

[Metadata]
Title:Omokage Warp (TV Size)
TitleUnicode:Omokage Warp (TV Size)
Artist:nano.RIPE
ArtistUnicode:nano.RIPE
Creator:- R e b a -
Version:Another
Source:Hanasaku Iroha
Tags:
BeatmapID:842546
BeatmapSetID:385793

[Difficulty]
HPDrainRate:7
CircleSize:7
OverallDifficulty:7
ApproachRate:5
SliderMultiplier:1.4
SliderTickRate:1

[Events]
//Background and Video events
0,0,"Hanasaku Iroha.jpg",0,0
//Break Periods
//Storyboard Layer 0 (Background)
//Storyboard Layer 1 (Fail)
//Storyboard Layer 2 (Pass)
//Storyboard Layer 3 (Foreground)
//Storyboard Sound Samples

[TimingPoints]
623,285.714285714286,4,2,1,10,1,0

[HitObjects]
329,192,623,5,0,0:0:0:0:
182,192,765,1,0,0:0:0:0:
36,192,908,1,0,0:0:0:0:
475,192,1051,1,0,0:0:0:0:
256,192,1337,1,0,0:0:0:0:
329,192,1480,1,0,0:0:0:0:
402,192,1623,1,0,0:0:0:0:
109,192,1765,1,0,0:0:0:0:
475,192,1908,1,0,0:0:0:0:
329,192,2194,1,0,0:0:0:0:
182,192,2337,1,0,0:0:0:0:
36,192,2480,1,0,0:0:0:0:
256,192,2623,1,0,0:0:0:0:
329,192,2908,1,0,0:0:0:0:
256,192,3051,1,0,0:0:0:0:
182,192,3194,1,0,0:0:0:0:
402,192,3337,1,0,0:0:0:0:
256,192,3623,1,0,0:0:0:0:
182,192,3765,1,0,0:0:0:0:
109,192,3908,1,0,0:0:0:0:
329,192,4051,1,0,0:0:0:0:
475,192,4194,1,0,0:0:0:0:
256,192,4480,1,0,0:0:0:0:
182,192,4623,1,0,0:0:0:0:
256,192,4765,1,0,0:0:0:0:
329,192,4837,1,0,0:0:0:0:
402,192,4908,1,0,0:0:0:0:
475,192,4908,1,0,0:0:0:0:
36,192,4908,1,0,0:0:0:0:
475,192,5194,1,0,0:0:0:0:
109,192,5194,1,0,0:0:0:0:
36,192,5194,1,0,0:0:0:0:
329,192,5194,1,0,0:0:0:0:
109,192,5337,1,0,0:0:0:0:
256,192,5337,1,0,0:0:0:0:
182,192,5480,1,0,0:0:0:0:
36,192,5480,1,0,0:0:0:0:
402,192,5480,1,0,0:0:0:0:
182,192,5623,1,0,0:0:0:0:
329,192,5623,1,0,0:0:0:0:
256,192,5765,1,0,0:0:0:0:
109,192,5765,1,0,0:0:0:0:
475,192,5765,1,0,0:0:0:0:
256,192,5908,1,0,0:0:0:0:
402,192,5908,1,0,0:0:0:0:
329,192,6051,1,0,0:0:0:0:
109,192,6051,1,0,0:0:0:0:
36,192,6051,1,0,0:0:0:0:
182,192,6194,1,0,0:0:0:0:
329,192,6194,1,0,0:0:0:0:
256,192,6337,1,0,0:0:0:0:
402,192,6337,1,0,0:0:0:0:
36,192,6337,1,0,0:0:0:0:
402,192,6480,1,0,0:0:0:0:
182,192,6480,1,0,0:0:0:0:
109,192,6623,1,0,0:0:0:0:
329,192,6623,1,0,0:0:0:0:
475,192,6623,1,0,0:0:0:0:
475,192,6765,1,0,0:0:0:0:
256,192,6765,1,0,0:0:0:0:
402,192,6908,1,0,0:0:0:0:
182,192,6908,1,0,0:0:0:0:
36,192,6908,1,0,0:0:0:0:
36,192,7051,1,0,0:0:0:0:
329,192,7051,1,0,0:0:0:0:
256,192,7194,1,0,0:0:0:0:
109,192,7194,1,0,0:0:0:0:
475,192,7194,1,0,0:0:0:0:
182,192,7480,1,0,0:0:0:0:
36,192,7480,1,0,0:0:0:0:
402,192,7480,128,0,7623:0:0:0:0:
329,192,7623,128,0,7765:0:0:0:0:
109,192,7623,1,0,0:0:0:0:
256,192,7765,128,0,7908:0:0:0:0:
36,192,7765,1,0,0:0:0:0:
402,192,7908,128,0,8051:0:0:0:0:
182,192,7908,1,0,0:0:0:0:
36,192,7908,1,0,0:0:0:0:
329,192,8051,1,0,0:0:0:0:
256,192,8194,128,0,8337:0:0:0:0:
475,192,8194,1,0,0:0:0:0:
182,192,8337,128,0,8480:0:0:0:0:
402,192,8337,1,0,0:0:0:0:
36,192,8337,1,0,0:0:0:0:
109,192,8480,128,0,8623:0:0:0:0:
329,192,8480,1,0,0:0:0:0:
256,192,8623,1,0,0:0:0:0:
36,192,8765,128,0,8908:0:0:0:0:
475,192,8765,1,0,0:0:0:0:
182,192,8765,1,0,0:0:0:0:
329,192,8908,1,0,0:0:0:0:
182,192,9051,128,0,9194:0:0:0:0:
475,192,9194,1,0,0:0:0:0:
329,192,9194,1,0,0:0:0:0:
36,192,9194,1,0,0:0:0:0:
402,192,9337,1,0,0:0:0:0:
329,192,9337,1,0,0:0:0:0:
182,192,9408,1,0,0:0:0:0:
109,192,9408,1,0,0:0:0:0:
475,192,9480,1,0,0:0:0:0:
329,192,9480,1,0,0:0:0:0:
182,192,9551,1,0,0:0:0:0:
36,192,9551,1,0,0:0:0:0:
402,192,9623,1,0,0:0:0:0:
329,192,9623,1,0,0:0:0:0:
109,192,9694,1,0,0:0:0:0:
182,192,9694,1,0,0:0:0:0:
475,192,9765,1,0,0:0:0:0:
36,192,9765,128,0,10194:0:0:0:0:
256,192,9765,1,0,0:0:0:0:
329,192,9908,1,0,0:0:0:0:
475,192,10051,1,0,0:0:0:0:
109,192,10051,1,0,0:0:0:0:
182,192,10194,128,0,10623:0:0:0:0:
329,192,10194,1,0,0:0:0:0:
475,192,10337,1,0,0:0:0:0:
256,192,10480,1,0,0:0:0:0:
329,192,10623,128,0,11051:0:0:0:0:
36,192,10623,1,0,0:0:0:0:
475,192,10623,1,0,0:0:0:0:
182,192,10765,1,0,0:0:0:0:
109,192,10908,1,0,0:0:0:0:
475,192,11051,128,0,11480:0:0:0:0:
36,192,11051,1,0,0:0:0:0:
182,192,11194,1,0,0:0:0:0:
402,192,11194,1,0,0:0:0:0:
329,192,11337,1,0,0:0:0:0:
256,192,11480,128,0,11765:0:0:0:0:
36,192,11480,1,0,0:0:0:0:
109,192,11623,1,0,0:0:0:0:
182,192,11765,128,0,12051:0:0:0:0:
475,192,11765,1,0,0:0:0:0:
36,192,11765,1,0,0:0:0:0:
109,192,12051,128,0,12480:0:0:0:0:
329,192,12051,1,0,0:0:0:0:
256,192,12194,1,0,0:0:0:0:
475,192,12337,1,0,0:0:0:0:
329,192,12337,1,0,0:0:0:0:
256,192,12480,128,0,12908:0:0:0:0:
36,192,12480,1,0,0:0:0:0:
402,192,12623,1,0,0:0:0:0:
109,192,12765,1,0,0:0:0:0:
402,192,12908,128,0,13337:0:0:0:0:
36,192,12908,1,0,0:0:0:0:
475,192,12908,1,0,0:0:0:0:
182,192,13051,1,0,0:0:0:0:
329,192,13194,1,0,0:0:0:0:
475,192,13337,128,0,13765:0:0:0:0:
182,192,13337,1,0,0:0:0:0:
36,192,13480,1,0,0:0:0:0:
329,192,13480,1,0,0:0:0:0:
256,192,13623,1,0,0:0:0:0:
182,192,13765,128,0,14051:0:0:0:0:
36,192,13765,1,0,0:0:0:0:
256,192,13908,1,0,0:0:0:0:
329,192,14051,128,0,14337:0:0:0:0:
475,192,14051,1,0,0:0:0:0:
109,192,14051,1,0,0:0:0:0:
36,192,14337,128,0,14623:0:0:0:0:
256,192,14337,1,0,0:0:0:0:
182,192,14480,1,0,0:0:0:0:
256,192,14623,128,0,15194:0:0:0:0:
475,192,14623,1,0,0:0:0:0:
109,192,14623,1,0,0:0:0:0:
402,192,14765,1,0,0:0:0:0:
329,192,14908,1,0,0:0:0:0:
109,192,15051,1,0,0:0:0:0:
182,192,15194,1,0,0:0:0:0:
36,192,15194,1,0,0:0:0:0:
109,192,15337,128,0,15623:0:0:0:0:
329,192,15337,1,0,0:0:0:0:
182,192,15623,128,0,15765:0:0:0:0:
402,192,15623,1,0,0:0:0:0:
256,192,15765,128,0,15908:0:0:0:0:
475,192,15765,1,0,0:0:0:0:
36,192,15765,1,0,0:0:0:0:
329,192,15908,128,0,16051:0:0:0:0:
109,192,15908,1,0,0:0:0:0:
256,192,16051,128,0,16194:0:0:0:0:
475,192,16051,1,0,0:0:0:0:
182,192,16194,128,0,16337:0:0:0:0:
402,192,16194,1,0,0:0:0:0:
109,192,16337,128,0,16623:0:0:0:0:
329,192,16337,1,0,0:0:0:0:
475,192,16337,1,0,0:0:0:0:
256,192,16623,1,0,0:0:0:0:
475,192,16623,1,0,0:0:0:0:
36,192,16623,128,0,17623:0:0:0:0:
329,192,16765,1,0,0:0:0:0:
402,192,16908,1,0,0:0:0:0:
182,192,16908,1,0,0:0:0:0:
256,192,17051,1,0,0:0:0:0:
329,192,17194,1,0,0:0:0:0:
256,192,17337,1,0,0:0:0:0:
182,192,17480,1,0,0:0:0:0:
402,192,17480,1,0,0:0:0:0:
329,192,17623,1,0,0:0:0:0:
256,192,17765,1,0,0:0:0:0:
329,192,17908,1,0,0:0:0:0:
475,192,18051,1,0,0:0:0:0:
402,192,18051,1,0,0:0:0:0:
182,192,18051,1,0,0:0:0:0:
36,192,18194,1,0,0:0:0:0:
256,192,18194,1,0,0:0:0:0:
109,192,18194,1,0,0:0:0:0:
475,192,18337,1,0,0:0:0:0:
402,192,18337,1,0,0:0:0:0:
329,192,18337,1,0,0:0:0:0:
182,192,18480,1,0,0:0:0:0:
109,192,18480,1,0,0:0:0:0:
36,192,18480,1,0,0:0:0:0:
475,192,18623,1,0,0:0:0:0:
402,192,18623,1,0,0:0:0:0:
256,192,18623,1,0,0:0:0:0:
329,192,18765,1,0,0:0:0:0:
182,192,18765,1,0,0:0:0:0:
36,192,18765,1,0,0:0:0:0:
256,192,18908,1,0,0:0:0:0:
109,192,18908,1,0,0:0:0:0:
475,192,18908,128,0,21194:0:0:0:0:
402,192,18908,1,0,0:0:0:0:
402,192,19194,1,0,0:0:0:0:
329,192,19194,1,0,0:0:0:0:
182,192,19194,1,0,0:0:0:0:
256,192,19480,1,0,0:0:0:0:
109,192,19480,1,0,0:0:0:0:
182,192,19623,1,0,0:0:0:0:
36,192,19623,1,0,0:0:0:0:
402,192,19765,1,0,0:0:0:0:
329,192,19765,1,0,0:0:0:0:
256,192,19765,1,0,0:0:0:0:
182,192,19908,1,0,0:0:0:0:
36,192,19908,1,0,0:0:0:0:
36,192,20194,1,0,0:0:0:0:
182,192,20194,1,0,0:0:0:0:
402,192,20337,1,0,0:0:0:0:
109,192,20337,1,0,0:0:0:0:
256,192,20337,1,0,0:0:0:0:
36,192,20623,1,0,0:0:0:0:
182,192,20623,1,0,0:0:0:0:
182,192,20765,1,0,0:0:0:0:
36,192,20765,1,0,0:0:0:0:
402,192,20908,1,0,0:0:0:0:
329,192,20908,1,0,0:0:0:0:
109,192,20908,1,0,0:0:0:0:
36,192,21194,128,0,23480:0:0:0:0:
256,192,21194,1,0,0:0:0:0:
109,192,21194,1,0,0:0:0:0:
475,192,21480,1,0,0:0:0:0:
329,192,21480,1,0,0:0:0:0:
402,192,21480,1,0,0:0:0:0:
402,192,21765,1,0,0:0:0:0:
256,192,21765,1,0,0:0:0:0:
329,192,21908,1,0,0:0:0:0:
182,192,21908,1,0,0:0:0:0:
256,192,22051,1,0,0:0:0:0:
109,192,22051,1,0,0:0:0:0:
475,192,22051,1,0,0:0:0:0:
402,192,22194,1,0,0:0:0:0:
329,192,22194,1,0,0:0:0:0:
109,192,22480,1,0,0:0:0:0:
256,192,22480,1,0,0:0:0:0:
475,192,22623,1,0,0:0:0:0:
182,192,22623,1,0,0:0:0:0:
402,192,22623,1,0,0:0:0:0:
329,192,22908,1,0,0:0:0:0:
182,192,22908,1,0,0:0:0:0:
182,192,23051,1,0,0:0:0:0:
329,192,23051,1,0,0:0:0:0:
475,192,23194,1,0,0:0:0:0:
402,192,23194,1,0,0:0:0:0:
256,192,23194,1,0,0:0:0:0:
109,192,23480,128,0,25765:0:0:0:0:
329,192,23480,1,0,0:0:0:0:
182,192,23480,1,0,0:0:0:0:
475,192,23765,1,0,0:0:0:0:
402,192,23765,1,0,0:0:0:0:
256,192,23765,1,0,0:0:0:0:
182,192,24051,1,0,0:0:0:0:
329,192,24051,1,0,0:0:0:0:
256,192,24194,1,0,0:0:0:0:
402,192,24194,1,0,0:0:0:0:
475,192,24337,1,0,0:0:0:0:
329,192,24337,1,0,0:0:0:0:
36,192,24337,1,0,0:0:0:0:
182,192,24480,1,0,0:0:0:0:
256,192,24480,1,0,0:0:0:0:
256,192,24765,1,0,0:0:0:0:
182,192,24765,1,0,0:0:0:0:
475,192,24908,1,0,0:0:0:0:
329,192,24908,1,0,0:0:0:0:
36,192,24908,1,0,0:0:0:0:
256,192,25194,1,0,0:0:0:0:
402,192,25194,1,0,0:0:0:0:
256,192,25337,1,0,0:0:0:0:
402,192,25337,1,0,0:0:0:0:
329,192,25480,1,0,0:0:0:0:
182,192,25480,1,0,0:0:0:0:
36,192,25480,1,0,0:0:0:0:
475,192,25765,128,0,28051:0:0:0:0:
256,192,25765,1,0,0:0:0:0:
36,192,25765,1,0,0:0:0:0:
36,192,26051,1,0,0:0:0:0:
109,192,26051,1,0,0:0:0:0:
329,192,26051,1,0,0:0:0:0:
402,192,26337,1,0,0:0:0:0:
256,192,26337,1,0,0:0:0:0:
256,192,26480,1,0,0:0:0:0:
402,192,26480,1,0,0:0:0:0:
329,192,26623,1,0,0:0:0:0:
109,192,26623,1,0,0:0:0:0:
36,192,26623,1,0,0:0:0:0:
182,192,26765,1,0,0:0:0:0:
256,192,26765,1,0,0:0:0:0:
36,192,27051,1,0,0:0:0:0:
109,192,27051,1,0,0:0:0:0:
402,192,27194,1,0,0:0:0:0:
329,192,27194,1,0,0:0:0:0:
182,192,27194,1,0,0:0:0:0:
329,192,27480,1,0,0:0:0:0:
182,192,27480,1,0,0:0:0:0:
256,192,27623,1,0,0:0:0:0:
109,192,27623,1,0,0:0:0:0:
36,192,27765,1,0,0:0:0:0:
182,192,27765,1,0,0:0:0:0:
402,192,27765,1,0,0:0:0:0:
329,192,27908,1,0,0:0:0:0:
109,192,27908,1,0,0:0:0:0:
402,192,28051,128,0,30337:0:0:0:0:
256,192,28051,1,0,0:0:0:0:
36,192,28051,1,0,0:0:0:0:
182,192,28337,1,0,0:0:0:0:
36,192,28337,1,0,0:0:0:0:
475,192,28337,1,0,0:0:0:0:
256,192,28623,1,0,0:0:0:0:
109,192,28623,1,0,0:0:0:0:
256,192,28765,1,0,0:0:0:0:
109,192,28765,1,0,0:0:0:0:
182,192,28908,1,0,0:0:0:0:
36,192,28908,1,0,0:0:0:0:
475,192,28908,1,0,0:0:0:0:
256,192,29051,1,0,0:0:0:0:
109,192,29051,1,0,0:0:0:0:
182,192,29337,1,0,0:0:0:0:
36,192,29337,1,0,0:0:0:0:
475,192,29480,1,0,0:0:0:0:
329,192,29480,1,0,0:0:0:0:
256,192,29480,1,0,0:0:0:0:
182,192,29765,1,0,0:0:0:0:
36,192,29765,1,0,0:0:0:0:
36,192,29908,1,0,0:0:0:0:
182,192,29908,1,0,0:0:0:0:
256,192,30051,1,0,0:0:0:0:
329,192,30051,1,0,0:0:0:0:
475,192,30051,1,0,0:0:0:0:
329,192,30337,128,0,31480:0:0:0:0:
36,192,30337,1,0,0:0:0:0:
182,192,30337,1,0,0:0:0:0:
475,192,30623,1,0,0:0:0:0:
109,192,30623,1,0,0:0:0:0:
256,192,30623,1,0,0:0:0:0:
182,192,30765,1,0,0:0:0:0:
36,192,30765,1,0,0:0:0:0:
182,192,31051,1,0,0:0:0:0:
36,192,31051,1,0,0:0:0:0:
109,192,31194,1,0,0:0:0:0:
475,192,31194,1,0,0:0:0:0:
402,192,31194,1,0,0:0:0:0:
36,192,31480,1,0,0:0:0:0:
475,192,31480,1,0,0:0:0:0:
256,192,31480,128,0,32623:0:0:0:0:
402,192,31765,1,0,0:0:0:0:
182,192,31765,1,0,0:0:0:0:
36,192,31765,1,0,0:0:0:0:
109,192,31908,1,0,0:0:0:0:
329,192,31908,1,0,0:0:0:0:
109,192,32194,1,0,0:0:0:0:
329,192,32194,1,0,0:0:0:0:
475,192,32337,1,0,0:0:0:0:
182,192,32337,1,0,0:0:0:0:
402,192,32337,1,0,0:0:0:0:
329,192,32623,1,0,0:0:0:0:
475,192,32623,1,0,0:0:0:0:
36,192,32623,128,0,33765:0:0:0:0:
402,192,32908,1,0,0:0:0:0:
256,192,32908,1,0,0:0:0:0:
475,192,32908,1,0,0:0:0:0:
182,192,33051,1,0,0:0:0:0:
329,192,33051,1,0,0:0:0:0:
109,192,33337,1,0,0:0:0:0:
256,192,33337,1,0,0:0:0:0:
182,192,33480,1,0,0:0:0:0:
475,192,33480,1,0,0:0:0:0:
402,192,33480,1,0,0:0:0:0:
109,192,33765,128,0,34908:0:0:0:0:
256,192,33765,1,0,0:0:0:0:
475,192,33765,1,0,0:0:0:0:
329,192,34051,1,0,0:0:0:0:
36,192,34051,1,0,0:0:0:0:
475,192,34051,1,0,0:0:0:0:
256,192,34194,1,0,0:0:0:0:
402,192,34194,1,0,0:0:0:0:
182,192,34480,1,0,0:0:0:0:
329,192,34480,1,0,0:0:0:0:
475,192,34623,1,0,0:0:0:0:
256,192,34623,1,0,0:0:0:0:
402,192,34623,1,0,0:0:0:0:
182,192,34908,128,0,36051:0:0:0:0:
36,192,34908,1,0,0:0:0:0:
329,192,34908,1,0,0:0:0:0:
36,192,35194,1,0,0:0:0:0:
475,192,35194,1,0,0:0:0:0:
329,192,35194,1,0,0:0:0:0:
256,192,35337,1,0,0:0:0:0:
402,192,35337,1,0,0:0:0:0:
329,192,35480,1,0,0:0:0:0:
36,192,35480,1,0,0:0:0:0:
329,192,35623,1,0,0:0:0:0:
36,192,35623,1,0,0:0:0:0:
475,192,35765,1,0,0:0:0:0:
256,192,35765,1,0,0:0:0:0:
402,192,35765,1,0,0:0:0:0:
329,192,35908,1,0,0:0:0:0:
36,192,35908,1,0,0:0:0:0:
475,192,36051,1,0,0:0:0:0:
109,192,36051,1,0,0:0:0:0:
256,192,36194,1,0,0:0:0:0:
402,192,36194,1,0,0:0:0:0:
329,192,36337,1,0,0:0:0:0:
36,192,36337,1,0,0:0:0:0:
109,192,36337,1,0,0:0:0:0:
329,192,36480,1,0,0:0:0:0:
109,192,36480,1,0,0:0:0:0:
36,192,36480,1,0,0:0:0:0:
256,192,36623,1,0,0:0:0:0:
182,192,36765,1,0,0:0:0:0:
402,192,36765,1,0,0:0:0:0:
475,192,36765,1,0,0:0:0:0:
256,192,36908,1,0,0:0:0:0:
109,192,36908,1,0,0:0:0:0:
36,192,36908,1,0,0:0:0:0:
475,192,37051,1,0,0:0:0:0:
402,192,37051,1,0,0:0:0:0:
329,192,37051,1,0,0:0:0:0:
36,192,37194,1,0,0:0:0:0:
182,192,37194,1,0,0:0:0:0:
329,192,37480,1,0,0:0:0:0:
182,192,37765,1,0,0:0:0:0:
36,192,37765,1,0,0:0:0:0:
329,192,38051,1,0,0:0:0:0:
182,192,38337,1,0,0:0:0:0:
475,192,38337,1,0,0:0:0:0:
329,192,38623,1,0,0:0:0:0:
256,192,38765,1,0,0:0:0:0:
182,192,38908,1,0,0:0:0:0:
475,192,38908,1,0,0:0:0:0:
329,192,39194,1,0,0:0:0:0:
109,192,39480,1,0,0:0:0:0:
402,192,39480,1,0,0:0:0:0:
256,192,39765,1,0,0:0:0:0:
475,192,40051,1,0,0:0:0:0:
182,192,40051,1,0,0:0:0:0:
256,192,40337,1,0,0:0:0:0:
36,192,40623,1,0,0:0:0:0:
329,192,40623,1,0,0:0:0:0:
256,192,40908,1,0,0:0:0:0:
182,192,41051,1,0,0:0:0:0:
109,192,41194,1,0,0:0:0:0:
402,192,41194,1,0,0:0:0:0:
256,192,41337,1,0,0:0:0:0:
182,192,41480,1,0,0:0:0:0:
109,192,41623,1,0,0:0:0:0:
36,192,41765,1,0,0:0:0:0:
256,192,41765,1,0,0:0:0:0:
475,192,42051,1,0,0:0:0:0:
256,192,42337,1,0,0:0:0:0:
36,192,42337,1,0,0:0:0:0:
475,192,42623,1,0,0:0:0:0:
256,192,42908,1,0,0:0:0:0:
36,192,42908,1,0,0:0:0:0:
475,192,43194,1,0,0:0:0:0:
36,192,43337,1,0,0:0:0:0:
256,192,43480,1,0,0:0:0:0:
475,192,43480,1,0,0:0:0:0:
36,192,43765,1,0,0:0:0:0:
402,192,44051,1,0,0:0:0:0:
256,192,44051,1,0,0:0:0:0:
109,192,44337,1,0,0:0:0:0:
256,192,44623,1,0,0:0:0:0:
402,192,44623,1,0,0:0:0:0:
109,192,44908,1,0,0:0:0:0:
182,192,45051,1,0,0:0:0:0:
256,192,45194,1,0,0:0:0:0:
402,192,45194,1,0,0:0:0:0:
109,192,45337,1,0,0:0:0:0:
182,192,45480,1,0,0:0:0:0:
256,192,45623,1,0,0:0:0:0:
329,192,45765,1,0,0:0:0:0:
475,192,45765,1,0,0:0:0:0:
36,192,45765,128,0,46337:0:0:0:0:
109,192,45765,1,0,0:0:0:0:
475,192,46337,1,0,0:0:0:0:
329,192,46337,1,0,0:0:0:0:
182,192,46337,1,0,0:0:0:0:
109,192,46337,1,0,0:0:0:0:
256,192,46480,1,0,0:0:0:0:
402,192,46623,1,0,0:0:0:0:
182,192,46623,1,0,0:0:0:0:
329,192,46765,1,0,0:0:0:0:
256,192,46908,1,0,0:0:0:0:
475,192,46908,1,0,0:0:0:0:
329,192,47051,1,0,0:0:0:0:
402,192,47194,1,0,0:0:0:0:
182,192,47194,1,0,0:0:0:0:
256,192,47337,1,0,0:0:0:0:
329,192,47480,1,0,0:0:0:0:
36,192,47480,1,0,0:0:0:0:
475,192,47480,1,0,0:0:0:0:
402,192,47765,1,0,0:0:0:0:
109,192,47765,1,0,0:0:0:0:
256,192,47908,1,0,0:0:0:0:
475,192,47908,1,0,0:0:0:0:
36,192,47908,1,0,0:0:0:0:
182,192,48051,1,0,0:0:0:0:
329,192,48051,1,0,0:0:0:0:
402,192,48194,1,0,0:0:0:0:
109,192,48194,1,0,0:0:0:0:
36,192,48337,1,0,0:0:0:0:
475,192,48337,1,0,0:0:0:0:
402,192,48623,1,0,0:0:0:0:
36,192,48623,1,0,0:0:0:0:
182,192,48623,1,0,0:0:0:0:
475,192,48623,1,0,0:0:0:0:
256,192,48765,1,0,0:0:0:0:
329,192,48908,1,0,0:0:0:0:
109,192,48908,1,0,0:0:0:0:
182,192,49051,1,0,0:0:0:0:
256,192,49194,1,0,0:0:0:0:
36,192,49194,1,0,0:0:0:0:
182,192,49337,1,0,0:0:0:0:
109,192,49480,1,0,0:0:0:0:
329,192,49480,1,0,0:0:0:0:
256,192,49623,1,0,0:0:0:0:
182,192,49765,1,0,0:0:0:0:
402,192,49765,1,0,0:0:0:0:
36,192,49765,1,0,0:0:0:0:
475,192,49908,1,0,0:0:0:0:
329,192,49908,1,0,0:0:0:0:
402,192,49980,1,0,0:0:0:0:
256,192,49980,1,0,0:0:0:0:
329,192,50051,1,0,0:0:0:0:
182,192,50051,1,0,0:0:0:0:
109,192,50194,1,0,0:0:0:0:
36,192,50194,1,0,0:0:0:0:
256,192,50194,1,0,0:0:0:0:
475,192,50337,1,0,0:0:0:0:
402,192,50337,1,0,0:0:0:0:
182,192,50337,1,0,0:0:0:0:
256,192,50480,1,0,0:0:0:0:
36,192,50480,1,0,0:0:0:0:
329,192,50623,1,0,0:0:0:0:
109,192,50623,1,0,0:0:0:0:
475,192,50908,1,0,0:0:0:0:
329,192,50908,1,0,0:0:0:0:
109,192,50908,1,0,0:0:0:0:
36,192,50908,1,0,0:0:0:0:
182,192,51194,1,0,0:0:0:0:
36,192,51194,1,0,0:0:0:0:
256,192,51337,1,0,0:0:0:0:
475,192,51337,1,0,0:0:0:0:
402,192,51337,1,0,0:0:0:0:
182,192,51480,1,0,0:0:0:0:
36,192,51480,1,0,0:0:0:0:
475,192,51765,1,0,0:0:0:0:
329,192,51765,1,0,0:0:0:0:
109,192,51765,1,0,0:0:0:0:
256,192,52051,1,0,0:0:0:0:
109,192,52051,1,0,0:0:0:0:
475,192,52194,1,0,0:0:0:0:
402,192,52194,1,0,0:0:0:0:
329,192,52194,1,0,0:0:0:0:
256,192,52337,1,0,0:0:0:0:
109,192,52337,1,0,0:0:0:0:
475,192,52623,1,0,0:0:0:0:
329,192,52623,1,0,0:0:0:0:
182,192,52623,1,0,0:0:0:0:
109,192,52908,1,0,0:0:0:0:
256,192,52908,1,0,0:0:0:0:
402,192,52908,1,0,0:0:0:0:
36,192,53194,1,0,0:0:0:0:
182,192,53194,1,0,0:0:0:0:
475,192,53337,1,0,0:0:0:0:
329,192,53337,1,0,0:0:0:0:
402,192,53337,1,0,0:0:0:0:
475,192,53480,1,0,0:0:0:0:
402,192,53480,1,0,0:0:0:0:
329,192,53480,1,0,0:0:0:0:
109,192,53623,1,0,0:0:0:0:
182,192,53623,1,0,0:0:0:0:
402,192,53765,1,0,0:0:0:0:
256,192,53765,1,0,0:0:0:0:
475,192,53765,1,0,0:0:0:0:
402,192,53908,1,0,0:0:0:0:
256,192,53908,1,0,0:0:0:0:
475,192,53908,1,0,0:0:0:0:
36,192,54051,1,0,0:0:0:0:
109,192,54051,1,0,0:0:0:0:
182,192,54194,1,0,0:0:0:0:
329,192,54194,1,0,0:0:0:0:
402,192,54194,1,0,0:0:0:0:
256,192,54480,1,0,0:0:0:0:
109,192,54480,1,0,0:0:0:0:
36,192,54623,1,0,0:0:0:0:
475,192,54623,128,0,55194:0:0:0:0:
109,192,54908,1,0,0:0:0:0:
182,192,54908,1,0,0:0:0:0:
329,192,54980,1,0,0:0:0:0:
402,192,54980,1,0,0:0:0:0:
109,192,55051,1,0,0:0:0:0:
182,192,55051,1,0,0:0:0:0:
329,192,55123,1,0,0:0:0:0:
402,192,55123,1,0,0:0:0:0:
182,192,55194,1,0,0:0:0:0:
36,192,55194,1,0,0:0:0:0:
475,192,55265,1,0,0:0:0:0:
329,192,55265,1,0,0:0:0:0:
182,192,55337,1,0,0:0:0:0:
36,192,55337,1,0,0:0:0:0:
475,192,55408,1,0,0:0:0:0:
329,192,55408,1,0,0:0:0:0:
256,192,55480,1,0,0:0:0:0:
109,192,55480,1,0,0:0:0:0:
36,192,55480,128,0,56051:0:0:0:0:
402,192,55480,1,0,0:0:0:0:
329,192,55623,1,0,0:0:0:0:
256,192,55765,1,0,0:0:0:0:
475,192,55765,1,0,0:0:0:0:
109,192,55765,1,0,0:0:0:0:
329,192,55908,1,0,0:0:0:0:
475,192,56051,128,0,56623:0:0:0:0:
402,192,56051,1,0,0:0:0:0:
182,192,56051,1,0,0:0:0:0:
256,192,56194,1,0,0:0:0:0:
36,192,56194,1,0,0:0:0:0:
36,192,56337,1,0,0:0:0:0:
109,192,56337,1,0,0:0:0:0:
329,192,56337,1,0,0:0:0:0:
182,192,56480,1,0,0:0:0:0:
402,192,56623,128,0,57194:0:0:0:0:
256,192,56623,1,0,0:0:0:0:
36,192,56623,1,0,0:0:0:0:
109,192,56765,1,0,0:0:0:0:
182,192,56908,1,0,0:0:0:0:
475,192,56908,1,0,0:0:0:0:
256,192,56908,1,0,0:0:0:0:
109,192,57051,1,0,0:0:0:0:
329,192,57194,128,0,57480:0:0:0:0:
36,192,57194,1,0,0:0:0:0:
475,192,57194,1,0,0:0:0:0:
256,192,57337,1,0,0:0:0:0:
109,192,57337,1,0,0:0:0:0:
182,192,57480,128,0,57765:0:0:0:0:
475,192,57480,1,0,0:0:0:0:
109,192,57480,1,0,0:0:0:0:
402,192,57480,1,0,0:0:0:0:
329,192,57623,1,0,0:0:0:0:
36,192,57765,128,0,58337:0:0:0:0:
256,192,57765,1,0,0:0:0:0:
475,192,57765,1,0,0:0:0:0:
329,192,57908,1,0,0:0:0:0:
402,192,58051,1,0,0:0:0:0:
182,192,58051,1,0,0:0:0:0:
109,192,58051,1,0,0:0:0:0:
256,192,58194,1,0,0:0:0:0:
109,192,58337,128,0,58908:0:0:0:0:
329,192,58337,1,0,0:0:0:0:
475,192,58337,1,0,0:0:0:0:
256,192,58480,1,0,0:0:0:0:
402,192,58480,1,0,0:0:0:0:
182,192,58623,1,0,0:0:0:0:
402,192,58623,1,0,0:0:0:0:
475,192,58623,1,0,0:0:0:0:
329,192,58765,1,0,0:0:0:0:
182,192,58908,128,0,59480:0:0:0:0:
256,192,58908,1,0,0:0:0:0:
475,192,58908,1,0,0:0:0:0:
36,192,59051,1,0,0:0:0:0:
475,192,59194,1,0,0:0:0:0:
256,192,59194,1,0,0:0:0:0:
402,192,59194,1,0,0:0:0:0:
109,192,59337,1,0,0:0:0:0:
36,192,59480,128,0,60051:0:0:0:0:
329,192,59480,1,0,0:0:0:0:
475,192,59480,1,0,0:0:0:0:
182,192,59623,1,0,0:0:0:0:
329,192,59623,1,0,0:0:0:0:
402,192,59765,1,0,0:0:0:0:
256,192,59765,1,0,0:0:0:0:
475,192,59765,1,0,0:0:0:0:
109,192,59908,1,0,0:0:0:0:
475,192,60051,128,0,60623:0:0:0:0:
329,192,60051,1,0,0:0:0:0:
182,192,60051,1,0,0:0:0:0:
402,192,60194,1,0,0:0:0:0:
109,192,60337,1,0,0:0:0:0:
36,192,60337,1,0,0:0:0:0:
256,192,60337,1,0,0:0:0:0:
329,192,60480,1,0,0:0:0:0:
402,192,60623,128,0,61194:0:0:0:0:
182,192,60623,1,0,0:0:0:0:
36,192,60623,1,0,0:0:0:0:
256,192,60765,1,0,0:0:0:0:
109,192,60765,1,0,0:0:0:0:
329,192,60908,1,0,0:0:0:0:
36,192,60908,1,0,0:0:0:0:
109,192,60908,1,0,0:0:0:0:
182,192,61051,1,0,0:0:0:0:
329,192,61194,128,0,61480:0:0:0:0:
475,192,61194,1,0,0:0:0:0:
36,192,61194,1,0,0:0:0:0:
182,192,61337,1,0,0:0:0:0:
256,192,61480,128,0,61765:0:0:0:0:
109,192,61480,1,0,0:0:0:0:
475,192,61480,1,0,0:0:0:0:
402,192,61480,1,0,0:0:0:0:
36,192,61623,1,0,0:0:0:0:
182,192,61765,128,0,62051:0:0:0:0:
475,192,61765,1,0,0:0:0:0:
402,192,61765,1,0,0:0:0:0:
36,192,61908,1,0,0:0:0:0:
329,192,61908,1,0,0:0:0:0:
109,192,62051,128,0,62337:0:0:0:0:
475,192,62051,1,0,0:0:0:0:
402,192,62051,1,0,0:0:0:0:
256,192,62051,1,0,0:0:0:0:
329,192,62194,1,0,0:0:0:0:
36,192,62337,128,0,62623:0:0:0:0:
182,192,62337,1,0,0:0:0:0:
329,192,62480,1,0,0:0:0:0:
475,192,62623,128,0,62908:0:0:0:0:
402,192,62623,1,0,0:0:0:0:
256,192,62765,1,0,0:0:0:0:
36,192,62908,128,0,63194:0:0:0:0:
329,192,62908,1,0,0:0:0:0:
182,192,62908,1,0,0:0:0:0:
109,192,63051,1,0,0:0:0:0:
256,192,63051,1,0,0:0:0:0:
475,192,63194,128,0,63908:0:0:0:0:
402,192,63194,1,0,0:0:0:0:
182,192,63194,1,0,0:0:0:0:
329,192,63194,1,0,0:0:0:0:
256,192,63337,1,0,0:0:0:0:
109,192,63480,1,0,0:0:0:0:
36,192,63480,1,0,0:0:0:0:
182,192,63623,1,0,0:0:0:0:
402,192,63765,1,0,0:0:0:0:
256,192,63765,1,0,0:0:0:0:
36,192,63765,1,0,0:0:0:0:
182,192,63908,1,0,0:0:0:0:
109,192,64051,1,0,0:0:0:0:
329,192,64051,1,0,0:0:0:0:
109,192,64194,1,0,0:0:0:0:
329,192,64194,1,0,0:0:0:0:
475,192,64337,1,0,0:0:0:0:
402,192,64337,1,0,0:0:0:0:
256,192,64337,1,0,0:0:0:0:
182,192,64480,1,0,0:0:0:0:
36,192,64623,128,0,65194:0:0:0:0:
109,192,64623,1,0,0:0:0:0:
329,192,64623,1,0,0:0:0:0:
475,192,64623,1,0,0:0:0:0:
256,192,64765,1,0,0:0:0:0:
402,192,64908,1,0,0:0:0:0:
182,192,64908,1,0,0:0:0:0:
329,192,65051,1,0,0:0:0:0:
475,192,65194,128,0,65765:0:0:0:0:
256,192,65194,1,0,0:0:0:0:
109,192,65194,1,0,0:0:0:0:
109,192,65337,1,0,0:0:0:0:
256,192,65337,1,0,0:0:0:0:
182,192,65480,1,0,0:0:0:0:
329,192,65480,1,0,0:0:0:0:
402,192,65480,1,0,0:0:0:0:
109,192,65623,1,0,0:0:0:0:
402,192,65765,128,0,66337:0:0:0:0:
256,192,65765,1,0,0:0:0:0:
36,192,65765,1,0,0:0:0:0:
182,192,65908,1,0,0:0:0:0:
109,192,66051,1,0,0:0:0:0:
475,192,66051,1,0,0:0:0:0:
329,192,66051,1,0,0:0:0:0:
256,192,66194,1,0,0:0:0:0:
329,192,66337,128,0,66623:0:0:0:0:
182,192,66337,1,0,0:0:0:0:
36,192,66337,1,0,0:0:0:0:
109,192,66480,1,0,0:0:0:0:
36,192,66480,1,0,0:0:0:0:
182,192,66623,128,0,66908:0:0:0:0:
475,192,66623,1,0,0:0:0:0:
36,192,66623,1,0,0:0:0:0:
109,192,66623,1,0,0:0:0:0:
402,192,66765,1,0,0:0:0:0:
36,192,66908,128,0,67480:0:0:0:0:
329,192,66908,1,0,0:0:0:0:
109,192,66908,1,0,0:0:0:0:
402,192,67051,1,0,0:0:0:0:
475,192,67194,1,0,0:0:0:0:
182,192,67194,1,0,0:0:0:0:
256,192,67194,1,0,0:0:0:0:
329,192,67337,1,0,0:0:0:0:
475,192,67480,128,0,68051:0:0:0:0:
402,192,67480,1,0,0:0:0:0:
182,192,67480,1,0,0:0:0:0:
256,192,67623,1,0,0:0:0:0:
329,192,67765,1,0,0:0:0:0:
109,192,67765,1,0,0:0:0:0:
182,192,67908,1,0,0:0:0:0:
402,192,68051,128,0,68623:0:0:0:0:
256,192,68051,1,0,0:0:0:0:
36,192,68051,1,0,0:0:0:0:
182,192,68194,1,0,0:0:0:0:
109,192,68337,1,0,0:0:0:0:
475,192,68337,1,0,0:0:0:0:
329,192,68337,1,0,0:0:0:0:
256,192,68480,1,0,0:0:0:0:
329,192,68623,128,0,69194:0:0:0:0:
182,192,68623,1,0,0:0:0:0:
36,192,68623,1,0,0:0:0:0:
36,192,68765,1,0,0:0:0:0:
182,192,68765,1,0,0:0:0:0:
109,192,68908,1,0,0:0:0:0:
256,192,68908,1,0,0:0:0:0:
475,192,68908,1,0,0:0:0:0:
182,192,69051,1,0,0:0:0:0:
475,192,69194,128,0,69765:0:0:0:0:
256,192,69194,1,0,0:0:0:0:
36,192,69194,1,0,0:0:0:0:
182,192,69337,1,0,0:0:0:0:
109,192,69480,1,0,0:0:0:0:
329,192,69480,1,0,0:0:0:0:
402,192,69480,1,0,0:0:0:0:
256,192,69623,1,0,0:0:0:0:
36,192,69765,128,0,70337:0:0:0:0:
182,192,69765,1,0,0:0:0:0:
329,192,69765,1,0,0:0:0:0:
182,192,69908,1,0,0:0:0:0:
329,192,69908,1,0,0:0:0:0:
475,192,70051,1,0,0:0:0:0:
402,192,70051,1,0,0:0:0:0:
256,192,70051,1,0,0:0:0:0:
182,192,70194,1,0,0:0:0:0:
475,192,70337,128,0,70623:0:0:0:0:
109,192,70337,1,0,0:0:0:0:
329,192,70337,1,0,0:0:0:0:
256,192,70480,1,0,0:0:0:0:
329,192,70623,128,0,70908:0:0:0:0:
182,192,70623,1,0,0:0:0:0:
36,192,70623,1,0,0:0:0:0:
402,192,70623,1,0,0:0:0:0:
109,192,70765,1,0,0:0:0:0:
182,192,70908,128,0,71194:0:0:0:0:
475,192,70908,1,0,0:0:0:0:
402,192,70908,1,0,0:0:0:0:
402,192,71051,1,0,0:0:0:0:
475,192,71051,1,0,0:0:0:0:
36,192,71194,128,0,72908:0:0:0:0:
256,192,71194,1,0,0:0:0:0:
475,192,71194,1,0,0:0:0:0:
402,192,71194,1,0,0:0:0:0:
329,192,71337,1,0,0:0:0:0:
256,192,71480,1,0,0:0:0:0:
109,192,71480,1,0,0:0:0:0:
329,192,71623,1,0,0:0:0:0:
402,192,71765,1,0,0:0:0:0:
182,192,71765,1,0,0:0:0:0:
475,192,71765,1,0,0:0:0:0:
256,192,71908,1,0,0:0:0:0:
329,192,72051,1,0,0:0:0:0:
402,192,72051,1,0,0:0:0:0:
402,192,72194,1,0,0:0:0:0:
329,192,72194,1,0,0:0:0:0:
475,192,72337,1,0,0:0:0:0:
109,192,72337,1,0,0:0:0:0:
256,192,72337,1,0,0:0:0:0:
329,192,72480,1,0,0:0:0:0:
182,192,72480,1,0,0:0:0:0:
475,192,72623,1,0,0:0:0:0:
402,192,72623,1,0,0:0:0:0:
182,192,72765,1,0,0:0:0:0:
109,192,72765,1,0,0:0:0:0:
402,192,72908,1,0,0:0:0:0:
256,192,72908,1,0,0:0:0:0:
475,192,73051,1,0,0:0:0:0:
329,192,73051,1,0,0:0:0:0:
182,192,73123,1,0,0:0:0:0:
36,192,73123,1,0,0:0:0:0:
475,192,73194,1,0,0:0:0:0:
402,192,73194,1,0,0:0:0:0:
256,192,73194,1,0,0:0:0:0:
329,192,73337,1,0,0:0:0:0:
36,192,73337,1,0,0:0:0:0:
182,192,73337,1,0,0:0:0:0:
109,192,73480,1,0,0:0:0:0:
475,192,73480,1,0,0:0:0:0:
256,192,73480,1,0,0:0:0:0:
402,192,73623,1,0,0:0:0:0:
182,192,73623,1,0,0:0:0:0:
329,192,73623,1,0,0:0:0:0:
256,192,73765,1,0,0:0:0:0:
109,192,73765,1,0,0:0:0:0:
36,192,73765,1,0,0:0:0:0:
109,192,74051,1,0,0:0:0:0:
256,192,74051,1,0,0:0:0:0:
475,192,74337,1,0,0:0:0:0:
182,192,74337,1,0,0:0:0:0:
329,192,74337,1,0,0:0:0:0:
36,192,74623,1,0,0:0:0:0:
109,192,74623,1,0,0:0:0:0:
402,192,74908,1,0,0:0:0:0:
256,192,74908,1,0,0:0:0:0:
402,192,75194,1,0,0:0:0:0:
256,192,75194,1,0,0:0:0:0:
329,192,75480,1,0,0:0:0:0:
475,192,75480,1,0,0:0:0:0:
109,192,75480,1,0,0:0:0:0:
182,192,75765,1,0,0:0:0:0:
36,192,75765,1,0,0:0:0:0:
256,192,76051,1,0,0:0:0:0:
402,192,76051,1,0,0:0:0:0:
329,192,76337,1,0,0:0:0:0:
475,192,76337,1,0,0:0:0:0:
402,192,76623,1,0,0:0:0:0:
475,192,76623,1,0,0:0:0:0:
182,192,76623,1,0,0:0:0:0:
329,192,76908,1,0,0:0:0:0:
256,192,76908,1,0,0:0:0:0:
182,192,77194,1,0,0:0:0:0:
109,192,77194,1,0,0:0:0:0:
182,192,77480,1,0,0:0:0:0:
109,192,77480,1,0,0:0:0:0:
475,192,77765,1,0,0:0:0:0:
256,192,77765,1,0,0:0:0:0:
402,192,77765,1,0,0:0:0:0:
329,192,78051,1,0,0:0:0:0:
182,192,78051,1,0,0:0:0:0:
256,192,78337,1,0,0:0:0:0:
109,192,78337,1,0,0:0:0:0:
109,192,78623,1,0,0:0:0:0:
256,192,78623,1,0,0:0:0:0:
475,192,78908,1,0,0:0:0:0:
329,192,78908,1,0,0:0:0:0:
36,192,78908,1,0,0:0:0:0:
402,192,79194,1,0,0:0:0:0:
256,192,79194,1,0,0:0:0:0:
329,192,79480,1,0,0:0:0:0:
182,192,79480,1,0,0:0:0:0:
182,192,79765,1,0,0:0:0:0:
329,192,79765,1,0,0:0:0:0:
475,192,80051,1,0,0:0:0:0:
402,192,80051,1,0,0:0:0:0:
109,192,80123,1,0,0:0:0:0:
36,192,80123,1,0,0:0:0:0:
475,192,80194,1,0,0:0:0:0:
402,192,80194,1,0,0:0:0:0:
36,192,80265,1,0,0:0:0:0:
109,192,80265,1,0,0:0:0:0:
475,192,80337,1,0,0:0:0:0:
329,192,80337,1,0,0:0:0:0:
182,192,80408,1,0,0:0:0:0:
36,192,80408,1,0,0:0:0:0:
329,192,80480,1,0,0:0:0:0:
475,192,80480,1,0,0:0:0:0:
36,192,80551,1,0,0:0:0:0:
182,192,80551,1,0,0:0:0:0:
402,192,80623,1,0,0:0:0:0:
256,192,80623,1,0,0:0:0:0:
475,192,80623,128,0,81051:0:0:0:0:
109,192,80623,1,0,0:0:0:0:
182,192,80765,1,0,0:0:0:0:
329,192,80908,1,0,0:0:0:0:
402,192,80908,1,0,0:0:0:0:
109,192,80908,1,0,0:0:0:0:
36,192,81051,128,0,81480:0:0:0:0:
256,192,81051,1,0,0:0:0:0:
182,192,81194,1,0,0:0:0:0:
402,192,81194,1,0,0:0:0:0:
475,192,81337,1,0,0:0:0:0:
329,192,81337,1,0,0:0:0:0:
109,192,81480,128,0,81908:0:0:0:0:
475,192,81480,1,0,0:0:0:0:
256,192,81480,1,0,0:0:0:0:
402,192,81480,1,0,0:0:0:0:
329,192,81623,1,0,0:0:0:0:
182,192,81623,1,0,0:0:0:0:
402,192,81765,1,0,0:0:0:0:
475,192,81908,128,0,82337:0:0:0:0:
256,192,81908,1,0,0:0:0:0:
36,192,81908,1,0,0:0:0:0:
109,192,82051,1,0,0:0:0:0:
402,192,82051,1,0,0:0:0:0:
182,192,82051,1,0,0:0:0:0:
256,192,82194,1,0,0:0:0:0:
329,192,82337,128,0,82623:0:0:0:0:
36,192,82337,1,0,0:0:0:0:
109,192,82480,1,0,0:0:0:0:
182,192,82623,128,0,82908:0:0:0:0:
475,192,82623,1,0,0:0:0:0:
402,192,82623,1,0,0:0:0:0:
36,192,82623,1,0,0:0:0:0:
329,192,82765,1,0,0:0:0:0:
36,192,82908,128,0,83337:0:0:0:0:
256,192,82908,1,0,0:0:0:0:
475,192,82908,1,0,0:0:0:0:
329,192,83051,1,0,0:0:0:0:
402,192,83194,1,0,0:0:0:0:
182,192,83194,1,0,0:0:0:0:
475,192,83194,1,0,0:0:0:0:
256,192,83337,1,0,0:0:0:0:
109,192,83337,128,0,83765:0:0:0:0:
329,192,83480,1,0,0:0:0:0:
475,192,83480,1,0,0:0:0:0:
475,192,83623,1,0,0:0:0:0:
329,192,83623,1,0,0:0:0:0:
182,192,83765,128,0,84194:0:0:0:0:
402,192,83765,1,0,0:0:0:0:
256,192,83765,1,0,0:0:0:0:
36,192,83765,1,0,0:0:0:0:
329,192,83908,1,0,0:0:0:0:
475,192,83908,1,0,0:0:0:0:
36,192,84051,1,0,0:0:0:0:
475,192,84194,128,0,84623:0:0:0:0:
402,192,84194,1,0,0:0:0:0:
256,192,84194,1,0,0:0:0:0:
329,192,84337,1,0,0:0:0:0:
182,192,84337,1,0,0:0:0:0:
109,192,84337,1,0,0:0:0:0:
256,192,84480,1,0,0:0:0:0:
402,192,84623,128,0,84908:0:0:0:0:
182,192,84623,1,0,0:0:0:0:
36,192,84623,1,0,0:0:0:0:
256,192,84765,1,0,0:0:0:0:
109,192,84765,1,0,0:0:0:0:
329,192,84908,128,0,85194:0:0:0:0:
182,192,84908,1,0,0:0:0:0:
475,192,84908,1,0,0:0:0:0:
36,192,84908,1,0,0:0:0:0:
109,192,85051,1,0,0:0:0:0:
36,192,85194,128,0,85480:0:0:0:0:
182,192,85194,1,0,0:0:0:0:
475,192,85194,1,0,0:0:0:0:
402,192,85337,1,0,0:0:0:0:
256,192,85480,128,0,85765:0:0:0:0:
329,192,85480,1,0,0:0:0:0:
475,192,85480,1,0,0:0:0:0:
109,192,85480,1,0,0:0:0:0:
182,192,85623,1,0,0:0:0:0:
475,192,85765,128,0,85908:0:0:0:0:
109,192,85765,1,0,0:0:0:0:
36,192,85765,1,0,0:0:0:0:
402,192,85908,128,0,86051:0:0:0:0:
36,192,85908,1,0,0:0:0:0:
109,192,85908,1,0,0:0:0:0:
329,192,86051,128,0,86194:0:0:0:0:
36,192,86051,1,0,0:0:0:0:
109,192,86051,1,0,0:0:0:0:
475,192,86051,1,0,0:0:0:0:
256,192,86194,128,0,86480:0:0:0:0:
402,192,86194,1,0,0:0:0:0:
182,192,86194,1,0,0:0:0:0:
109,192,86337,1,0,0:0:0:0:
36,192,86480,128,0,86623:0:0:0:0:
402,192,86480,1,0,0:0:0:0:
329,192,86480,1,0,0:0:0:0:
182,192,86623,128,0,86765:0:0:0:0:
475,192,86623,1,0,0:0:0:0:
256,192,86623,1,0,0:0:0:0:
109,192,86623,1,0,0:0:0:0:
329,192,86765,128,0,87051:0:0:0:0:
402,192,86765,1,0,0:0:0:0:
36,192,86765,1,0,0:0:0:0:
109,192,86908,1,0,0:0:0:0:
182,192,87051,128,0,87194:0:0:0:0:
402,192,87051,1,0,0:0:0:0:
475,192,87051,1,0,0:0:0:0:
36,192,87194,128,0,87337:0:0:0:0:
475,192,87194,1,0,0:0:0:0:
402,192,87194,1,0,0:0:0:0:
256,192,87194,1,0,0:0:0:0:
182,192,87337,1,0,0:0:0:0:
109,192,87480,1,0,0:0:0:0:
475,192,87480,1,0,0:0:0:0:
402,192,87480,1,0,0:0:0:0:
329,192,87480,1,0,0:0:0:0:
256,192,87623,1,0,0:0:0:0:
36,192,87623,1,0,0:0:0:0:
182,192,87765,1,0,0:0:0:0:
109,192,87765,1,0,0:0:0:0:
402,192,87908,1,0,0:0:0:0:
475,192,87908,1,0,0:0:0:0:
256,192,87908,1,0,0:0:0:0:
36,192,87908,1,0,0:0:0:0:
329,192,88051,1,0,0:0:0:0:
182,192,88051,1,0,0:0:0:0:
256,192,88194,1,0,0:0:0:0:
109,192,88194,1,0,0:0:0:0:
36,192,88337,1,0,0:0:0:0:
475,192,88337,1,0,0:0:0:0:
402,192,88337,1,0,0:0:0:0:
182,192,88337,1,0,0:0:0:0:
329,192,88480,1,0,0:0:0:0:
109,192,88480,1,0,0:0:0:0:
256,192,88623,1,0,0:0:0:0:
182,192,88623,1,0,0:0:0:0:
329,192,88765,1,0,0:0:0:0:
402,192,88765,1,0,0:0:0:0:
475,192,88908,1,0,0:0:0:0:
256,192,88908,1,0,0:0:0:0:
182,192,89051,1,0,0:0:0:0:
36,192,89051,1,0,0:0:0:0:
475,192,89194,1,0,0:0:0:0:
402,192,89194,1,0,0:0:0:0:
329,192,89194,1,0,0:0:0:0:
109,192,89194,1,0,0:0:0:0:
36,192,89337,1,0,0:0:0:0:
256,192,89337,1,0,0:0:0:0:
182,192,89337,1,0,0:0:0:0:
402,192,89337,1,0,0:0:0:0:
475,192,89480,1,0,0:0:0:0:
329,192,89480,1,0,0:0:0:0:
109,192,89480,1,0,0:0:0:0:
182,192,89480,1,0,0:0:0:0:
402,192,89623,1,0,0:0:0:0:
256,192,89623,1,0,0:0:0:0:
109,192,89623,1,0,0:0:0:0:
36,192,89623,1,0,0:0:0:0:
