osu file format v12

[General]
AudioFilename: +op-+[TVsize].mp3
AudioLeadIn: 0
PreviewTime: 62686
Countdown: 0
SampleSet: Soft
StackLeniency: 0.7
Mode: 0
LetterboxInBreaks: 0
WidescreenStoryboard: 0

[Editor]
DistanceSpacing: 1
BeatDivisor: 4
GridSize: 4

[Metadata]
Title:Nanairo Biyori (TV Ver.)
TitleUnicode:なないろびより (TV Ver.)
Artist:nano.RIPE
ArtistUnicode:nano.RIPE
Creator:sksmwkd125
Version:Normal
Source:のんのんびより
Tags:なないろびより Non non Biyori gaten
BeatmapID:357237
BeatmapSetID:143650

[Difficulty]
HPDrainRate:3
CircleSize:3
OverallDifficulty:3
ApproachRate:4
SliderMultiplier:1
SliderTickRate:1

[Events]
//Background and Video events
Video,0,"OP.avi"
0,0,"BG.png",0,0
//Break Periods
//Storyboard Layer 0 (Background)
//Storyboard Layer 1 (Fail)
//Storyboard Layer 2 (Pass)
//Storyboard Layer 3 (Foreground)
//Storyboard Sound Samples
//Background Colour Transformations
3,100,163,162,255

[TimingPoints]
5373,447.761194029851,4,2,1,80,1,0
5373,-100,4,2,2,80,0,0
5820,-100,4,2,1,80,0,0
19701,-100,4,2,1,50,0,0
30447,-100,4,2,1,45,0,0
34029,-100,4,2,1,50,0,0
41641,-100,4,2,2,50,0,0
41753,-100,4,2,1,50,0,0
48358,-100,4,2,1,45,0,0
56417,-100,4,2,1,50,0,0
56865,-100,4,2,1,53,0,0
57761,-100,4,2,1,55,0,0
58208,-100,4,2,1,60,0,0
61343,-100,4,2,1,70,0,0
62686,-100,4,2,2,70,0,1
62910,-100,4,2,1,70,0,1
63693,-100,4,2,0,70,0,1
63917,-100,4,2,1,70,0,1
73432,-100,4,2,1,50,0,1
75671,-100,4,2,1,70,0,1
77014,-100,4,2,2,70,0,1
77238,-100,4,2,1,70,0,1
77932,-100,4,2,0,70,0,1
78358,-100,4,2,1,70,0,1
82387,-100,4,2,0,70,0,1
82835,-100,4,2,1,70,0,1
84178,-100,4,2,2,70,0,1
84626,-100,4,2,1,70,0,1
87313,-100,4,2,1,30,0,0
89552,-100,4,2,1,5,0,0

[Colours]
Combo1 : 102,179,255
Combo2 : 175,96,255
Combo3 : 255,128,64
Combo4 : 255,128,128

[HitObjects]
308,52,5372,1,4,0:0:0:0:
396,96,5820,1,8,0:0:0:0:
440,184,6268,2,0,P|440:248|408:272,1,100,0|8,0:0|0:0,0:0:0:0:
340,332,7164,2,0,P|292:332|244:348,1,100,0|8,0:0|0:0,0:0:0:0:
152,312,8059,2,0,P|96:296|72:264,1,100,0|8,0:0|0:0,0:0:0:0:
20,180,8955,5,2,0:0:0:0:
20,80,9402,1,8,0:0:0:0:
108,128,9850,2,0,P|132:88|180:64,1,100,0|8,0:0|0:0,0:0:0:0:
280,64,10746,2,0,P|320:64|376:88,1,100,0|8,0:0|0:0,0:0:0:0:
448,156,11641,2,0,P|472:180|488:260,1,100,0|8,0:0|0:0,0:0:0:0:
436,324,12537,5,2,0:0:0:0:
368,252,12984,1,8,0:0:0:0:
340,348,13432,2,0,P|288:352|236:332,1,100,0|8,0:0|0:0,0:0:0:0:
148,300,14328,2,0,P|104:280|44:284,1,100,0|8,0:0|0:0,0:0:0:0:
8,192,15223,2,0,P|8:148|40:96,1,100,0|8,0:0|0:0,0:0:0:0:
112,172,16119,5,2,0:0:0:0:
140,76,16567,1,8,0:0:0:0:
212,148,17014,2,0,P|264:136|320:156,1,100,0|8,0:0|0:0,0:0:0:0:
260,236,17910,2,0,P|312:248|368:228,1,100,0|8,0:0|0:0,0:0:0:0:
456,244,18805,2,0,P|436:296|400:324,1,100,8|8,0:0|0:0,0:0:0:0:
356,236,19701,6,0,L|252:236,2,100,4|8|0,0:0|0:0|0:0,0:0:0:0:
424,164,21044,1,8,0:0:0:0:
328,140,21492,2,0,P|352:96|404:68,2,100,0|8|0,0:0|0:0|0:0,0:0:0:0:
244,192,22835,1,8,0:0:0:0:
196,104,23283,6,0,L|100:64,1,100,4|8,0:0|0:0,0:0:0:0:
116,164,24178,2,0,L|20:240,1,100,0|8,0:0|0:0,0:0:0:0:
124,276,25074,2,0,L|196:348,1,100,0|8,0:0|0:0,0:0:0:0:
292,324,25970,1,0,0:0:0:0:
368,260,26417,1,8,0:0:0:0:
432,184,26865,6,0,P|432:96|416:88,1,100,4|8,0:0|0:0,0:0:0:0:
348,44,27761,1,0,0:0:0:0:
264,96,28208,1,8,0:0:0:0:
196,168,28656,2,0,P|152:176|112:212,1,100,0|8,0:0|0:0,0:0:0:0:
196,264,29552,1,0,0:0:0:0:
268,332,29999,1,8,0:0:0:0:
368,332,30447,6,0,B|424:240|324:240|384:136,1,200
328,56,31790,1,8,0:0:0:0:
228,36,32238,1,0,0:0:0:0:
136,80,32686,2,0,L|44:140,2,100,8|8|8,0:0|0:0|0:0,0:0:0:0:
192,164,34029,5,4,0:0:0:0:
292,164,34477,1,8,0:0:0:0:
244,76,34925,2,0,P|328:64|396:148,1,200
464,220,36268,1,8,0:0:0:0:
368,240,36716,1,0,0:0:0:0:
436,312,37164,1,8,0:0:0:0:
340,336,37611,6,0,B|292:336|292:336|244:288,1,100,4|8,0:0|0:0,0:0:0:0:
156,300,38507,2,0,B|119:263|119:263|71:263,1,100,0|8,0:0|0:0,0:0:0:0:
24,176,39402,1,0,0:0:0:0:
88,100,39850,1,8,0:0:0:0:
152,176,40298,2,0,L|264:176,1,100,0|8,0:0|0:0,0:0:0:0:
304,92,41193,5,0,0:0:0:0:
392,44,41641,2,0,B|420:92|392:144,1,100,4|0,0:0|0:0,0:0:0:0:
308,192,42537,2,0,B|280:240|308:292,1,100,8|0,0:0|0:0,0:0:0:0:
396,240,43432,2,0,L|492:196,2,100,8|0|8,0:0|0:0|0:0,0:0:0:0:
256,192,44775,12,8,46567,0:0:0:0:
148,236,47014,5,8,0:0:0:0:
72,168,47462,2,8,L|32:208,2,50,8|8|8,0:0|0:0|0:0,0:0:0:0:
100,72,48358,5,4,0:0:0:0:
176,136,48805,1,8,0:0:0:0:
252,72,49253,2,0,B|296:128|260:192|260:192|336:248,1,200
368,320,50596,1,8,0:0:0:0:
416,232,51044,2,0,B|456:192|456:192|456:144,2,100,0|8|0,0:0|0:0|0:0,0:0:0:0:
360,148,52387,2,0,B|320:108|320:108|320:60,2,100,0|8|0,0:0|0:0|0:0,0:0:0:0:
416,232,53731,5,0,0:0:0:0:
356,312,54178,1,8,0:0:0:0:
256,312,54626,1,0,0:0:0:0:
196,232,55074,1,8,0:0:0:0:
168,136,55522,6,0,P|124:160|96:220,1,100,4|8,0:0|0:0,0:0:0:0:
116,296,56417,1,0,0:0:0:0:
192,360,56865,1,8,0:0:0:0:
268,296,57313,2,0,P|308:268|336:220,1,100,8|0,0:0|0:0,0:0:0:0:
420,176,58208,2,0,B|392:124|320:124,1,100,0|8,0:0|0:0,0:0:0:0:
256,192,59104,12,4,60895,1:0:0:0:
216,100,61343,5,2,0:0:0:0:
192,196,61790,1,2,0:0:0:0:
252,276,62238,1,2,0:0:0:0:
336,332,62686,6,0,L|400:248,1,100,4|8,0:0|0:0,0:0:0:0:
416,204,63358,2,0,P|380:148|300:144,1,150,0|8,0:0|0:0,0:0:0:0:
256,56,64477,1,0,0:0:0:0:
184,124,64925,1,8,0:0:0:0:
84,140,65373,2,0,L|24:224,1,100,0|8,0:0|0:0,0:0:0:0:
112,276,66268,6,0,B|112:316|132:336|132:336|276:336,1,200,0|0,0:0|0:0,0:0:0:0:
340,264,67611,1,8,0:0:0:0:
244,236,68059,2,0,P|292:116|368:76,1,200,0|0,0:0|0:0,0:0:0:0:
460,80,69402,1,8,0:0:0:0:
496,172,69850,6,0,P|516:216|496:260,1,100,2|8,0:0|0:0,0:0:0:0:
412,316,70746,2,0,P|367:336|323:316,1,100,2|8,0:0|0:0,0:0:0:0:
240,260,71641,1,2,0:0:0:0:
276,168,72089,1,8,0:0:0:0:
376,168,72537,2,0,B|424:144|424:144|424:96,1,100,2|8,0:0|0:0,0:0:0:0:
256,192,73432,12,0,75223,0:0:0:0:
312,200,75671,5,2,0:0:0:0:
360,112,76119,1,2,0:0:0:0:
452,152,76567,1,2,0:0:0:0:
404,240,77014,6,0,P|374:295|350:333,1,100,4|8,0:0|0:0,0:0:0:0:
308,312,77686,2,0,P|236:296|156:316,1,150,0|8,0:0|0:0,0:0:0:0:
88,244,78805,1,0,0:0:0:0:
88,144,79253,1,8,0:0:0:0:
148,64,79701,2,0,L|260:64,1,100,0|8,0:0|0:0,0:0:0:0:
336,112,80596,6,0,P|320:160|340:208,1,100,2|8,0:0|0:0,0:0:0:0:
424,156,81492,2,0,P|440:204|420:260,1,100,2|8,0:0|0:0,0:0:0:0:
396,288,82164,2,0,P|340:336|268:356,1,150,0|8,0:0|0:0,0:0:0:0:
184,300,83283,2,0,L|184:196,1,100,2|8,0:0|0:0,0:0:0:0:
184,100,84178,5,4,0:0:0:0:
280,64,84626,2,0,L|392:64,1,100,8|0,0:0|0:0,0:0:0:0:
440,144,85522,1,8,0:0:0:0:
384,228,85970,2,0,L|280:228,1,100,0|8,0:0|0:0,0:0:0:0:
200,280,86865,1,0,0:0:0:0:
256,192,87313,12,0,89552,0:0:0:0:
