osu file format v12

[General]
AudioFilename: +op-+[TVsize].mp3
AudioLeadIn: 0
PreviewTime: 62686
Countdown: 0
SampleSet: Soft
StackLeniency: 0.7
Mode: 0
LetterboxInBreaks: 0
WidescreenStoryboard: 0

[Editor]
DistanceSpacing: 1.2
BeatDivisor: 4
GridSize: 4

[Metadata]
Title:Nanairo Biyori (TV Ver.)
TitleUnicode:なないろびより (TV Ver.)
Artist:nano.RIPE
ArtistUnicode:nano.RIPE
Creator:sksmwkd125
Version:Easy
Source:のんのんびより
Tags:なないろびより Non non Biyori gaten
BeatmapID:357234
BeatmapSetID:143650

[Difficulty]
HPDrainRate:2
CircleSize:3
OverallDifficulty:2
ApproachRate:3
SliderMultiplier:0.9
SliderTickRate:1

[Events]
//Background and Video events
Video,0,"OP.avi"
0,0,"BG.png",0,0
//Break Periods
//Storyboard Layer 0 (Background)
//Storyboard Layer 1 (Fail)
//Storyboard Layer 2 (Pass)
//Storyboard Layer 3 (Foreground)
//Storyboard Sound Samples
//Background Colour Transformations
3,100,163,162,255

[TimingPoints]
5373,447.761194029851,4,2,1,80,1,0
5373,-100,4,2,2,80,0,0
5596,-100,4,2,1,80,0,0
19701,-100,4,2,1,50,0,0
27761,-100,4,2,0,50,0,0
28208,-100,4,2,1,50,0,0
29552,-100,4,2,0,50,0,0
29999,-100,4,2,1,50,0,0
31343,-100,4,2,0,50,0,0
31790,-100,4,2,1,50,0,0
41641,-100,4,2,2,50,0,0
42089,-100,4,2,0,50,0,0
42537,-100,4,2,1,50,0,0
43880,-100,4,2,0,50,0,0
44328,-100,4,2,1,50,0,0
48358,-100,4,2,1,45,0,0
52835,-100,4,2,0,45,0,0
53283,-100,4,2,1,45,0,0
53731,-100,4,2,0,45,0,0
54178,-100,4,2,1,45,0,0
55634,-100,4,2,0,40,0,0
56865,-100,4,2,1,40,0,0
57425,-100,4,2,0,40,0,0
58656,-100,4,2,1,40,0,0
59104,-100,4,2,1,60,0,0
62686,-100,4,2,0,70,0,1
62910,-100,4,2,1,70,0,1
77014,-100,4,2,0,70,0,1
77238,-100,4,2,1,70,0,1
84178,-100,4,2,2,70,0,1
84402,-100,4,2,1,70,0,1
87313,-100,4,2,1,30,0,0
89552,-100,4,2,1,5,0,0

[Colours]
Combo1 : 102,179,255
Combo2 : 175,96,255
Combo3 : 255,128,64
Combo4 : 255,128,128

[HitObjects]
96,124,5372,2,0,P|176:76|264:80,1,180,4|0,0:0|0:0,0:0:0:0:
300,180,6716,1,8,0:0:0:0:
376,100,7164,2,0,B|444:152|448:184|448:184|448:252,1,180
376,332,8507,1,8,0:0:0:0:
276,288,8955,6,0,B|200:288|200:288|176:232|112:200,1,180,2|0,0:0|0:0,0:0:0:0:
120,104,10298,1,8,0:0:0:0:
224,132,10746,2,0,B|292:124|300:72|300:72|384:72,1,180
440,160,12089,1,8,0:0:0:0:
380,252,12537,6,0,P|308:308|208:308,1,180,2|0,0:0|0:0,0:0:0:0:
136,244,13880,1,8,0:0:0:0:
180,144,14328,2,0,B|228:112|236:72|236:72|324:72,1,180
408,140,15671,1,8,0:0:0:0:
452,240,16119,6,0,B|404:252|352:240|352:240|288:160,1,180,2|0,0:0|0:0,0:0:0:0:
340,76,17462,1,8,0:0:0:0:
236,100,17910,2,0,P|192:176|232:256,1,180,0|8,0:0|0:0,0:0:0:0:
332,220,19253,1,8,0:0:0:0:
308,324,19701,6,0,P|224:360|140:312,3,180,4|0|0|0,0:0|0:0|0:0|0:0,0:0:0:0:
68,252,22835,1,8,0:0:0:0:
148,180,23283,6,0,P|227:143|306:179,3,180,4|0|0|0,0:0|0:0|0:0|0:0,0:0:0:0:
384,104,26417,1,8,0:0:0:0:
459,184,26865,6,0,B|459:268|459:268|403:336|403:336|287:336,1,270,4|8,0:0|0:0,0:0:0:0:
208,288,28656,1,0,0:0:0:0:
132,220,29104,2,0,P|212:184|292:228,1,180,8|8,0:0|0:0,0:0:0:0:
356,140,30447,6,0,B|420:208|372:292|372:292|276:336,1,270,0|8,0:0|0:0,0:0:0:0:
168,336,32238,2,0,L|76:336,2,90,0|8|0,0:0|0:0|0:0,0:0:0:0:
168,228,33581,1,8,0:0:0:0:
68,188,34029,5,4,0:0:0:0:
120,92,34477,1,8,0:0:0:0:
220,132,34925,2,0,B|308:148|352:112|352:112|352:56,2,180,0|0|0,0:0|0:0|0:0,0:0:0:0:
120,92,37164,1,8,0:0:0:0:
64,184,37611,6,0,B|64:278|64:278|136:336,2,180,4|0|0,0:0|0:0|0:0,0:0:0:0:
120,92,39850,1,8,0:0:0:0:
224,128,40298,2,0,L|280:40,2,90,0|8|0,0:0|0:0|0:0,0:0:0:0:
320,176,41641,6,0,P|284:256|336:340,1,180,4|0,0:0|0:0,0:0:0:0:
388,252,42984,1,0,0:0:0:0:
444,160,43432,2,0,P|404:88|296:56,1,180,8|8,0:0|0:0,0:0:0:0:
256,192,44775,12,8,47014,0:0:0:0:
144,192,48358,6,0,B|132:288|32:324,2,180,4|0|0,0:0|0:0|0:0,0:0:0:0:
80,104,50596,1,8,0:0:0:0:
188,92,51044,2,0,L|292:92,1,90,0|8,0:0|0:0,0:0:0:0:
236,192,51940,5,0,0:0:0:0:
280,292,52387,2,0,B|380:292|380:292|460:228|460:228|460:56,1,360,0|0,0:0|0:0,0:0:0:0:
356,44,54626,2,0,L|280:120,1,90,0|8,0:0|0:0,0:0:0:0:
216,184,55522,6,0,P|128:256|224:344,1,270,4|8,0:0|0:0,0:0:0:0:
288,264,57313,2,0,P|376:192|280:104,1,270,4|8,0:0|0:0,0:0:0:0:
256,192,59104,12,4,61343,1:0:0:0:
280,108,62686,6,0,L|359:66,2,90,4|8|0,0:0|0:0|0:0,0:0:0:0:
200,180,64029,1,8,0:0:0:0:
300,220,64477,2,0,P|304:324|240:336,1,180,0|0,0:0|0:0,0:0:0:0:
152,288,65820,1,8,0:0:0:0:
80,208,66268,6,0,L|16:140,2,90,0|8|0,0:0|0:0|0:0,0:0:0:0:
184,180,67611,1,8,0:0:0:0:
184,180,68059,2,0,P|268:152|356:180,1,180
412,268,69402,6,0,L|460:352,2,90,8|4|8,0:0|0:0|0:0,0:0:0:0:
328,200,70746,1,0,0:0:0:0:
308,304,71193,1,8,0:0:0:0:
228,232,71641,2,0,P|148:204|108:112,1,180
216,128,72984,1,8,0:0:0:0:
256,192,73432,12,8,75671,0:0:0:0:
448,156,77014,6,0,P|400:124|384:76,1,90,4|8,0:0|0:0,0:0:0:0:
288,48,77910,2,2,P|256:96|216:112,1,90,0|8,0:0|0:0,0:0:0:0:
120,92,78805,2,0,P|144:176|224:220,1,180
280,128,80149,1,8,0:0:0:0:
376,80,80596,6,0,P|388:128|376:176,1,90,0|8,0:0|0:0,0:0:0:0:
452,248,81492,2,0,P|432:300|392:332,1,90,0|8,0:0|0:0,0:0:0:0:
300,324,82387,2,0,B|224:268|224:268|128:268,1,180,0|0,0:0|0:0,0:0:0:0:
80,176,83731,1,8,0:0:0:0:
132,80,84178,6,0,L|208:20,2,90,4|8|0,2:0|0:0|0:0,0:0:0:0:
180,176,85522,1,8,0:0:0:0:
288,176,85970,2,0,L|358:231,2,90,0|8|0,0:0|0:0|0:0,0:0:0:0:
256,192,87313,12,0,89552,0:0:0:0:
