osu file format v12

[General]
AudioFilename: Nanairo Biyori (TV Size).mp3
AudioLeadIn: 0
PreviewTime: 62371
Countdown: 0
SampleSet: Soft
StackLeniency: 0.7
Mode: 0
LetterboxInBreaks: 0
WidescreenStoryboard: 1

[Editor]
DistanceSpacing: 1.2
BeatDivisor: 4
GridSize: 4

[Metadata]
Title:Nanairo Biyori (TV Ver.)
TitleUnicode:なないろびより (TV Ver.)
Artist:nano.RIPE
ArtistUnicode:nano.RIPE
Creator:Vicho
Version:Normal
Source:のんのんびより
Tags:non non biyori opening momochikun saten saten-san renge miyauchi hotaru ichijo natsumi komari koshigaya lolicon nyanpasu
BeatmapID:328879
BeatmapSetID:122723

[Difficulty]
HPDrainRate:4
CircleSize:3
OverallDifficulty:4
ApproachRate:5
SliderMultiplier:1.2
SliderTickRate:1

[Events]
//Background and Video events
0,0,"BG.jpg",0,0
Video,0,"biyori.avi"
//Break Periods
//Storyboard Layer 0 (Background)
//Storyboard Layer 1 (Fail)
//Storyboard Layer 2 (Pass)
//Storyboard Layer 3 (Foreground)
//Storyboard Sound Samples
//Background Colour Transformations
3,100,163,162,255

[TimingPoints]
5182,447.761194029851,4,2,1,80,1,0
48167,-133.333333333333,4,2,1,80,0,0
60032,-133.333333333333,4,2,1,50,0,0
60704,-133.333333333333,4,2,1,80,0,0
62510,447.761194029851,4,2,1,80,1,1
76726,-100,4,2,1,80,0,0
76838,-100,4,2,1,80,0,1
87360,-100,4,2,1,80,0,0
87584,-100,4,2,1,5,0,0

[Colours]
Combo1 : 98,176,255
Combo2 : 255,157,206
Combo3 : 244,182,51
Combo4 : 77,225,103

[HitObjects]
184,184,5181,2,0,P|124:160|64:160,2,120,4|0|2,0:0|1:0|0:0,0:0:0:0:
224,228,6301,2,0,L|208:296,1,60,0|0,0:0|1:0,0:0:0:0:
328,252,6973,2,0,P|388:276|448:276,2,120,2|0|2,0:0|1:0|0:0,0:0:0:0:
288,208,8092,2,0,L|304:140,1,60,0|0,0:0|1:0,0:0:0:0:
320,92,8540,1,0,0:0:0:0:
316,32,8764,6,0,P|256:16|200:32,1,120,2|0,0:0|1:0,0:0:0:0:
164,80,9435,1,0,0:0:0:0:
164,80,9659,2,0,L|24:36,2,120,2|0|2,0:0|1:0|0:0,0:0:0:0:
260,152,11002,2,0,P|272:208|256:280,1,120,0|2,1:0|0:0,0:0:0:0:
256,328,11674,2,0,L|328:344,1,60,0|0,0:0|1:0,0:0:0:0:
428,304,12346,6,0,P|416:248|432:176,1,120,2|0,0:0|1:0,0:0:0:0:
464,72,13241,2,0,L|512:28,2,60,2|0|0,0:0|0:0|1:0,0:0:0:0:
348,104,14137,2,0,P|288:100|220:84,1,120,2|0,0:0|1:0,0:0:0:0:
172,68,14808,1,0,0:0:0:0:
120,96,15032,2,0,P|104:160|108:232,1,120,2|0,0:0|1:0,0:0:0:0:
76,332,15928,6,0,P|136:332|192:292,1,120,2|0,0:0|1:0,0:0:0:0:
224,256,16599,2,0,L|292:280,1,60,0|2,0:0|0:0,0:0:0:0:
396,316,17271,1,0,1:0:0:0:
376,196,17719,2,0,P|404:144|428:76,2,120,2|0|4,0:0|1:0|0:0,0:0:0:0:
281,275,19062,1,0,1:0:0:0:
281,275,19510,6,0,L|161:260,1,120,4|0,0:0|1:0,0:0:0:0:
168,140,20405,2,0,L|288:155,1,120,2|0,0:0|1:0,0:0:0:0:
348,152,21077,2,0,P|364:116|376:80,1,60,0|2,0:0|0:0,0:0:0:0:
460,176,21749,2,0,P|444:212|432:248,1,60,0|0,1:0|0:0,0:0:0:0:
428,292,22196,2,0,P|372:308|296:300,1,120,2|0,0:0|1:0,0:0:0:0:
256,196,23092,6,0,P|280:144|268:76,1,120,2|0,0:0|1:0,0:0:0:0:
224,48,23764,2,0,L|148:64,1,60,0|2,0:0|0:0,0:0:0:0:
48,92,24435,1,0,1:0:0:0:
48,92,24659,2,0,P|52:132|52:164,1,60,0|2,0:0|0:0,0:0:0:0:
48,272,25331,1,0,1:0:0:0:
80,320,25555,2,0,P|132:344|204:324,1,120,0|0,0:0|0:0,0:0:0:0:
240,296,26226,1,0,1:0:0:0:
356,264,26674,6,0,L|492:280,1,120,2|0,0:0|1:0,0:0:0:0:
504,160,27570,2,0,L|368:144,1,120,2|0,0:0|1:0,0:0:0:0:
328,124,28241,2,0,P|324:88|324:52,1,60,0|2,0:0|0:0,0:0:0:0:
208,32,28913,2,0,P|180:80|176:160,1,120,0|2,1:0|0:0,0:0:0:0:
184,204,29584,1,0,0:0:0:0:
240,228,29808,2,0,L|304:240,1,60,0|0,1:0|0:0,0:0:0:0:
416,264,30480,6,0,P|424:300|424:332,2,60,0|0|0,0:0|1:0|0:0,0:0:0:0:
388,212,31152,2,0,P|356:160|352:100,1,120,2|0,0:0|1:0,0:0:0:0:
356,44,31823,1,0,0:0:0:0:
356,44,32047,1,2,0:0:0:0:
240,76,32495,2,0,P|184:80|104:60,2,120,0|4|0,1:0|1:2|1:0,0:0:0:0:
192,184,33838,6,0,P|248:180|328:200,1,120,4|0,0:0|1:0,0:0:0:0:
336,248,34510,2,0,L|328:320,1,60,0|2,0:0|0:0,0:0:0:0:
432,372,35182,1,0,1:0:0:0:
440,312,35405,2,0,L|492:268,1,60,0|2,0:0|0:0,0:0:0:0:
496,212,35853,2,0,P|496:184|500:140,1,60,0|0,0:0|1:0,0:0:0:0:
500,92,36301,2,0,P|440:112|368:108,1,120,0|0,0:0|0:0,0:0:0:0:
324,96,36973,1,0,1:0:0:0:
212,60,37420,6,0,L|176:120,1,60,2|0,0:0|0:0,0:0:0:0:
160,168,37868,1,0,1:0:0:0:
160,168,38092,2,0,P|144:224|152:292,1,120,0|0,0:0|0:0,0:0:0:0:
168,340,38764,2,0,L|288:320,1,120,0|2,1:0|0:0,0:0:0:0:
344,304,39435,2,0,P|356:324|368:360,1,60,0|0,0:0|1:0,0:0:0:0:
428,364,39883,2,0,P|468:320|480:260,1,120,0|0,0:0|0:0,0:0:0:0:
472,204,40555,1,0,1:0:0:0:
424,96,41002,6,0,L|304:64,1,120,2|0,0:0|1:0,0:0:0:0:
256,56,41674,2,0,P|244:88|240:116,1,60,0|2,0:0|0:0,0:0:0:0:
164,204,42346,2,0,P|96:212|32:188,2,120,0|2|0,1:0|0:0|1:0,0:0:0:0:
220,188,43465,1,0,0:0:0:0:
220,188,43689,2,0,P|204:240|212:316,1,120,2|0,0:0|1:0,0:0:0:0:
260,340,44361,6,0,L|388:328,1,120,0|0,0:0|0:0,0:0:0:0:
440,320,45032,1,0,1:0:0:0:
460,200,45480,1,2,0:0:0:0:
428,84,45928,2,0,L|440:24,1,60,0|2,1:0|0:0,0:0:0:0:
324,60,46599,2,0,L|312:120,1,60,0|0,0:0|1:0,0:0:0:0:
296,176,47047,2,0,P|244:156|176:160,1,120,4|0,0:0|0:0,0:0:0:0:
120,172,47719,1,0,1:0:0:0:
152,280,48167,6,4,P|255:352|360:280,1,270.000010299683,4|0,0:0|1:0,0:0:0:0:
452,220,49958,2,0,P|408:172|336:178,1,135.000005149841,2|2,0:0|0:0,0:0:0:0:
256,108,51077,2,0,L|256:60,2,45.0000017166138,0|0|0,0:0|1:0|0:0,0:0:0:0:
228,152,51749,6,0,P|168:176|88:168,2,135.000005149841,2|2|0,0:0|0:0|1:0,0:0:0:0:
284,60,53540,2,0,P|328:108|328:180,1,135.000005149841,2|2,0:0|0:0,0:0:0:0:
368,276,54659,2,0,L|420:296,2,45.0000017166138,0|0|0,0:0|1:0|0:0,0:0:0:0:
316,260,55331,6,0,P|248:272|196:312,1,135.000005149841,4|2,0:0|0:0,0:0:0:0:
88,316,56450,2,0,L|56:356,2,45.0000017166138,0|0|0,0:0|1:0|0:0,0:0:0:0:
104,264,57122,2,0,P|108:200|76:128,1,135.000005149841,2|2,0:0|0:0,0:0:0:0:
160,60,58241,6,0,L|208:84,1,45.0000017166138,0|0,0:0|1:0,0:0:0:0:
248,108,58689,2,0,P|320:208|248:316,1,270.000010299683,2|0,0:0|1:0,0:0:0:0:
192,320,60256,2,0,L|136:308,1,45.0000017166138,0|0,1:0|1:0,0:0:0:0:
96,296,60704,1,4,0:0:0:0:
92,68,62510,6,0,P|140:92|216:92,1,120,4|0,0:0|1:0,0:0:0:0:
260,72,63181,2,0,P|244:136|256:200,1,120,2|2,0:0|0:0,0:0:0:0:
292,232,63853,2,0,L|360:224,1,60,0|2,1:0|0:0,0:0:0:0:
308,336,64524,2,0,L|240:344,1,60,2|0,0:0|1:0,0:0:0:0:
188,328,64972,2,0,P|148:292|140:224,1,120,2|2,0:0|0:0,0:0:0:0:
164,176,65644,5,0,1:0:0:0:
220,160,65868,2,0,P|256:124|272:56,1,120,2|2,0:0|0:0,0:0:0:0:
324,28,66539,2,0,L|384:36,1,60,0|2,1:0|0:0,0:0:0:0:
460,128,67211,2,0,P|453:160|452:204,1,60,2|0,0:0|1:0,0:0:0:0:
452,248,67659,2,0,P|392:244|344:284,1,120,2|2,0:0|0:0,0:0:0:0:
312,328,68330,1,0,1:0:0:0:
260,360,68554,2,0,P|168:364|100:312,1,180,2|0,0:0|1:0,0:0:0:0:
104,252,69450,6,0,L|120:124,1,120,2|2,0:0|0:0,0:0:0:0:
132,76,70121,1,0,1:0:0:0:
184,48,70345,2,0,P|240:56|296:88,1,120,2|2,0:0|0:0,0:0:0:0:
324,140,71017,2,0,L|388:124,1,60,0|2,1:0|0:0,0:0:0:0:
464,216,71689,2,0,L|400:232,1,60,2|0,0:0|1:0,0:0:0:0:
348,252,72136,2,0,P|312:296|300:364,1,120,2|2,0:0|0:0,0:0:0:0:
240,364,72808,2,0,L|176:352,1,60,0|2,1:0|0:0,0:0:0:0:
120,340,73256,6,0,B|64:328|30:352|30:352|-12:355,2,120,0|0|0,0:0|1:0|0:0,0:0:0:0:
196,248,74599,2,0,L|188:180,1,60,0|4,1:0|1:2,0:0:0:0:
324,72,75495,2,0,P|376:56|440:72,2,120,0|0|0,1:0|1:0|1:0,0:0:0:0:
312,192,76838,6,0,P|332:248|328:316,1,120,4|0,0:0|1:0,0:0:0:0:
280,344,77510,2,0,L|160:336,1,120,2|2,0:0|0:0,0:0:0:0:
104,312,78181,2,0,P|108:268|104:240,1,60,0|2,1:0|0:0,0:0:0:0:
24,168,78853,2,0,P|22:138|26:108,1,60,2|0,0:0|1:0,0:0:0:0:
44,52,79301,2,0,P|96:64|164:44,1,120,2|2,0:0|0:0,0:0:0:0:
216,28,79972,5,0,1:0:0:0:
264,64,80196,2,0,P|292:112|296:188,1,120,2|2,0:0|0:0,0:0:0:0:
296,236,80868,2,0,L|368:248,1,60,0|2,1:0|0:0,0:0:0:0:
316,360,81539,2,0,L|244:348,1,60,2|0,0:0|1:0,0:0:0:0:
200,336,81987,2,0,P|132:336|80:356,1,120,2|2,0:0|0:0,0:0:0:0:
28,336,82659,1,0,1:0:0:0:
28,276,82883,2,0,P|36:216|28:152,1,120,2|2,0:0|0:0,0:0:0:0:
32,96,83554,6,0,P|88:108|156:96,1,120,0|4,1:0|0:0,0:0:0:0:
256,44,84450,1,0,1:0:0:0:
256,44,84674,2,0,P|244:100|256:168,1,120,2|2,0:0|0:0,0:0:0:0:
300,200,85345,2,0,L|420:180,2,120,0|2|0,1:0|0:0|1:0,0:0:0:0:
244,220,86465,1,2,0:0:0:0:
128,192,86912,2,0,P|120:232|120:272,2,60,0|0|4,1:0|1:0|0:0,0:0:0:0:
256,192,87584,12,0,89375,0:0:0:0:
