osu file format v12

[General]
AudioFilename: Nanairo Biyori (TV Size).mp3
AudioLeadIn: 0
PreviewTime: 62371
Countdown: 0
SampleSet: Soft
StackLeniency: 0.7
Mode: 0
LetterboxInBreaks: 0
WidescreenStoryboard: 1

[Editor]
DistanceSpacing: 1.4
BeatDivisor: 4
GridSize: 4

[Metadata]
Title:Nanairo Biyori (TV Ver.)
TitleUnicode:なないろびより (TV Ver.)
Artist:nano.RIPE
ArtistUnicode:nano.RIPE
Creator:Vicho
Version:Insane
Source:のんのんびより
Tags:non non biyori opening momochikun saten saten-san renge miyauchi hotaru ichijo natsumi komari koshigaya lolicon nyanpasu
BeatmapID:313727
BeatmapSetID:122723

[Difficulty]
HPDrainRate:7
CircleSize:4
OverallDifficulty:7
ApproachRate:8
SliderMultiplier:1.7
SliderTickRate:1

[Events]
//Background and Video events
Video,0,"biyori.avi"
0,0,"BG.jpg",0,0
//Break Periods
//Storyboard Layer 0 (Background)
//Storyboard Layer 1 (Fail)
//Storyboard Layer 2 (Pass)
//Storyboard Layer 3 (Foreground)
//Storyboard Sound Samples
//Background Colour Transformations
3,100,163,162,255

[TimingPoints]
5182,447.761194029851,4,2,1,80,1,0
48167,-133.333333333333,4,2,1,80,0,0
60032,-133.333333333333,4,2,1,50,0,0
60704,-133.333333333333,4,2,1,80,0,0
62510,447.761194029851,4,2,1,80,1,1
75495,-100,4,2,1,50,0,1
76726,-100,4,2,1,80,0,0
76838,-100,4,2,1,80,0,1
86689,-100,4,2,1,50,0,1
87360,-100,4,2,1,80,0,0
87472,-100,4,2,1,5,0,0

[Colours]
Combo1 : 98,176,255
Combo2 : 255,157,206
Combo3 : 244,182,51
Combo4 : 77,225,103

[HitObjects]
256,168,5181,1,4,0:0:0:0:
288,48,5405,1,0,0:0:0:0:
256,168,5629,1,0,1:0:0:0:
168,80,5853,1,0,0:0:0:0:
168,80,5965,1,0,1:0:0:0:
168,80,6077,2,0,P|120:72|72:72,2,85,2|0|0,0:0|0:0|1:0,0:0:0:0:
288,48,6748,1,0,0:0:0:0:
256,168,6972,6,0,P|304:176|352:176,1,85,2|0,0:0|0:0,0:0:0:0:
416,128,7420,2,0,P|388:180|388:252,1,127.5,0|0,1:0|1:0,0:0:0:0:
400,284,7868,2,0,L|484:272,2,85,2|0|0,0:0|0:0|1:0,0:0:0:0:
296,328,8539,1,0,0:0:0:0:
304,216,8763,6,0,L|272:120,1,85,2|0,0:0|0:0,0:0:0:0:
232,48,9211,1,0,1:0:0:0:
176,128,9435,1,0,0:0:0:0:
140,136,9547,1,0,1:0:0:0:
100,136,9659,2,0,P|52:128|-4:112,2,85,2|0|0,0:0|0:0|1:0,0:0:0:0:
128,256,10331,1,0,0:0:0:0:
247,314,10554,5,2,0:0:0:0:
376,288,10778,2,0,P|424:280|480:280,1,85,0|0,0:0|1:0,0:0:0:0:
480,168,11226,2,0,L|488:112,1,42.5,0|0,0:0|1:0,0:0:0:0:
488,88,11450,2,0,P|440:80|392:56,1,85,2|0,0:0|0:0,0:0:0:0:
288,40,11898,1,0,1:0:0:0:
265,148,12122,6,0,P|257:204|257:252,1,85,0|2,0:0|0:0,0:0:0:0:
268,352,12569,1,0,0:0:0:0:
144,344,12793,2,0,P|80:320|40:272,1,127.5,0|0,1:0|1:0,0:0:0:0:
40,240,13241,2,0,L|56:152,1,85,2|0,0:0|0:0,0:0:0:0:
80,40,13689,1,0,1:0:0:0:
192,144,13913,1,0,0:0:0:0:
192,144,14137,6,0,L|272:105,1,85,2|0,0:0|0:0,0:0:0:0:
376,52,14584,1,0,1:0:0:0:
392,168,14808,1,0,0:0:0:0:
384,204,14920,1,0,1:0:0:0:
392,240,15032,2,0,P|432:248|480:240,2,85,2|0|0,0:0|0:0|1:0,0:0:0:0:
296,148,15704,1,0,0:0:0:0:
256,248,15928,6,0,P|248:296|248:336,1,85,2|0,0:0|0:0,0:0:0:0:
247,332,16375,2,0,L|112:304,1,127.5,0|0,1:0|1:0,0:0:0:0:
88,296,16823,1,2,0:0:0:0:
40,192,17047,1,0,0:0:0:0:
40,192,17271,2,0,P|72:144|144:128,1,127.5,0|0,1:0|0:0,0:0:0:0:
176,128,17719,6,0,L|192:40,2,85,2|0|0,0:0|0:0|1:0,0:0:0:0:
160,256,18390,2,0,L|176:296,2,42.5,0|0|4,0:0|0:0|1:2,0:0:0:0:
40,192,18838,1,0,0:0:0:0:
64,72,19062,1,0,1:0:0:0:
64,72,19174,1,0,1:0:0:0:
64,72,19286,1,0,1:0:0:0:
192,96,19510,6,0,P|216:128|240:184,1,85,4|2,0:0|0:0,0:0:0:0:
264,296,19957,1,0,1:0:0:0:
392,280,20181,1,0,0:0:0:0:
392,280,20293,1,0,1:0:0:0:
392,280,20405,2,0,P|440:264|488:256,1,85,2|2,0:0|0:0,0:0:0:0:
464,136,20853,2,0,L|440:40,1,85,0|0,1:0|0:0,0:0:0:0:
304,32,21301,5,2,0:0:0:0:
304,32,21525,2,0,L|328:136,1,85,0|0,0:0|1:0,0:0:0:0:
304,224,21972,1,0,0:0:0:0:
304,224,22084,1,0,1:0:0:0:
304,224,22196,2,0,P|256:232|216:224,1,85,2|2,0:0|0:0,0:0:0:0:
120,156,22644,2,0,P|104:196|104:252,1,85,0|0,1:0|0:0,0:0:0:0:
104,276,22980,1,0,0:0:0:0:
128,308,23092,6,0,L|216:332,1,85,2|0,0:0|0:0,0:0:0:0:
324,360,23539,1,0,1:0:0:0:
412,280,23764,2,0,L|460:248,1,42.5,0|0,0:0|1:0,0:0:0:0:
464,220,23987,2,0,P|456:164|456:116,1,85,2|2,0:0|0:0,0:0:0:0:
488,20,24435,1,0,1:0:0:0:
376,64,24659,1,0,0:0:0:0:
248,48,24883,6,0,P|240:104|240:144,1,85,2|0,0:0|0:0,0:0:0:0:
256,248,25331,1,0,1:0:0:0:
184,336,25554,1,0,0:0:0:0:
152,328,25666,1,0,1:0:0:0:
120,328,25779,2,0,P|64:336|24:336,1,85,2|2,0:0|0:0,0:0:0:0:
56,192,26226,2,0,P|56:144|48:96,1,85,0|0,1:0|0:0,0:0:0:0:
168,48,26674,5,2,0:0:0:0:
208,176,26898,2,0,P|248:192|304:200,1,85,0|0,0:0|1:0,0:0:0:0:
416,152,27345,1,0,0:0:0:0:
416,152,27457,1,0,1:0:0:0:
416,152,27569,2,0,L|432:56,2,85,2|2|0,0:0|0:0|1:0,0:0:0:0:
368,256,28241,5,0,0:0:0:0:
368,256,28353,1,0,0:0:0:0:
368,256,28465,2,0,L|392:352,1,85,2|0,0:0|0:0,0:0:0:0:
256,360,28913,2,0,L|232:264,1,85,0|0,1:0|0:0,0:0:0:0:
224,240,29248,1,0,1:0:0:0:
224,240,29360,2,0,P|184:256|136:256,1,85,2|2,0:0|0:0,0:0:0:0:
24,240,29808,1,0,1:0:0:0:
105,177,30032,2,0,P|129:256|88:328,1,170,2|0,0:0|0:0,0:0:0:0:
24,112,30704,5,0,1:0:0:0:
136,48,30928,1,0,0:0:0:0:
172,64,31039,1,0,1:0:0:0:
212,64,31152,2,0,L|308:40,1,85,2|2,0:0|0:0,0:0:0:0:
412,48,31599,2,0,P|428:96|436:144,1,85,0|0,1:0|0:0,0:0:0:0:
432,248,32047,5,2,0:0:0:0:
320,208,32271,1,0,0:0:0:0:
388,360,32495,1,0,1:0:0:0:
276,320,32719,2,0,P|232:336|188:348,1,85,0|4,0:0|1:2,0:0:0:0:
76,344,33166,1,2,0:0:0:0:
48,232,33390,1,0,1:0:0:0:
40,200,33502,1,0,1:0:0:0:
32,168,33614,1,2,1:2:0:0:
80,56,33838,6,0,P|120:72|160:104,1,85,4|2,0:0|0:0,0:0:0:0:
224,192,34286,1,0,1:0:0:0:
320,104,34510,2,0,L|328:56,2,42.5,0|0|2,0:0|1:0|0:0,0:0:0:0:
352,232,34958,2,0,P|392:234|448:224,1,85,2|0,0:0|1:0,0:0:0:0:
480,352,35405,1,0,0:0:0:0:
436,227,35629,6,0,L|464:136,1,85,2|0,0:0|0:0,0:0:0:0:
496,40,36077,1,0,1:0:0:0:
384,64,36301,2,0,L|328:48,1,42.5,0|0,0:0|1:0,0:0:0:0:
304,40,36525,2,0,P|280:72|264:120,1,85,2|2,0:0|0:0,0:0:0:0:
264,312,36972,2,0,P|288:280|304:232,1,85,0|0,1:0|0:0,0:0:0:0:
304,200,37308,1,0,0:0:0:0:
304,200,37420,6,0,P|344:208|400:208,1,85,2|0,0:0|0:0,0:0:0:0:
488,144,37868,1,0,1:0:0:0:
448,32,38092,1,2,0:0:0:0:
448,32,38204,2,0,P|384:56|360:112,1,127.5,0|2,1:0|0:0,0:0:0:0:
304,200,38763,2,0,L|208:184,1,85,0|0,1:0|0:0,0:0:0:0:
120,112,39211,6,0,P|104:144|96:200,1,85,2|0,0:0|0:0,0:0:0:0:
96,320,39659,1,0,1:0:0:0:
208,296,39883,1,0,0:0:0:0:
208,296,39995,1,0,1:0:0:0:
208,296,40107,2,0,L|304:312,1,85,2|2,0:0|0:0,0:0:0:0:
408,328,40554,1,0,1:0:0:0:
392,216,40778,1,0,0:0:0:0:
392,216,41002,6,0,L|424:80,1,127.5,2|0,0:0|0:0,0:0:0:0:
432,56,41450,2,0,P|384:64|336:56,1,85,0|0,1:0|0:0,0:0:0:0:
316,48,41786,1,0,1:0:0:0:
316,48,41898,1,0,0:0:0:0:
176,88,42122,2,0,P|160:128|152:184,1,85,2|0,0:0|1:0,0:0:0:0:
152,344,42570,1,0,0:0:0:0:
56,256,42793,5,2,0:0:0:0:
152,344,43017,1,0,0:0:0:0:
272,296,43241,2,0,L|360:304,1,85,0|0,1:0|0:0,0:0:0:0:
392,304,43577,1,0,1:0:0:0:
392,304,43689,2,0,P|392:256|416:208,1,85,2|2,0:0|0:0,0:0:0:0:
472,120,44137,1,0,1:0:0:0:
376,40,44360,6,0,P|304:64|272:152,1,170,2|2,0:0|0:0,0:0:0:0:
272,296,45032,1,0,1:0:0:0:
136,312,45256,1,0,0:0:0:0:
136,312,45368,1,0,1:0:0:0:
136,312,45480,2,0,L|48:336,2,85,2|2|0,0:0|0:0|1:0,0:0:0:0:
176,192,46152,6,0,P|152:136|136:104,1,85,0|2,0:0|0:0,0:0:0:0:
48,48,46599,1,0,0:0:0:0:
48,176,46823,1,2,1:2:0:0:
176,192,47047,2,0,L|264:208,1,85,4|2,0:0|1:2,0:0:0:0:
368,224,47495,1,0,0:0:0:0:
448,296,47719,1,2,1:2:0:0:
448,296,47831,1,0,1:0:0:0:
448,296,47942,1,0,1:0:0:0:
472,136,48167,6,0,P|432:112|408:64,1,95.6250036478044,4|0,0:0|1:0,0:0:0:0:
400,32,48614,1,0,0:0:0:0:
272,160,48838,1,2,0:0:0:0:
272,160,49286,2,0,L|192:192,1,63.7500024318696,0|0,0:0|1:0,0:0:0:0:
104,232,49734,1,0,0:0:0:0:
72,344,49957,6,0,P|112:352|168:320,1,95.6250036478044,2|0,0:0|1:0,0:0:0:0:
184,304,50405,2,0,L|248:320,1,63.7500024318696,0|2,0:0|0:0,0:0:0:0:
440,336,51077,1,0,0:0:0:0:
464,216,51301,1,0,1:0:0:0:
464,216,51748,6,0,P|416:200|360:208,1,95.6250036478044,2|0,0:0|1:0,0:0:0:0:
336,224,52196,1,0,0:0:0:0:
256,304,52420,1,2,0:0:0:0:
84,264,52868,1,0,0:0:0:0:
84,264,53092,1,0,1:0:0:0:
72,84,53540,6,0,P|116:76|160:48,1,95.6250036478044,2|0,0:0|1:0,0:0:0:0:
192,48,53987,2,0,P|200:80|216:128,1,63.7500024318696,0|2,0:0|0:0,0:0:0:0:
312,248,54435,2,0,P|304:216|288:168,1,63.7500024318696
320,80,54883,1,0,1:0:0:0:
432,72,55107,1,0,0:0:0:0:
432,72,55219,1,0,0:0:0:0:
432,72,55331,6,0,P|464:104|488:152,1,95.6250036478044,4|0,0:0|1:0,0:0:0:0:
496,184,55779,1,0,0:0:0:0:
360,192,56002,2,0,P|344:248|344:320,1,127.500004863739,2|0,0:0|0:0,0:0:0:0:
464,368,56674,1,0,1:0:0:0:
352,344,56898,1,0,0:0:0:0:
352,344,57122,6,0,P|304:352|240:352,1,95.6250036478044,2|0,0:0|1:0,0:0:0:0:
232,328,57569,2,0,L|208:256,1,63.7500024318696,0|2,0:0|0:0,0:0:0:0:
168,160,58017,1,0,0:0:0:0:
56,192,58241,1,0,0:0:0:0:
168,160,58465,2,0,L|184:80,1,63.7500024318696,0|0,1:0|0:0,0:0:0:0:
288,40,58913,6,0,P|328:64|360:112,1,95.6250036478044,2|0,0:0|1:0,0:0:0:0:
376,136,59360,2,0,L|440:112,1,63.7500024318696,0|2,0:0|0:0,0:0:0:0:
440,304,60032,5,0,1:0:0:0:
408,288,60144,1,0,1:0:0:0:
376,288,60256,1,0,1:0:0:0:
344,304,60368,1,0,1:0:0:0:
320,328,60480,1,0,1:0:0:0:
288,336,60592,1,0,1:0:0:0:
256,328,60704,6,0,P|216:272|216:208,1,127.500004863739,4|2,0:0|0:0,0:0:0:0:
224,192,61599,1,2,0:0:0:0:
240,168,62047,1,2,0:0:0:0:
360,56,62510,6,0,P|432:88|464:176,1,170,4|0,0:0|1:0,0:0:0:0:
424,288,63181,1,2,0:0:0:0:
304,248,63405,1,0,0:0:0:0:
271,251,63517,1,0,1:0:0:0:
243,268,63629,1,2,0:0:0:0:
228,298,63741,1,0,0:0:0:0:
224,328,63853,2,0,P|184:336|128:328,1,85,0|2,1:0|0:0,0:0:0:0:
48,272,64301,5,0,0:0:0:0:
88,168,64524,2,0,L|72:72,1,85,2|0,0:0|1:0,0:0:0:0:
184,32,64972,2,0,P|218:54|272:64,1,85,2|0,0:0|0:0,0:0:0:0:
296,64,65308,1,0,1:0:0:0:
296,64,65420,2,0,L|280:152,1,85,2|0,0:0|1:0,0:0:0:0:
256,288,65868,6,0,P|184:344|104:315,1,170,2|2,0:0|0:0,0:0:0:0:
160,208,66539,1,0,1:0:0:0:
160,208,66763,2,0,P|144:152|136:120,1,85,2|0,0:0|0:0,0:0:0:0:
128,88,67099,1,0,1:0:0:0:
128,88,67211,1,2,0:0:0:0:
256,40,67435,2,0,P|272:96|280:128,1,85,0|2,1:0|0:0,0:0:0:0:
368,200,67883,6,0,P|416:192|456:176,2,85,0|2|0,0:0|0:0|1:0,0:0:0:0:
256,240,68554,1,2,0:0:0:0:
248,272,68666,1,0,0:0:0:0:
240,304,68778,1,0,0:0:0:0:
232,336,68890,1,0,1:0:0:0:
224,368,69002,2,0,P|185:358|128:360,1,85,2|0,0:0|1:0,0:0:0:0:
40,280,69450,1,2,0:0:0:0:
40,280,69674,6,0,L|24:136,1,127.5,0|0,0:0|0:0,0:0:0:0:
21,120,70121,2,0,P|64:117|109:96,1,85,0|2,1:0|0:0,0:0:0:0:
208,32,70569,1,0,0:0:0:0:
232,56,70681,1,0,1:0:0:0:
248,88,70793,2,0,P|256:128|256:184,1,85,2|0,0:0|1:0,0:0:0:0:
184,248,71241,6,0,P|248:296|320:256,1,170,2|2,0:0|0:0,0:0:0:0:
376,144,71912,1,0,1:0:0:0:
376,144,72136,1,2,0:0:0:0:
320,48,72360,1,0,0:0:0:0:
288,48,72472,1,0,1:0:0:0:
256,64,72584,1,2,0:0:0:0:
240,96,72696,1,0,0:0:0:0:
240,128,72808,1,0,1:0:0:0:
288,240,73032,1,2,0:0:0:0:
224,344,73256,6,0,P|176:352|128:352,1,85,0|2,0:0|0:0,0:0:0:0:
56,224,73704,2,0,P|104:216|152:216,1,85,0|2,1:0|0:0,0:0:0:0:
176,224,74039,1,0,1:0:0:0:
176,224,74151,1,0,0:0:0:0:
176,224,74263,1,0,1:0:0:0:
176,224,74375,2,0,L|208:144,1,85,2|0,0:0|1:0,0:0:0:0:
176,56,74823,2,0,P|224:120|312:104,1,170,4|0,1:2|1:0,0:0:0:0:
296,16,75495,5,0,1:0:0:0:
328,12,75607,1,0,1:0:0:0:
360,20,75718,1,0,1:0:0:0:
384,44,75830,1,0,1:0:0:0:
408,68,75942,1,0,1:0:0:0:
440,76,76054,1,0,1:0:0:0:
472,68,76166,2,0,L|504:40,2,42.5,0|0|0,1:0|1:0|1:0,0:0:0:0:
416,224,76614,1,0,0:0:0:0:
416,224,76726,1,0,0:0:0:0:
416,224,76838,6,0,L|400:320,1,85,4|2,0:0|0:0,0:0:0:0:
280,344,77286,2,0,P|232:336|184:320,1,85,0|2,1:0|0:0,0:0:0:0:
160,304,77621,1,0,1:0:0:0:
160,304,77733,1,0,0:0:0:0:
160,304,77845,2,0,L|104:320,2,42.5,0|2|0,1:0|0:0|0:0,0:0:0:0:
176,264,78181,2,0,P|168:216|144:168,1,85,0|2,1:0|0:0,0:0:0:0:
64,104,78629,5,0,0:0:0:0:
184,72,78853,2,0,L|272:48,1,85,2|0,0:0|1:0,0:0:0:0:
384,24,79301,1,2,0:0:0:0:
392,56,79412,1,0,1:0:0:0:
408,80,79524,1,0,0:0:0:0:
440,96,79636,1,0,1:0:0:0:
472,104,79748,2,0,P|480:144|480:208,1,85,2|0,0:0|1:0,0:0:0:0:
408,264,80196,6,0,P|328:256|272:328,1,170,2|2,0:0|0:0,0:0:0:0:
160,360,80868,1,0,1:0:0:0:
128,248,81092,1,2,0:0:0:0:
128,248,81204,2,0,P|96:216|64:192,1,85,0|0,1:0|1:0,0:0:0:0:
32,168,81539,2,0,P|64:144|96:104,1,85,2|0,0:0|1:0,0:0:0:0:
208,40,81987,6,0,P|264:88|280:184,1,170,2|2,0:0|0:0,0:0:0:0:
272,312,82659,2,0,P|312:312|360:320,1,85,0|2,1:0|0:0,0:0:0:0:
400,328,82995,2,0,P|416:280|424:240,1,85,0|0,1:0|1:0,0:0:0:0:
420,204,83330,1,2,0:0:0:0:
420,204,83554,2,0,P|444:168|480:128,1,85,0|2,1:0|0:0,0:0:0:0:
344,104,84002,6,0,P|264:96|200:32,1,170,4|0,0:0|1:0,0:0:0:0:
84,52,84674,1,2,0:0:0:0:
84,52,84786,2,0,P|73:101|70:149,1,85,0|0,1:0|1:0,0:0:0:0:
72,180,85121,1,2,0:0:0:0:
72,179,85345,2,0,P|83:228|86:276,1,85,0|2,1:0|0:0,0:0:0:0:
192,216,85793,6,0,P|240:248|280:328,1,127.5,0|0,0:0|0:0,0:0:0:0:
288,348,86241,1,0,1:0:0:0:
416,312,86465,1,2,0:0:0:0:
392,176,86689,6,0,L|416:136,2,42.5,0|0|0,1:0|1:0|1:0,0:0:0:0:
368,200,87024,1,0,1:0:0:0:
328,208,87136,1,0,1:0:0:0:
296,192,87248,1,0,1:0:0:0:
256,192,87360,1,4,0:0:0:0:
256,192,87472,12,0,89375,0:0:0:0:
