osu file format v12

[General]
AudioFilename: Non non Biyori.mp3
AudioLeadIn: 0
PreviewTime: 62602
Countdown: 0
SampleSet: Soft
StackLeniency: 0.7
Mode: 0
LetterboxInBreaks: 0
WidescreenStoryboard: 0

[Editor]
DistanceSpacing: 1.2
BeatDivisor: 4
GridSize: 4

[Metadata]
Title:Nanairo Biyori (TV Ver.)
TitleUnicode:なないろびより (TV Ver.)
Artist:nano.RIPE
ArtistUnicode:nano.RIPE
Creator:-Umi-
Version:Easy
Source:のんのんびより
Tags:Non Non Biyori opening xchippy alacat Renge Miyauchi Hotaru Ichijo Natsumi Koshigaya Komari Koshigaya lolicon Silver Link
BeatmapID:320836
BeatmapSetID:126224

[Difficulty]
HPDrainRate:2
CircleSize:3
OverallDifficulty:2
ApproachRate:3
SliderMultiplier:0.9
SliderTickRate:1

[Events]
//Background and Video events
Video,0,"ED.avi"
0,0,"BG.jpg",0,0
//Break Periods
//Storyboard Layer 0 (Background)
//Storyboard Layer 1 (Fail)
//Storyboard Layer 2 (Pass)
//Storyboard Layer 3 (Foreground)
//Storyboard Sound Samples
//Background Colour Transformations
3,100,163,162,255

[TimingPoints]
5373,447.761194029851,4,2,1,50,1,0
5820,-100,4,2,2,50,0,0
6044,-100,4,2,1,50,0,0
7611,-100,4,2,2,50,0,0
7835,-100,4,2,1,50,0,0
9402,-100,4,2,2,50,0,0
9626,-100,4,2,1,50,0,0
11193,-100,4,2,2,50,0,0
11417,-100,4,2,1,50,0,0
14775,-100,4,2,2,50,0,0
14999,-100,4,2,1,50,0,0
16567,-100,4,2,2,50,0,0
16790,-100,4,2,1,50,0,0
18358,-100,4,2,2,50,0,0
18581,-100,4,2,1,50,0,0
18805,-100,4,2,1,40,0,0
19253,-100,4,2,1,50,0,0
19701,-100,4,2,1,40,0,0
20149,-100,4,2,2,50,0,0
20373,-100,4,2,1,50,0,0
21940,-100,4,2,2,50,0,0
22164,-100,4,2,1,50,0,0
25522,-100,4,2,2,50,0,0
25746,-100,4,2,1,50,0,0
27313,-100,4,2,2,50,0,0
27537,-100,4,2,1,50,0,0
29999,-100,4,2,2,50,0,0
30223,-100,4,2,1,50,0,0
33134,-100,4,2,1,40,0,0
33581,-100,4,2,1,50,0,0
34029,-100,4,2,1,40,0,0
34477,-100,4,2,1,50,0,0
36268,-100,4,2,2,50,0,0
36492,-100,4,2,1,50,0,0
38059,-100,4,2,2,50,0,0
38283,-100,4,2,1,50,0,0
39850,-100,4,2,2,50,0,0
40074,-100,4,2,1,50,0,0
48358,-100,4,2,1,40,0,0
50149,-100,4,2,3,40,0,0
53283,-100,4,2,1,40,0,0
53731,-100,4,2,3,40,0,0
55074,-100,4,2,1,40,0,0
56193,-100,4,2,3,40,0,0
56865,-100,4,2,1,40,0,0
57313,-100,4,2,3,40,0,0
58656,-100,4,2,1,40,0,0
60895,-100,4,2,1,40,0,0
62686,-100,4,2,1,50,0,1
63134,-100,4,2,2,60,0,1
63358,-100,4,2,1,60,0,1
64925,-100,4,2,2,60,0,1
65149,-100,4,2,1,60,0,1
68507,-100,4,2,2,60,0,1
68731,-100,4,2,1,60,0,1
72089,-100,4,2,2,60,0,1
72313,-100,4,2,1,60,0,1
73880,-100,4,2,2,60,0,1
74104,-100,4,2,1,60,0,1
76902,-100,4,2,1,60,0,0
77014,-100,4,2,1,50,0,1
77462,-100,4,2,2,60,0,1
77686,-100,4,2,1,60,0,1
79253,-100,4,2,2,60,0,1
79477,-100,4,2,1,60,0,1
82835,-100,4,2,2,60,0,1
83059,-100,4,2,1,60,0,1
84178,-100,4,2,1,50,0,0
89104,-100,4,2,1,5,0,0

[Colours]
Combo1 : 28,192,227
Combo2 : 233,65,162
Combo3 : 255,156,0
Combo4 : 30,200,38

[HitObjects]
70,114,5373,2,0,P|145:67|232:83,1,180,4|2,0:0|0:0,0:0:0:0:
279,181,6716,1,8,0:0:0:0:
231,277,7164,2,0,P|306:324|393:308,1,180,2|2,0:0|0:0,0:0:0:0:
463,225,8507,1,8,0:0:0:0:
426,123,8955,6,0,P|331:131|250:88,1,180,2|2,0:0|0:0,0:0:0:0:
161,46,10298,1,8,0:0:0:0:
71,107,10746,2,0,P|95:194|79:282,1,180,2|2,0:0|0:0,0:0:0:0:
145,368,12089,1,8,0:0:0:0:
228,299,12537,6,0,L|287:231,1,90,2|8,0:0|0:0,0:0:0:0:
391,261,13432,2,0,L|409:173,1,90,2|8,0:0|0:0,0:0:0:0:
361,76,14328,2,0,B|314:50|272:70|236:85|184:69,1,180,2|2,0:0|0:0,0:0:0:0:
98,135,15671,1,8,0:0:0:0:
152,228,16119,6,0,B|210:247|229:312|229:312|288:300,1,180,2|2,0:0|0:0,0:0:0:0:
391,265,17462,1,8,0:0:0:0:
457,179,17910,2,0,P|373:157|297:211,1,180,2|4,0:0|0:0,0:0:0:0:
285,314,19253,1,8,0:0:0:0:
185,271,19701,6,0,B|175:221|131:202|131:202|108:156|128:115,1,180,4|0,0:0|0:0,0:0:0:0:
213,49,21044,1,8,0:0:0:0:
304,103,21492,2,0,P|369:116|435:104,2,135,0|0|8,0:0|0:0|0:0,0:0:0:0:
202,140,23283,6,0,P|179:178|170:222,1,90,0|8,0:0|0:0,0:0:0:0:
63,236,24178,2,0,P|75:278|106:311,1,90,0|8,0:0|0:0,0:0:0:0:
214,317,25074,2,0,L|340:270,2,135,0|0|8,0:0|0:0|0:0,0:0:0:0:
131,244,26865,6,0,P|104:161|137:79,1,180,0|0,0:0|0:0,0:0:0:0:
241,107,28208,1,8,0:0:0:0:
339,66,28656,2,0,P|384:60|425:76,1,90,0|8,0:0|0:0,0:0:0:0:
372,169,29552,2,0,P|376:236|418:287,2,135,0|0|8,0:0|0:0|0:0,0:0:0:0:
278,116,31343,6,0,L|217:182,1,90,0|8,0:0|0:0,0:0:0:0:
275,274,32238,2,0,L|245:359,2,90,0|8|4,0:0|0:0|0:0,0:0:0:0:
177,227,33581,1,8,0:0:0:0:
96,152,34029,6,0,P|132:125|176:118,1,90,4|8,0:0|0:0,0:0:0:0:
278,150,34925,2,0,P|322:140|358:114,1,90,0|8,0:0|0:0,0:0:0:0:
436,39,35820,2,0,P|483:87|490:152,2,135,0|0|8,0:0|0:0|0:0,0:0:0:0:
383,133,37611,6,0,P|294:146|205:134,1,180,0|0,0:0|0:0,0:0:0:0:
119,67,38955,1,8,0:0:0:0:
68,163,39402,2,0,B|57:212|76:242|76:242|59:292,2,135,0|0|8,0:0|0:0|0:0,0:0:0:0:
172,190,41193,6,0,P|190:150|224:121,1,90,0|8,0:0|0:0,0:0:0:0:
330,144,42089,2,0,P|311:184|277:213,1,90,0|8,0:0|0:0,0:0:0:0:
172,191,42984,1,0,0:0:0:0:
101,109,43432,1,8,0:0:0:0:
189,47,43880,2,0,P|243:53|291:42,1,90,0|8,0:0|0:0,0:0:0:0:
256,192,44552,12,0,46119,0:0:0:0:
257,191,47014,6,0,L|324:131,2,90,8|8|8,0:0|0:0|0:0,0:0:0:0:
249,299,48358,6,0,P|170:263|146:180,1,180,4|0,0:0|0:0,0:0:0:0:
179,77,49701,1,8,0:0:0:0:
283,101,50149,2,0,P|347:120|411:101,1,135,2|2,0:0|0:0,0:0:0:0:
459,197,51268,6,0,P|400:227|369:285,1,135,2|2,0:0|0:0,0:0:0:0:
206,292,52611,2,0,P|182:226|231:156,1,135,2|8,0:0|0:0,0:0:0:0:
317,170,53731,2,0,P|343:229|319:291,2,135,2|2|8,0:0|0:0|0:0,0:0:0:0:
209,156,55522,6,0,P|149:188|82:188,2,135,4|2|8,0:0|0:0|0:0,0:0:0:0:
317,156,57313,2,0,P|377:124|444:124,2,135,2|2|8,0:0|0:0|0:0,0:0:0:0:
256,192,59104,12,4,60895,0:0:0:0:
311,192,62686,6,0,P|376:205|435:175,2,135,4|0|8,0:0|0:0|0:0,0:0:0:0:
201,192,64477,2,0,P|136:205|77:175,2,135,0|0|8,0:0|0:0|0:0,0:0:0:0:
150,96,66268,6,0,P|184:69|228:58,1,90,0|8,0:0|0:0,0:0:0:0:
277,81,66940,2,0,P|331:121|398:127,1,135,0|8,0:0|0:0,0:0:0:0:
442,227,68059,2,0,P|425:293|428:360,2,135,0|0|8,0:0|0:0|0:0,0:0:0:0:
334,206,69850,6,0,P|298:181|285:139,1,90,0|8,0:0|0:0,0:0:0:0:
266,87,70522,2,0,P|234:146|174:175,1,135,0|8,0:0|0:0,0:0:0:0:
177,282,71641,2,0,P|237:312|269:370,2,135,0|0|0,0:0|0:0|0:0,0:0:0:0:
68,282,73432,6,0,P|15:187|130:101,1,270,0|8,0:0|0:0,0:0:0:0:
177,100,74999,6,0,P|237:70|269:12,1,135,12|8,0:0|0:0,0:0:0:0:
373,42,76119,1,0,0:0:0:0:
398,147,76567,1,8,0:0:0:0:
327,228,77014,6,0,P|260:222|193:228,2,135,4|0|8,0:0|0:0|0:0,0:0:0:0:
351,123,78805,2,0,P|419:128|486:121,2,135,0|0|8,0:0|0:0|0:0,0:0:0:0:
277,43,80596,6,0,P|249:77|244:121,1,90,0|8,0:0|0:0,0:0:0:0:
258,172,81268,2,0,P|269:238|246:301,1,135,0|8,0:0|0:0,0:0:0:0:
141,278,82387,2,0,P|77:258|13:277,2,135,0|0|8,0:0|0:0|0:0,0:0:0:0:
222,206,84178,6,0,P|254:176|265:133,1,90,4|8,0:0|0:0,0:0:0:0:
257,79,84850,2,0,L|355:171,1,135,0|8,0:0|0:0,0:0:0:0:
371,277,85970,2,0,P|327:267|283:277,1,90,0|8,0:0|0:0,0:0:0:0:
229,277,86641,2,0,P|186:268|142:277,1,90
90,291,87313,1,8,0:0:0:0:
256,192,87537,12,0,89104,0:0:0:0:
