osu file format v12

[General]
AudioFilename: Nanairo Biyori (TV Size).mp3
AudioLeadIn: 0
PreviewTime: 62494
Countdown: 0
SampleSet: Soft
StackLeniency: 0.7
Mode: 0
LetterboxInBreaks: 0
WidescreenStoryboard: 1

[Editor]
DistanceSpacing: 1.2
BeatDivisor: 4
GridSize: 4

[Metadata]
Title:Nanairo Biyori (TV Ver.)
TitleUnicode:Nanairo Biyori (TV Ver.)
Artist:nano.RIPE
ArtistUnicode:nano.RIPE
Creator:[ Karen ]
Version:Insane
Source:Non Non Biyori
Tags:のんのんびより opening [ Zzz ] HabiHolic のんのん日和
BeatmapID:354828
BeatmapSetID:130942

[Difficulty]
HPDrainRate:7
CircleSize:4
OverallDifficulty:7
ApproachRate:8
SliderMultiplier:1.60000000596046
SliderTickRate:1

[Events]
//Background and Video events
0,0,"BG.jpg",0,0
Video,0,"biyori.avi"
//Break Periods
//Storyboard Layer 0 (Background)
//Storyboard Layer 1 (Fail)
//Storyboard Layer 2 (Pass)
//Storyboard Layer 3 (Foreground)
//Storyboard Sound Samples
//Background Colour Transformations
3,100,163,162,255

[TimingPoints]
5181,447.761194029851,4,2,3,70,1,0
19509,-100,4,2,3,50,0,0
48166,-100,4,2,3,50,0,0
56897,-80,4,2,3,50,0,0
58016,-100,4,2,3,50,0,0
61151,-100,4,2,0,50,0,0
62494,-100,4,2,3,85,0,1
87345,-100,4,2,3,50,0,0
89360,-100,4,2,3,5,0,0

[HitObjects]
328,80,5180,6,0,P|400:112|472:80,2,160.000000596046,4|8|0,0:0|0:0|0:0,0:0:0:0:
232,124,6300,2,0,L|152:124,2,80.000000298023,0|8|0,0:0|0:0|0:0,0:0:0:0:
172,40,6972,2,0,B|118:40|118:40|72:68|16:40,1,160.000000596046,0|8,0:0|0:0,0:0:0:0:
152,124,7643,1,0,0:0:0:0:
152,124,7755,1,0,0:0:0:0:
152,124,7867,2,0,L|152:220,1,80.000000298023
112,292,8315,2,0,P|152:300|192:292,1,80.000000298023,8|0,0:0|0:0,0:0:0:0:
248,216,8763,6,0,P|320:184|392:216,1,160.000000596046,0|8,0:0|0:0,0:0:0:0:
320,280,9434,1,0,0:0:0:0:
320,280,9546,1,0,0:0:0:0:
320,280,9658,2,0,P|287:304|247:313,1,80.000000298023
248,216,10106,2,0,P|243:175|254:136,1,80.000000298023,8|0,0:0|0:0,0:0:0:0:
320,280,10554,2,0,P|268:339|189:340,1,160.000000596046,0|8,0:0|0:0,0:0:0:0:
248,216,11225,1,0,0:0:0:0:
248,216,11337,1,0,0:0:0:0:
248,216,11449,2,0,P|188:164|187:85,1,160.000000596046,0|8,0:0|0:0,0:0:0:0:
120,276,12345,6,0,P|197:274|248:215,1,160.000000596046,4|8,0:0|0:0,0:0:0:0:
276,124,13016,1,0,0:0:0:0:
276,124,13128,1,0,0:0:0:0:
276,124,13240,2,0,L|372:124,1,80.000000298023
476,232,13688,2,0,L|396:232,1,80.000000298023,8|0,0:0|0:0,0:0:0:0:
276,124,14136,2,0,B|229:150|229:150|203:198|140:202,1,160.000000596046,0|8,0:0|0:0,0:0:0:0:
148,108,14807,1,0,0:0:0:0:
148,108,14919,1,0,0:0:0:0:
148,108,15031,2,0,L|99:24,1,80.000000298023
292,200,15479,2,0,L|340:283,1,80.000000298023,8|0,0:0|0:0,0:0:0:0:
388,348,15927,6,0,P|466:339|512:276,1,160.000000596046,0|8,0:0|0:0,0:0:0:0:
416,260,16598,1,0,0:0:0:0:
416,260,16710,1,0,0:0:0:0:
416,260,16822,2,0,P|424:181|488:135,1,160.000000596046,0|8,0:0|0:0,0:0:0:0:
508,228,17494,1,0,0:0:0:0:
416,260,17718,2,0,P|336:276|260:260,2,160.000000596046,0|8|4,0:0|0:0|0:0,0:0:0:0:
512,176,18837,1,0,0:0:0:0:
396,128,19061,1,8,0:0:0:0:
367,136,19172,1,0,0:0:0:0:
337,140,19284,1,0,0:0:0:0:
307,136,19396,1,0,0:0:0:0:
279,128,19509,6,0,P|239:120|199:128,1,80.000000298023,4|0,0:0|0:0,0:0:0:0:
200,283,19957,2,0,P|226:253|240:216,1,80.000000298023,8|0,0:0|0:0,0:0:0:0:
144,208,20404,2,0,P|80:161|72:83,1,160.000000596046,0|8,0:0|0:0,3:0:0:0:
164,116,21076,1,0,0:0:0:0:
232,184,21300,6,0,P|272:192|312:184,1,80.000000298023
272,96,21748,1,8,0:0:0:0:
316,260,21972,1,0,0:0:0:0:
316,260,22083,1,0,0:0:0:0:
316,260,22195,2,0,P|324:300|316:340,1,80.000000298023
232,184,22643,2,0,P|224:144|232:104,1,80.000000298023,8|0,0:0|0:0,0:0:0:0:
320,144,23091,6,0,B|373:144|373:144|420:172|476:144,1,160.000000596046,0|8,0:0|0:0,0:0:0:0:
424,64,23763,1,0,0:0:0:0:
496,232,23986,2,0,P|424:256|344:232,1,160.000000596046,0|8,0:0|0:0,0:0:0:0:
260,188,24658,1,0,0:0:0:0:
192,120,24882,6,0,P|152:112|112:120,1,80.000000298023
20,240,25330,2,0,P|60:248|100:240,1,80.000000298023,8|0,0:0|0:0,0:0:0:0:
120,232,25666,1,0,0:0:0:0:
144,228,25778,2,0,P|184:220|224:228,1,80.000000298023
296,288,26225,1,8,0:0:0:0:
192,120,26449,1,0,0:0:0:0:
392,120,26673,6,0,P|430:106|461:80,1,80.000000298023
344,204,27121,2,0,P|336:243|344:283,1,80.000000298023,8|0,0:0|0:0,0:0:0:0:
296,120,27569,2,0,P|256:112|216:120,2,80.000000298023,0|0|8,0:0|0:0|0:0,0:0:0:0:
344,204,28240,1,0,0:0:0:0:
448,352,28464,6,0,P|456:312|447:272,1,80.000000298023
360,312,28912,1,8,0:0:0:0:
288,248,29136,1,0,0:0:0:0:
288,248,29248,1,0,0:0:0:0:
288,248,29360,2,0,P|248:256|208:247,1,80.000000298023
252,164,29807,1,8,0:0:0:0:
252,164,30031,6,0,P|260:85|324:39,1,160.000000596046
344,132,30703,2,0,L|205:52,1,160.000000596046,8|0,0:0|0:0,0:0:0:0:
124,104,31375,1,0,0:0:0:0:
124,104,31598,1,8,0:0:0:0:
124,104,32046,6,0,P|132:143|123:183,1,80.000000298023
228,304,32494,2,0,P|220:264|228:224,1,80.000000298023,8|0,0:0|0:0,0:0:0:0:
248,192,32830,1,0,0:0:0:0:
248,192,32942,1,4,0:0:0:0:
316,260,33166,1,0,0:0:0:0:
408,204,33389,1,8,0:0:0:0:
419,176,33500,1,0,0:0:0:0:
423,146,33612,1,0,0:0:0:0:
420,117,33724,1,0,0:0:0:0:
409,90,33837,6,0,P|401:50|409:10,1,80.000000298023,4|0,0:0|0:0,0:0:0:0:
304,112,34285,2,0,P|312:151|303:191,1,80.000000298023,8|0,0:0|0:0,0:0:0:0:
228,248,34733,2,0,P|188:256|148:247,2,80.000000298023,0|0|8,0:0|0:0|0:0,0:0:0:0:
188,160,35404,1,0,0:0:0:0:
228,248,35628,6,0,P|220:287|228:327,1,80.000000298023
288,172,36076,1,8,0:0:0:0:
132,240,36300,1,0,0:0:0:0:
132,240,36411,1,0,0:0:0:0:
132,240,36524,2,0,L|52:240,1,80.000000298023
288,172,36971,2,0,L|384:172,1,80.000000298023,8|0,0:0|0:0,0:0:0:0:
464,172,37419,6,0,P|496:244|464:316,1,160.000000596046,0|8,0:0|0:0,0:0:0:0:
368,316,38091,2,0,L|208:316,1,160.000000596046
140,248,38763,2,0,P|132:208|140:168,1,80.000000298023,8|0,0:0|0:0,0:0:0:0:
276,72,39210,6,0,P|284:111|275:151,1,80.000000298023
140,328,39658,2,0,P|132:288|140:248,1,80.000000298023,8|0,0:0|0:0,0:0:0:0:
172,228,39994,1,0,0:0:0:0:
212,236,40106,2,0,L|308:236,1,80.000000298023
384,208,40553,1,8,0:0:0:0:
276,72,40777,1,0,0:0:0:0:
172,228,41001,6,0,P|132:236|92:227,1,80.000000298023
208,104,41449,2,0,P|247:96|287:104,1,80.000000298023,8|0,0:0|0:0,0:0:0:0:
384,208,41897,2,0,P|423:216|463:207,2,80.000000298023,0|0|8,0:0|0:0|0:0,0:0:0:0:
284,176,42568,1,0,0:0:0:0:
208,104,42792,6,0,L|112:104,1,80.000000298023
24,148,43240,1,8,0:0:0:0:
112,220,43464,1,0,0:0:0:0:
112,220,43576,1,0,0:0:0:0:
112,220,43688,2,0,P|151:228|191:219,1,80.000000298023
280,188,44135,1,8,0:0:0:0:
264,284,44360,6,0,P|198:322|115:315,1,160.000000596046
280,188,45031,2,0,P|345:149|428:156,1,160.000000596046,8|0,0:0|0:0,0:0:0:0:
372,244,45703,1,0,0:0:0:0:
372,244,45926,1,8,0:0:0:0:
372,244,46375,6,0,P|364:283|373:323,1,80.000000298023
496,208,46822,2,0,P|504:169|495:129,1,80.000000298023,8|4,0:0|0:0,0:0:0:0:
468,100,47158,1,0,0:0:0:0:
468,100,47270,1,0,0:0:0:0:
396,164,47494,1,0,0:0:0:0:
332,28,47718,1,8,0:0:0:0:
305,41,47829,1,0,0:0:0:0:
282,60,47941,1,0,0:0:0:0:
263,84,48053,1,0,0:0:0:0:
250,111,48166,6,0,P|204:218|97:263,2,240.000000894069,4|0|8,0:0|0:0|0:0,0:0:0:0:
250,111,49733,1,0,0:0:0:0:
340,192,49957,2,0,P|312:266|246:311,1,160.000000596046,0|8,0:0|0:0,0:0:0:0:
276,112,50628,2,0,P|353:98|425:131,1,160.000000596046
236,208,51300,1,8,0:0:0:0:
340,192,51524,6,0,P|413:220|441:293,1,160.000000596046
344,288,52195,2,0,L|457:174,1,160.000000596046,8|0,0:0|0:0,0:0:0:0:
440,80,52867,1,0,0:0:0:0:
440,80,53091,1,8,0:0:0:0:
148,268,53539,6,0,P|92:284|32:268,2,120.000000447034,0|8|0,0:0|0:0|0:0,0:0:0:0:
92,188,54434,1,0,0:0:0:0:
92,188,54658,2,0,P|79:150|51:120,1,80.000000298023,0|8,0:0|0:0,0:0:0:0:
188,180,55106,6,0,P|264:196|344:180,2,160.000000596046
140,96,56225,1,0,0:0:0:0:
236,96,56449,2,0,P|275:104|315:95,1,80.000000298023,0|8,0:0|0:0,0:0:0:0:
432,72,56897,6,0,P|483:157|481:257,2,200.000000745057
314,84,58016,1,0,0:0:0:0:
313,83,58240,2,0,P|274:92|236:84,1,80.000000298023,0|8,0:0|0:0,0:0:0:0:
256,192,58688,12,4,60703,0:0:0:0:
256,192,61151,5,2,0:0:0:0:
256,176,61598,1,2,0:0:0:0:
256,160,62046,2,0,L|256:80,1,80.000000298023,2|0,0:0|0:0,0:0:0:0:
340,32,62494,6,0,P|368:105|441:133,1,160.000000596046,4|8,0:0|0:0,0:0:0:0:
442,230,63166,2,0,P|368:258|340:331,1,160.000000596046
436,324,63837,1,8,0:0:0:0:
260,224,64061,6,0,L|203:167,1,80.000000298023
20,160,64509,2,0,L|76:216,1,80.000000298023,0|8,0:0|0:0,0:0:0:0:
260,224,64957,1,0,0:0:0:0:
20,160,65181,1,0,0:0:0:0:
20,160,65292,1,0,0:0:0:0:
20,160,65404,1,0,0:0:0:0:
204,168,65628,6,0,P|237:146|259:111,1,80.000000298023,8|0,0:0|0:0,0:0:0:0:
204,32,66076,2,0,B|260:4|306:32|306:32|360:32,1,160.000000596046,0|8,0:0|0:0,0:0:0:0:
204,168,66748,2,0,B|150:168|150:168|104:196|48:168,1,160.000000596046
100,88,67419,5,8,0:0:0:0:
100,88,67643,1,0,0:0:0:0:
204,168,67867,2,0,L|284:168,1,80.000000298023
456,272,68315,2,0,L|376:272,1,80.000000298023,8|0,0:0|0:0,0:0:0:0:
204,168,68763,1,0,0:0:0:0:
204,168,68875,1,0,0:0:0:0:
204,168,68986,1,0,0:0:0:0:
376,272,69210,5,8,0:0:0:0:
376,272,69434,2,0,P|344:200|376:128,1,160.000000596046
340,40,70106,1,8,0:0:0:0:
264,100,70330,2,0,L|104:100,1,160.000000596046
36,168,71001,1,8,0:0:0:0:
112,228,71225,6,0,L|139:303,1,80.000000298023
279,321,71673,2,0,L|228:260,1,80.000000298023,0|8,0:0|0:0,0:0:0:0:
356,260,72121,2,0,L|425:300,1,80.000000298023
464,288,72457,1,0,0:0:0:0:
464,288,72569,1,0,0:0:0:0:
448,114,72792,1,8,0:0:0:0:
448,114,73016,6,0,P|439:153|448:192,1,80.000000298023
300,52,73464,2,0,P|339:60|379:51,1,80.000000298023,0|8,0:0|0:0,0:0:0:0:
176,80,73912,1,0,0:0:0:0:
176,80,74024,1,0,0:0:0:0:
176,80,74136,1,0,0:0:0:0:
104,176,74360,2,0,L|104:256,1,80.000000298023,0|8,0:0|0:0,0:0:0:0:
188,304,74807,2,0,P|260:336|332:304,1,160.000000596046,4|0,0:0|0:0,0:0:0:0:
408,248,75479,5,8,0:0:0:0:
408,248,75591,1,0,0:0:0:0:
408,248,75703,1,0,0:0:0:0:
308,112,75927,1,8,0:0:0:0:
284,130,76038,1,0,0:0:0:0:
258,144,76150,1,0,0:0:0:0:
229,153,76262,1,0,0:0:0:0:
199,155,76374,1,8,0:0:0:0:
169,152,76486,1,0,0:0:0:0:
141,144,76598,1,0,0:0:0:0:
114,130,76710,1,0,0:0:0:0:
92,112,76822,6,0,P|60:184|92:256,1,160.000000596046,4|8,0:0|0:0,0:0:0:0:
176,296,77494,1,0,0:0:0:0:
96,112,77718,1,0,0:0:0:0:
96,112,77830,1,0,0:0:0:0:
96,112,77942,1,0,0:0:0:0:
176,296,78165,5,8,0:0:0:0:
176,296,78389,2,0,L|256:296,1,80.000000298023
412,168,78837,2,0,L|332:168,1,80.000000298023,0|8,0:0|0:0,0:0:0:0:
176,296,79285,1,0,0:0:0:0:
332,168,79509,1,0,0:0:0:0:
332,168,79620,1,0,0:0:0:0:
332,168,79732,1,0,0:0:0:0:
176,296,79957,6,0,P|137:304|97:295,1,80.000000298023,8|0,0:0|0:0,0:0:0:0:
240,220,80404,2,0,P|303:265|312:342,1,160.000000596046,0|8,0:0|0:0,0:0:0:0:
140,208,81076,2,0,P|147:130|209:83,1,160.000000596046
240,220,81747,5,8,0:0:0:0:
240,220,81971,1,0,0:0:0:0:
380,140,82195,2,0,P|387:101|379:62,1,80.000000298023
240,220,82643,2,0,P|232:258|240:297,1,80.000000298023,8|0,0:0|0:0,0:0:0:0:
380,140,83091,1,0,0:0:0:0:
380,140,83203,1,0,0:0:0:0:
380,140,83314,1,0,0:0:0:0:
240,220,83538,1,8,0:0:0:0:
240,220,83986,6,2,P|166:248|138:321,1,160.000000596046,4|8,0:0|0:0,0:0:0:0:
236,316,84658,2,0,L|122:202,1,160.000000596046
140,108,85330,1,8,0:0:0:0:
140,108,85778,6,0,P|216:124|296:108,1,160.000000596046,0|8,0:0|0:0,0:0:0:0:
384,68,86449,2,0,P|391:106|383:145,1,80.000000298023,0|4,0:0|0:0,0:0:0:0:
452,244,86897,1,0,0:0:0:0:
472,222,87008,1,0,0:0:0:0:
486,195,87120,1,8,0:0:0:0:
493,166,87232,1,0,0:0:0:0:
491,136,87344,1,4,0:0:0:0:
256,192,87457,12,0,89360,0:0:0:0:
