osu file format v12

[General]
AudioFilename: Nanairo Biyori (TV Size).mp3
AudioLeadIn: 0
PreviewTime: 62494
Countdown: 0
SampleSet: Soft
StackLeniency: 0.7
Mode: 0
LetterboxInBreaks: 0
WidescreenStoryboard: 1

[Editor]
DistanceSpacing: 1.3
BeatDivisor: 2
GridSize: 4

[Metadata]
Title:Nanairo Biyori (TV Ver.)
TitleUnicode:Nanairo Biyori (TV Ver.)
Artist:nano.RIPE
ArtistUnicode:nano.RIPE
Creator:[ Karen ]
Version:Easy
Source:Non Non Biyori
Tags:のんのんびより opening [ Zzz ] HabiHolic のんのん日和
BeatmapID:334548
BeatmapSetID:130942

[Difficulty]
HPDrainRate:2
CircleSize:3
OverallDifficulty:2
ApproachRate:3
SliderMultiplier:0.94
SliderTickRate:1

[Events]
//Background and Video events
Video,0,"biyori.avi"
0,0,"BG.jpg",0,0
//Break Periods
//Storyboard Layer 0 (Background)
//Storyboard Layer 1 (Fail)
//Storyboard Layer 2 (Pass)
//Storyboard Layer 3 (Foreground)
//Storyboard Sound Samples
//Background Colour Transformations
3,100,163,162,255

[TimingPoints]
5181,447.761194029851,4,2,0,40,1,0
62494,-100,4,2,0,65,0,1
87345,-100,4,2,0,65,0,0

[HitObjects]
44,148,5180,2,0,L|0:60,2,94,0|2|0,0:0|0:0|0:0,0:0:0:0:
84,264,6524,1,2,0:0:0:0:
200,224,6972,2,0,L|312:240,1,94,0|2,0:0|0:0,0:0:0:0:
232,344,7867,1,0,0:0:0:0:
356,340,8315,1,2,0:0:0:0:
460,276,8763,6,0,P|496:228|504:188,1,94,0|2,0:0|0:0,0:0:0:0:
384,172,9658,2,0,P|328:152|300:116,1,94,0|2,0:0|0:0,0:0:0:0:
196,72,10554,1,0,0:0:0:0:
76,96,11001,2,0,P|12:196|12:272,1,188,2|2,0:0|0:0,0:0:0:0:
116,324,12345,5,0,0:0:0:0:
200,236,12792,1,2,0:0:0:0:
304,300,13240,2,0,P|356:264|364:232,1,94,0|2,0:0|0:0,0:0:0:0:
276,152,14136,1,0,0:0:0:0:
184,72,14583,2,0,P|272:40|356:80,1,188,2|2,0:0|0:0,0:0:0:0:
256,192,15927,12,0,18613,0:0:0:0:
132,220,19509,6,0,L|72:148,2,94,4|2|0,0:0|0:0|0:0,0:0:0:0:
224,300,20852,1,2,0:0:0:0:
320,224,21300,1,0,0:0:0:0:
424,288,21748,2,0,P|500:212|504:124,1,188,2|2,0:0|0:0,0:0:0:0:
408,64,23091,6,0,P|364:96|316:96,1,94,0|2,0:0|0:0,0:0:0:0:
216,44,23986,2,0,P|169:49|133:78,1,94,0|2,0:0|0:0,0:0:0:0:
60,176,24882,1,0,0:0:0:0:
152,256,25330,2,0,P|252:280|332:256,1,188,2|2,0:0|0:0,0:0:0:0:
420,172,26673,6,0,L|488:248,2,94,0|2|0,0:0|0:0|0:0,0:0:0:0:
316,236,28016,1,2,0:0:0:0:
212,172,28464,2,0,L|116:172,2,94,0|2|0,0:0|0:0|0:0,0:0:0:0:
292,80,29807,2,0,P|372:128|384:216,1,188,2|2,0:0|0:0,0:0:0:0:
256,192,31151,12,2,32942,0:0:0:0:
64,100,33837,6,0,P|68:260|108:284,1,188,4|0,0:0|0:0,0:0:0:0:
156,172,35181,1,2,0:0:0:0:
244,256,35628,2,0,P|328:292|416:252,1,188
464,144,36972,1,2,0:0:0:0:
412,256,37419,6,0,P|424:300|476:340,2,94
336,352,38763,1,2,0:0:0:0:
232,288,39210,2,0,P|182:289|148:324,2,94
336,224,40554,1,2,0:0:0:0:
424,140,41001,6,0,P|384:48|292:40,1,188
292,156,42345,1,2,0:0:0:0:
184,100,42792,2,0,P|92:100|44:176,1,188
56,296,44136,1,2,0:0:0:0:
256,192,44583,12,4,47046,0:0:0:0:
24,104,48166,6,4,P|96:220|252:240,1,282,6|0,0:0|0:0,0:0:0:0:
328,172,49957,2,0,L|465:141,2,141,0|2|0,0:0|0:0|0:0,0:0:0:0:
216,128,51748,2,0,P|280:64|376:60,1,188
476,124,53091,1,2,0:0:0:0:
460,244,53539,2,0,P|396:308|300:312,1,188
248,204,54882,5,2,0:0:0:0:
128,232,55330,2,4,L|32:128,2,141,4|2|2,0:0|0:0|0:0,0:0:0:0:
224,156,57121,2,0,P|312:116|472:204,1,282,0|2,0:0|0:0,0:0:0:0:
256,192,58912,12,4,60703,0:0:0:0:
328,60,62494,1,6,0:0:0:0:
328,60,62942,2,0,P|240:88|152:52,1,188,8|8,0:0|0:0,0:0:0:0:
76,148,64285,2,0,L|16:72,2,94,0|8|0,0:0|0:0|0:0,0:0:0:0:
188,200,65628,1,8,0:0:0:0:
300,248,66076,6,0,P|380:192|392:160,2,94,4|8|0,0:0|0:0|0:0,0:0:0:0:
232,348,67419,2,0,L|44:368,1,188,8|8,0:0|0:0,0:0:0:0:
4,252,68763,1,0,0:0:0:0:
96,172,69210,6,0,P|130:136|144:84,2,94,8|4|8,0:0|0:0|0:0,0:0:0:0:
120,292,70554,1,0,0:0:0:0:
200,200,71001,2,0,P|284:136|364:144,1,188,8|8,0:0|0:0,0:0:0:0:
436,240,72345,1,0,0:0:0:0:
496,132,72792,2,0,L|464:12,2,94,8|0|8,0:0|0:0|0:0,0:0:0:0:
376,120,74136,1,0,0:0:0:0:
300,216,74583,1,8,0:0:0:0:
420,240,75031,5,0,0:0:0:0:
420,240,75479,2,0,L|384:328,2,94,2|2|0,0:0|0:0|0:0,0:0:0:0:
500,148,76822,2,0,P|416:112|328:140,1,188,4|0,0:0|0:0,0:0:0:0:
256,240,78166,1,8,0:0:0:0:
176,148,78613,2,0,L|80:112,2,94,0|8|0,0:0|0:0|0:0,0:0:0:0:
296,172,79957,5,8,0:0:0:0:
380,84,80404,2,0,P|240:40|124:112,1,282,4|8,0:0|0:0,0:0:0:0:
60,204,82195,2,0,P|32:244|20:292,2,94,0|8|0,0:0|0:0|0:0,0:0:0:0:
132,104,83539,1,8,0:0:0:0:
252,84,83986,2,0,P|388:112|452:232,1,282,4|8,0:0|0:0,0:0:0:0:
328,224,85778,2,0,P|182:172|87:293,1,329,0|4,0:0|0:0,0:0:0:0:
