osu file format v12

[General]
AudioFilename: Bakuman 3 Opening 1.mp3
AudioLeadIn: 0
PreviewTime: 60510
Countdown: 0
SampleSet: Soft
StackLeniency: 0.7
Mode: 0
LetterboxInBreaks: 0
WidescreenStoryboard: 1

[Editor]
DistanceSpacing: 1.3
BeatDivisor: 4
GridSize: 4
TimelineZoom: 2

[Metadata]
Title:Moshimo no Hanashi (TV Size)
TitleUnicode:もしもの話 (TV Size)
Artist:nano.RIPE
ArtistUnicode:nano.RIPE
Creator:- Tu -
Version:Insane
Source:Bakuman 3
Tags:happy623 Kawaiwkyik Foreverends
BeatmapID:376034
BeatmapSetID:106601

[Difficulty]
HPDrainRate:6
CircleSize:4
OverallDifficulty:6
ApproachRate:9
SliderMultiplier:1.8
SliderTickRate:1

[Events]
//Background and Video events
0,0,"bakuman_4.jpg",0,0
//Break Periods
//Storyboard Layer 0 (Background)
//Storyboard Layer 1 (Fail)
//Storyboard Layer 2 (Pass)
//Storyboard Layer 3 (Foreground)
//Storyboard Sound Samples
//Background Colour Transformations
3,100,0,0,0

[TimingPoints]
446,315.789473684211,4,2,1,60,1,0
446,-133.333333333333,4,2,1,60,0,0
761,-100,4,2,1,60,0,0
2340,-133.333333333333,4,2,1,60,0,0
2656,-100,4,2,1,60,0,0
40552,-200,4,2,1,60,0,0
50657,-133.333333333333,4,2,1,60,0,0
55709,-100,4,2,1,60,0,0
60762,-100,4,2,1,60,0,1
86657,-200,4,2,1,60,0,0
86973,-133.333333333333,4,2,1,60,0,0
87920,-100,4,2,1,60,0,0

[Colours]
Combo1 : 240,240,240
Combo2 : 255,255,128
Combo3 : 0,128,255
Combo4 : 255,128,192
Combo5 : 255,128,64

[HitObjects]
88,112,446,6,0,P|168:88|244:96,1,135.000005149842
432,200,1077,1,0,0:0:0:0:
280,328,1393,1,0,0:0:0:0:
88,280,1709,1,0,0:0:0:0:
240,152,2025,1,0,0:0:0:0:
236,4,2340,2,0,P|332:36|356:88,1,135.000005149842
452,188,2973,5,0,0:0:0:0:
424,348,3288,1,0,0:0:0:0:
296,248,3604,2,0,B|356:240|356:240|352:172|408:140,1,180
492,64,4236,2,0,P|504:160|424:236,1,180
268,132,4867,1,0,0:0:0:0:
72,100,5182,1,0,0:0:0:0:
144,284,5499,6,0,P|244:304|332:244,1,180
464,84,6130,2,0,P|368:84|293:120,1,180
293,120,6761,1,0,0:0:0:0:
293,120,7077,1,0,0:0:0:0:
50,216,7394,2,0,B|120:216|120:216|128:272|195:285,1,180
461,216,8025,2,0,B|392:216|392:216|384:272|316:285,1,180,0|0,0:0|0:0,0:0:0:0:
44,284,8657,2,0,P|140:312|205:359,1,180
461,279,9289,2,0,P|375:253|301:204,1,180
301,204,9919,1,0,0:0:0:0:
301,204,10235,1,0,0:0:0:0:
128,160,10552,6,0,P|264:88|288:48,1,180
372,164,11025,1,0,0:0:0:0:
128,160,11182,2,0,P|213:186|276:249,1,180
452,340,11814,6,0,L|352:316,1,90
340,222,12130,2,0,L|428:244,1,90
416,144,12446,2,0,L|316:120,1,90
220,204,12761,1,0,0:0:0:0:
100,164,12919,1,0,0:0:0:0:
64,40,13078,6,0,L|152:72,1,90
208,192,13394,1,0,0:0:0:0:
64,40,13551,2,0,L|152:72,1,90
420,76,14025,2,0,P|376:96|352:148,1,90
500,112,14340,1,0,0:0:0:0:
364,216,14498,2,0,P|405:195|430:158,1,90
104,304,14972,6,0,B|172:304|172:304|204:364|288:344,1,180,0|0,0:0|0:0,0:0:0:0:
384,348,15446,2,0,P|380:296|324:256,1,90
292,168,15762,2,0,P|248:204|248:276,1,90
108,288,16077,1,0,0:0:0:0:
136,144,16236,2,0,P|184:104|228:-4,1,180
388,52,16709,5,0,0:0:0:0:
432,160,16867,1,0,0:0:0:0:
352,244,17024,1,0,0:0:0:0:
400,348,17182,1,0,0:0:0:0:
160,292,17340,5,0,0:0:0:0:
160,292,17419,1,0,0:0:0:0:
160,292,17499,2,0,P|64:256|32:160,1,180
72,60,17973,1,0,0:0:0:0:
144,176,18131,1,0,0:0:0:0:
212,60,18288,1,0,0:0:0:0:
288,176,18446,2,0,P|352:104|456:108,2,180
400,212,19236,1,0,0:0:0:0:
432,324,19393,2,0,P|344:313|289:245,1,180
172,228,19868,2,0,P|164:188|124:156,1,90
208,72,20183,1,0,0:0:0:0:
376,184,20341,5,0,0:0:0:0:
376,184,20419,1,0,0:0:0:0:
376,184,20499,1,0,0:0:0:0:
284,328,20657,2,0,P|200:312|124:240,1,180
68,60,21288,1,0,0:0:0:0:
256,8,21604,2,0,P|360:24|416:96,1,180
292,144,22078,1,0,0:0:0:0:
208,232,22236,1,0,0:0:0:0:
92,156,22552,6,0,P|55:237|92:316,1,180
220,360,23025,1,0,0:0:0:0:
344,308,23183,6,0,P|384:260|396:196,1,90
396,100,23499,1,0,0:0:0:0:
256,104,23657,1,0,0:0:0:0:
132,160,23815,2,0,P|120:116|124:72,2,90
232,244,24288,2,0,P|184:300|128:308,1,90
256,132,24603,1,0,0:0:0:0:
256,32,24762,5,0,0:0:0:0:
256,32,25077,2,0,P|181:52|112:128,1,180
372,200,25709,2,0,P|396:88|364:24,1,180
216,208,26340,1,0,0:0:0:0:
436,284,26656,1,0,0:0:0:0:
208,340,26973,2,0,P|122:300|82:228,1,180
144,56,27604,5,0,0:0:0:0:
368,104,27920,1,0,0:0:0:0:
144,136,28236,1,0,0:0:0:0:
368,184,28552,1,0,0:0:0:0:
144,216,28867,2,0,L|260:200,2,90
324,68,29498,1,0,0:0:0:0:
424,4,29657,1,0,0:0:0:0:
480,120,29815,2,0,P|448:236|368:288,1,180
288,276,30289,1,0,0:0:0:0:
256,160,30446,5,0,0:0:0:0:
256,160,30604,1,0,0:0:0:0:
256,160,30762,2,0,P|256:240|192:312,1,180
192,312,31394,1,0,0:0:0:0:
136,192,31552,1,0,0:0:0:0:
4,204,31709,2,0,P|56:284|156:312,1,180
360,296,32341,6,0,P|420:192|400:112,1,180,0|0,0:0|0:0,0:0:0:0:
208,40,32973,2,0,P|160:64|128:120,2,90
276,136,33446,2,0,P|308:196|292:256,1,90
192,224,33762,2,0,P|112:208|80:172,1,90
68,68,34236,2,0,P|244:48|412:152,1,360
400,272,35025,5,0,0:0:0:0:
397,135,35182,1,0,0:0:0:0:
400,272,35341,1,0,0:0:0:0:
264,272,35499,2,0,L|192:200,1,90
92,124,35815,2,0,P|48:164|28:220,1,90
72,320,36131,1,0,0:0:0:0:
228,176,36289,1,0,0:0:0:0:
304,324,36446,2,0,P|380:240|368:140,1,180
136,56,37078,1,0,0:0:0:0:
60,188,37394,2,0,P|172:300|196:292,1,180
392,272,38024,1,0,0:0:0:0:
392,96,38341,5,0,0:0:0:0:
392,96,38499,1,0,0:0:0:0:
392,96,38657,1,0,0:0:0:0:
392,272,38973,2,0,L|328:208,1,90
292,320,39288,1,0,0:0:0:0:
152,336,39604,5,0,0:0:0:0:
216,216,39762,1,0,0:0:0:0:
96,180,39920,2,0,P|56:160|16:92,2,90
132,68,40394,1,0,0:0:0:0:
172,72,40551,5,0,0:0:0:0:
212,104,40709,2,0,L|316:104,1,90
316,152,41183,1,0,0:0:0:0:
292,192,41341,2,0,P|260:240|212:252,1,90
188,264,41815,2,0,L|176:220,1,45
156,180,42131,1,0,0:0:0:0:
120,152,42289,1,0,0:0:0:0:
76,152,42446,6,0,P|52:196|52:236,1,90
80,320,43078,2,0,L|176:320,1,90
303,249,43709,2,0,L|332:284,1,45
284,318,44024,2,0,L|256:284,1,45
352,216,44340,2,0,L|380:250,1,45
376,168,44657,2,0,B|336:144|336:144|280:144,1,90
228,24,45288,1,0,0:0:0:0:
116,84,45604,5,0,0:0:0:0:
28,76,45762,2,0,P|36:120|76:156,1,90
108,172,46235,1,0,0:0:0:0:
154,189,46394,2,0,L|102:317,1,135
128,252,47025,2,0,P|208:272|248:328,1,135
300,316,47657,1,0,0:0:0:0:
360,312,47815,1,0,0:0:0:0:
404,276,47973,1,0,0:0:0:0:
412,216,48131,2,0,L|412:156,1,45
396,116,48446,1,0,0:0:0:0:
256,56,48762,6,0,P|216:144|144:184,1,180
32,192,49709,2,0,P|76:272|176:292,1,180
344,352,50657,6,0,P|388:340|408:300,1,67.5000025749208
332,260,50973,1,0,0:0:0:0:
420,248,51131,1,0,0:0:0:0:
408,160,51288,6,0,P|392:116|368:88,1,67.5000025749208
296,168,51604,1,0,0:0:0:0:
280,80,51762,1,0,0:0:0:0:
280,80,51919,2,0,P|232:100|220:136,2,67.5000025749208
196,4,52394,2,0,L|116:4,1,67.5000025749208
52,60,52709,1,0,0:0:0:0:
72,160,52867,2,0,P|104:224|152:272,2,135.000005149842
98,167,53578,5,0,0:0:0:0:
124,174,53657,1,0,0:0:0:0:
150,180,53736,1,0,0:0:0:0:
176,186,53815,2,0,L|248:210|304:226,2,135.000005149842
161,163,54525,1,0,0:0:0:0:
144,141,54604,1,0,0:0:0:0:
129,117,54683,1,0,0:0:0:0:
117,92,54762,2,0,P|173:76|249:77,1,135.000005149842
249,77,55235,1,0,0:0:0:0:
249,77,55393,1,0,0:0:0:0:
0,224,55709,6,0,P|128:208|192:184,1,180
280,104,56183,1,0,0:0:0:0:
408,48,56341,2,0,P|432:160|480:224,1,180
376,312,56815,1,0,0:0:0:0:
224,336,56973,2,0,P|104:296|48:304,1,180
96,176,57446,1,0,0:0:0:0:
264,136,57604,2,0,P|283:130|456:112,2,180
160,272,58394,5,0,0:0:0:0:
296,272,58552,1,0,0:0:0:0:
416,216,58709,1,0,0:0:0:0:
344,104,58866,1,0,0:0:0:0:
284,104,58946,2,0,L|240:140,3,45
256,192,59262,12,0,60446,0:0:0:0:
408,96,60762,5,0,0:0:0:0:
410,133,60840,1,0,0:0:0:0:
406,170,60919,1,0,0:0:0:0:
396,206,60998,1,0,0:0:0:0:
376,232,61078,2,0,P|336:272|272:288,1,90
192,208,61394,2,0,P|232:168|264:156,1,90
264,156,61709,1,0,0:0:0:0:
60,136,61867,2,0,P|100:117|130:84,2,90
64,264,62341,5,0,0:0:0:0:
192,208,62498,1,0,0:0:0:0:
184,340,62657,2,0,P|268:316|368:312,1,180
361,313,63052,1,0,0:0:0:0:
361,313,63131,1,0,0:0:0:0:
464,224,63289,1,0,0:0:0:0:
464,224,63446,2,0,P|456:172|400:128,2,90
328,224,63920,2,0,P|208:176|152:128,1,180
84,60,64394,2,0,P|44:116|52:168,1,90
48,288,64709,5,0,0:0:0:0:
152,200,64867,2,0,P|144:252|165:288,1,90
248,320,65183,1,0,0:0:0:0:
288,304,65262,1,0,0:0:0:0:
328,280,65341,1,0,0:0:0:0:
360,248,65420,1,0,0:0:0:0:
392,216,65499,2,0,P|432:136|440:40,1,180
304,24,65973,2,0,P|256:80|256:96,1,90
392,120,66288,2,0,P|360:176|324:184,2,90
276,120,66762,6,0,P|228:184|304:264,1,180
52,236,67236,1,0,0:0:0:0:
160,272,67394,1,0,0:0:0:0:
68,352,67552,1,0,0:0:0:0:
240,224,67709,6,0,P|320:208|408:160,1,180
432,128,68104,1,0,0:0:0:0:
424,80,68183,1,0,0:0:0:0:
392,48,68262,1,0,0:0:0:0:
344,40,68341,2,0,P|264:80|168:72,1,180
64,152,68815,1,0,0:0:0:0:
72,288,68973,2,0,P|192:256|276:280,1,180
344,360,69446,1,0,0:0:0:0:
464,304,69604,6,0,P|400:192|400:120,1,180
280,80,70078,2,0,L|176:80,1,90
280,184,70394,2,0,L|160:184,2,90
304,224,70788,1,0,0:0:0:0:
336,256,70867,1,0,0:0:0:0:
376,272,70946,1,0,0:0:0:0:
424,272,71025,1,0,0:0:0:0:
464,248,71104,1,0,0:0:0:0:
480,208,71183,6,0,P|480:128|408:16,1,180
344,64,71657,2,0,P|336:116|272:152,1,90
200,64,71972,1,0,0:0:0:0:
79,31,72130,1,0,0:0:0:0:
15,135,72288,1,0,0:0:0:0:
91,230,72446,1,0,0:0:0:0:
207,185,72603,2,0,P|260:235|292:249,2,90
356,316,73078,2,0,P|444:284|468:268,1,90
440,286,73315,5,0,0:0:0:0:
440,286,73394,1,0,0:0:0:0:
424,152,73552,1,0,0:0:0:0:
424,152,73710,2,0,P|336:164|228:148,1,180
248,24,74183,1,0,0:0:0:0:
120,60,74341,2,0,P|116:156|84:232,1,180
104,272,74736,1,0,0:0:0:0:
100,316,74815,1,0,0:0:0:0:
120,356,74894,1,0,0:0:0:0:
164,360,74973,2,0,P|240:344|272:328,1,90
380,292,75289,5,0,0:0:0:0:
276,208,75446,1,0,0:0:0:0:
252,340,75604,1,0,0:0:0:0:
380,292,75762,1,0,0:0:0:0:
436,216,75920,5,0,0:0:0:0:
424,196,75999,1,0,0:0:0:0:
416,176,76078,1,0,0:0:0:0:
400,160,76157,1,0,0:0:0:0:
388,140,76236,6,0,P|340:120|316:56,1,90
32,26,76552,2,0,P|119:29|182:91,1,180
78,131,77024,2,0,P|52:166|47:210,2,90
364,356,77814,5,0,0:0:0:0:
380,240,77972,1,0,0:0:0:0:
412,128,78130,1,0,0:0:0:0:
304,84,78288,1,0,0:0:0:0:
204,24,78446,2,0,P|200:80|120:172,1,180
256,192,78840,12,0,81288,0:0:0:0:
252,260,81603,5,0,0:0:0:0:
213,97,81761,1,0,0:0:0:0:
213,97,81920,2,0,P|300:104|380:160,1,180
213,97,82393,1,0,0:0:0:0:
375,154,82709,1,0,0:0:0:0:
375,154,82867,1,0,0:0:0:0:
356,288,83024,2,0,L|280:316,2,45
276,76,83340,5,0,0:0:0:0:
144,112,83499,2,0,P|160:204|116:304,1,180
256,192,83972,12,0,86340,0:0:0:0:
204,84,86657,6,0,P|216:126|262:153,1,90
420,96,87289,2,0,P|363:61|298:73,1,135.000005149842
344,320,87920,2,0,P|384:240|333:155,1,180
72,288,88553,1,0,0:0:0:0:
