osu file format v14

[General]
AudioFilename: OP.mp3
AudioLeadIn: 1000
PreviewTime: 64618
Countdown: 0
SampleSet: Soft
StackLeniency: 0.7
Mode: 0
LetterboxInBreaks: 0
WidescreenStoryboard: 0

[Editor]
DistanceSpacing: 1.1
BeatDivisor: 4
GridSize: 4
TimelineZoom: 1

[Metadata]
Title:Kodama Kotodama
TitleUnicode:こだまことだま
Artist:nano.RIPE
ArtistUnicode:nano.RIPE
Creator:alacat
Version:Insane
Source:のんのんびより りぴーと
Tags:Non Non Biyori Repeat Opening renge miyauchi hotaru ichijo natsumi komari koshigaya 宮内れんげ 一条蛍 越谷夏海 越谷小鞠 きみコ kimiKO Guy Fycho TV Size
BeatmapID:733830
BeatmapSetID:331228

[Difficulty]
HPDrainRate:7
CircleSize:4
OverallDifficulty:7
ApproachRate:8
SliderMultiplier:1.8
SliderTickRate:1

[Events]
//Background and Video events
0,0,"BG.jpg",0,0
Video,0,"PV.flv"
//Break Periods
//Storyboard Layer 0 (Background)
//Storyboard Layer 1 (Fail)
//Storyboard Layer 2 (Pass)
//Storyboard Layer 3 (Foreground)
//Storyboard Sound Samples

[TimingPoints]
618,500,4,2,1,50,1,0
12618,-100,4,2,1,40,0,0
13368,-100,4,2,1,30,0,0
16618,-100,4,2,2,60,0,0
22368,-100,4,2,1,60,0,0
22993,-100,4,2,2,60,0,0
24618,-100,4,2,2,65,0,0
25368,-100,4,2,1,65,0,0
25993,-100,4,2,2,65,0,0
27368,-100,4,2,1,65,0,0
27993,-100,4,2,2,65,0,0
32618,-125,4,2,2,60,0,0
48618,-100,4,2,2,60,0,0
64118,-142.857142857143,4,2,1,40,0,0
64493,-100,4,2,2,20,0,0
64618,-100,4,2,2,70,0,1
80618,-125,4,2,2,60,0,0
81118,-83.3333333333333,4,2,2,60,0,0
81618,-125,4,2,2,60,0,0
82118,-83.3333333333333,4,2,2,60,0,0
82618,-100,4,2,2,60,0,0
84618,-125,4,2,2,60,0,0
86618,-100,4,2,2,50,0,0
88118,-100,4,2,2,40,0,0
88618,-100,4,2,2,20,0,0
88868,-100,4,2,2,5,0,0

[Colours]
Combo1 : 255,104,180
Combo2 : 22,203,104
Combo3 : 232,139,0
Combo4 : 1,197,254

[HitObjects]
472,84,618,5,2,0:0:0:0:
396,20,868,1,0,0:0:0:0:
380,116,1118,1,8,0:0:0:0:
467,264,1368,1,0,0:0:0:0:
467,264,1493,1,0,0:0:0:0:
467,264,1618,2,0,P|467:219|456:176,1,90,2|8,0:0|0:0,0:0:0:0:
300,56,2118,1,8,0:0:0:0:
284,152,2368,1,0,0:0:0:0:
164,260,2618,6,0,P|120:272|76:272,1,90,2|0,0:0|0:0,0:0:0:0:
24,188,3118,1,8,0:0:0:0:
264,248,3368,1,0,0:0:0:0:
264,248,3493,1,0,0:0:0:0:
264,248,3618,2,0,L|280:340,1,90,2|8,0:0|0:0,0:0:0:0:
172,228,4118,2,0,L|187:139,1,90,8|0,0:0|0:0,0:0:0:0:
346,0,4618,6,0,P|284:59|200:40,1,180,2|8,0:0|0:0,0:0:0:0:
27,80,5368,1,0,0:0:0:0:
27,80,5493,1,0,0:0:0:0:
27,80,5618,2,0,P|72:80|116:92,1,90,2|8,0:0|0:0,0:0:0:0:
180,168,6118,1,8,0:0:0:0:
80,252,6368,2,0,L|88:208,2,45,0|0|2,0:0|0:0|0:0,0:0:0:0:
16,328,6868,5,0,0:0:0:0:
112,356,7118,1,2,0:0:0:0:
184,288,7368,1,0,0:0:0:0:
184,288,7493,2,0,P|208:228|208:156,1,135,2|0,0:0|0:0,0:0:0:0:
68,24,8118,1,8,0:0:0:0:
68,24,8618,5,4,0:0:0:0:
152,76,8868,1,0,0:0:0:0:
244,40,9118,1,8,0:0:0:0:
312,180,9368,1,0,0:0:0:0:
312,180,9493,1,0,0:0:0:0:
312,180,9618,2,0,L|328:92,1,90,2|8,0:0|0:0,0:0:0:0:
494,113,10118,2,0,P|456:137|412:144,1,90,8|0,0:0|0:0,0:0:0:0:
244,40,10618,5,2,0:0:0:0:
192,124,10868,1,0,0:0:0:0:
100,88,11118,2,0,P|56:108|28:144,1,90,8|0,0:0|0:0,0:0:0:0:
16,172,11493,1,0,0:0:0:0:
16,208,11618,2,0,L|36:296,1,90,2|8,0:0|0:0,0:0:0:0:
212,320,12118,1,8,0:0:0:0:
120,216,12368,2,0,L|128:260,1,45,8|8,0:0|0:0,0:0:0:0:
120,356,12618,5,2,0:0:0:0:
396,244,13368,2,0,L|352:240,2,45,0|0|2,0:0|0:0|0:0,0:0:0:0:
128,120,14368,2,0,L|172:116,2,45,0|0|2,0:0|0:0|0:0,0:0:0:0:
308,292,15618,5,2,0:0:0:0:
396,244,15868,1,0,0:0:0:0:
304,107,16118,2,0,P|299:151|307:195,1,90,8|0,0:0|0:0,0:0:0:0:
400,344,16618,6,0,L|488:328,1,90,4|0,0:0|0:0,0:0:0:0:
308,292,17118,2,0,L|220:308,1,90,2|0,0:0|0:0,0:0:0:0:
36,244,17618,1,2,0:0:0:0:
108,312,17868,1,0,0:0:0:0:
220,207,18118,1,2,0:0:0:0:
108,312,18368,1,0,0:0:0:0:
228,120,18618,6,0,P|232:168|220:208,1,90,2|0,0:0|0:0,0:0:0:0:
36,244,19118,2,0,P|72:217|115:206,1,90,2|0,0:0|0:0,0:0:0:0:
280,292,19618,1,2,0:0:0:0:
376,264,19868,1,0,0:0:0:0:
416,172,20118,1,2,0:0:0:0:
512,144,20368,5,0,0:0:0:0:
512,144,20493,1,0,0:0:0:0:
512,144,20618,2,0,L|500:236,1,90,2|0,0:0|0:0,0:0:0:0:
364,353,21118,2,0,L|376:264,1,90,2|0,0:0|0:0,0:0:0:0:
344,104,21618,1,2,0:0:0:0:
280,244,21868,1,0,0:0:0:0:
416,172,22118,1,2,0:0:0:0:
256,148,22368,6,0,B|168:116|168:172|80:136,1,180,2|2,0:0|0:0,0:0:0:0:
136,32,23118,1,2,0:0:0:0:
208,236,23368,2,0,P|212:284|204:328,2,90,0|2|0,0:0|0:0|0:0,0:0:0:0:
256,148,24118,2,0,L|344:164,1,90,2|0,0:0|0:0,0:0:0:0:
480,292,24618,6,0,P|496:248|500:204,1,90,4|0,0:0|0:0,0:0:0:0:
436,128,25118,1,8,0:0:0:0:
336,264,25368,2,0,P|252:272|196:200,1,180,2|2,0:0|0:0,0:0:0:0:
243,115,26118,2,0,P|251:71|243:27,1,90,8|0,0:0|0:0,0:0:0:0:
66,60,26618,6,0,L|156:72,1,90,2|0,0:0|0:0,0:0:0:0:
243,27,27118,1,8,0:0:0:0:
422,97,27368,2,0,B|388:132|340:132|340:132|332:172|292:204,1,180,2|2,0:0|0:0,0:0:0:0:
212,264,28118,2,0,P|204:312|208:356,1,90,8|0,0:0|0:0,0:0:0:0:
120,272,28618,6,0,P|128:224|124:180,1,90,2|0,0:0|0:0,0:0:0:0:
60,108,29118,1,8,0:0:0:0:
108,24,29368,1,0,0:0:0:0:
220,136,29618,1,8,0:0:0:0:
204,40,29868,1,2,0:0:0:0:
204,40,30118,1,4,0:3:0:0:
124,183,30368,5,4,0:0:0:0:
348,332,31618,2,0,L|356:288,1,45,8|0,0:3|0:0,0:0:0:0:
428,220,31868,2,0,L|436:264,2,45,8|8|8,0:0|0:0|0:0,0:0:0:0:
368,140,32368,1,2,0:0:0:0:
292,192,32618,6,0,P|256:199|220:199,1,72,4|0,0:0|0:0,0:0:0:0:
144,148,33118,2,0,P|108:147|72:155,1,72,8|0,0:0|0:0,0:0:0:0:
52,184,33493,2,0,L|68:296,1,108,2|2,0:0|0:0,0:0:0:0:
144,344,34118,1,8,0:0:0:0:
228,304,34368,1,0,0:0:0:0:
312,344,34618,6,0,P|348:340|384:328,1,72,2|0,0:0|0:0,0:0:0:0:
416,244,35118,2,0,P|391:218|371:187,1,72,8|0,0:0|0:0,0:0:0:0:
356,156,35493,2,0,L|244:176,1,108,2|2,0:0|0:0,0:0:0:0:
172,124,36118,1,8,0:0:0:0:
168,216,36368,1,0,0:0:0:0:
252,80,36618,6,0,P|192:36|120:48,2,144,2|8|0,0:0|0:0|0:0,0:0:0:0:
220,168,37868,1,0,0:0:0:0:
296,224,38118,1,8,0:0:0:0:
380,180,38368,5,0,0:0:0:0:
380,180,38493,1,0,0:0:0:0:
380,180,38618,1,2,0:0:0:0:
444,248,38868,2,0,P|408:268|376:272,1,72,0|8,0:0|0:0,0:0:0:0:
296,224,39368,1,0,0:0:0:0:
296,224,39493,2,0,L|308:332,1,108,2|2,0:0|0:0,0:0:0:0:
228,376,40118,2,0,L|220:304,1,72,8|0,0:0|0:0,0:0:0:0:
164,232,40618,6,0,P|128:224|89:224,1,72,2|0,0:0|0:0,0:0:0:0:
20,280,41118,1,8,0:0:0:0:
4,188,41368,1,0,0:0:0:0:
4,188,41493,2,0,L|24:80,1,108,2|2,0:0|0:0,0:0:0:0:
96,20,42118,1,8,0:0:0:0:
176,68,42368,1,0,0:0:0:0:
264,40,42618,6,0,P|268:76|260:112,1,72,2|0,0:0|0:0,0:0:0:0:
328,176,43118,2,0,L|400:164,1,72,8|0,0:0|0:0,0:0:0:0:
436,192,43493,2,0,P|468:236|468:296,1,108,2|2,0:0|0:0,0:0:0:0:
408,356,44118,1,8,0:0:0:0:
324,316,44368,1,0,0:0:0:0:
244,364,44618,6,0,P|172:360|144:300,1,144,2|8,0:0|0:0,0:0:0:0:
192,220,45368,1,0,0:0:0:0:
192,220,45493,1,0,0:0:0:0:
192,220,45618,2,0,P|196:180|192:148,2,72,2|0|8,0:0|0:0|0:0,0:0:0:0:
284,80,46368,5,0,0:0:0:0:
284,80,46493,1,0,0:0:0:0:
284,80,46618,2,0,P|280:120|284:152,1,72,4|8,0:0|0:3,0:0:0:0:
348,220,47118,1,4,0:3:0:0:
432,180,47368,1,2,0:0:0:0:
432,180,47493,1,8,0:0:0:0:
432,180,47618,1,8,0:0:0:0:
368,36,47868,1,8,0:3:0:0:
284,80,48118,1,8,0:0:0:0:
248,76,48243,1,8,0:0:0:0:
212,72,48368,1,2,0:0:0:0:
48,20,48618,6,0,P|56:64|48:112,1,90,4|0,0:0|0:0,0:0:0:0:
12,200,49118,2,0,L|104:188,1,90,8|0,0:0|0:0,0:0:0:0:
136,204,49493,1,0,0:0:0:0:
168,220,49618,2,0,L|260:208,1,90,2|0,0:0|0:0,0:0:0:0:
340,152,50118,1,8,0:0:0:0:
248,116,50368,1,0,0:0:0:0:
352,248,50618,6,0,L|488:228,1,135,2|0,0:0|0:0,0:0:0:0:
472,196,51118,2,0,P|464:152|472:108,1,90,8|0,0:0|0:0,0:0:0:0:
356,32,51618,1,2,0:0:0:0:
348,68,51743,1,0,0:0:0:0:
340,104,51868,1,0,0:0:0:0:
256,236,52118,1,8,0:0:0:0:
248,200,52243,1,0,0:0:0:0:
240,164,52368,1,0,0:0:0:0:
156,80,52618,6,0,P|112:80|68:96,1,90,2|0,0:0|0:0,0:0:0:0:
20,180,53118,1,8,0:0:0:0:
84,256,53368,1,0,0:0:0:0:
84,256,53493,1,0,0:0:0:0:
84,256,53618,1,2,0:0:0:0:
180,232,53868,2,0,P|224:228|272:240,2,90,0|8|0,0:0|0:0|0:0,0:0:0:0:
56,352,54618,5,2,0:0:0:0:
84,256,54868,1,0,0:0:0:0:
208,136,55118,1,8,0:0:0:0:
180,232,55368,1,0,0:0:0:0:
256,296,55618,2,0,P|299:302|344:320,1,90,2|0,0:0|0:0,0:0:0:0:
500,273,56118,2,0,P|455:266|413:249,1,90,8|0,0:0|0:0,0:0:0:0:
360,168,56618,5,2,0:0:0:0:
420,92,56868,1,0,0:0:0:0:
512,132,57118,1,8,0:0:0:0:
360,168,57368,1,0,0:0:0:0:
360,168,57493,1,0,0:0:0:0:
360,168,57618,2,0,L|272:152,1,90,2|0,0:0|0:0,0:0:0:0:
395,7,58118,2,0,P|415:47|420:92,1,90,8|0,0:0|0:0,0:0:0:0:
300,244,58618,6,0,P|208:252|156:188,1,180,2|8,0:0|0:0,0:0:0:0:
196,100,59368,1,0,0:0:0:0:
300,244,59618,2,0,L|284:336,1,90,2|0,0:0|0:0,0:0:0:0:
380,308,60118,1,8,0:0:0:0:
204,276,60368,1,0,0:0:0:0:
440,380,60618,6,0,L|468:200,1,180,2|8,0:0|0:0,0:0:0:0:
416,116,61368,1,0,0:0:0:0:
275,193,61618,2,0,P|319:204|364:200,1,90,2|0,0:0|0:0,0:0:0:0:
468,36,62118,2,0,P|424:25|379:29,1,90,8|0,0:0|0:0,0:0:0:0:
300,88,62618,5,4,0:0:0:0:
380,308,62993,1,4,0:3:0:0:
476,160,63368,2,0,P|432:164|388:180,1,90,2|8,0:0|0:0,0:0:0:0:
72,328,64118,6,0,P|84:284|88:236,1,94.499997116089,2|0,0:0|0:0,0:0:0:0:
68,188,64618,6,0,L|160:200,1,90,4|0,0:0|0:0,0:0:0:0:
248,164,65118,1,8,0:0:0:0:
168,108,65368,1,0,0:0:0:0:
268,332,65618,2,0,P|284:288|288:244,1,90,2|0,0:0|0:0,0:0:0:0:
248,164,66118,1,8,0:0:0:0:
368,292,66368,1,0,0:0:0:0:
512,244,66618,5,2,0:0:0:0:
362,198,66868,1,0,0:0:0:0:
456,322,67118,1,8,0:0:0:0:
454,166,67368,1,0,0:0:0:0:
368,292,67618,1,2,0:0:0:0:
368,292,67868,1,0,0:0:0:0:
296,148,68118,2,0,P|288:192|288:237,1,90,8|0,0:0|0:0,0:0:0:0:
456,322,68618,6,0,P|464:224|452:144,1,180,6|8,0:0|0:0,0:0:0:0:
372,84,69368,1,0,0:0:0:0:
200,168,69618,1,2,0:0:0:0:
296,148,69868,1,0,0:0:0:0:
224,72,70118,1,8,0:0:0:0:
268,240,70368,1,0,0:0:0:0:
404,47,70618,6,0,P|399:92|388:136,1,90,2|0,0:0|0:0,0:0:0:0:
308,20,71118,1,8,0:0:0:0:
224,72,71368,1,0,0:0:0:0:
360,224,71618,2,0,P|404:220|452:220,1,90,2|0,0:0|0:0,0:0:0:0:
260,184,72118,2,0,P|216:188|168:188,1,90,8|0,0:0|0:0,0:0:0:0:
16,48,72618,6,0,P|104:40|152:112,1,180,6|8,0:0|0:0,0:0:0:0:
24,252,73368,1,0,0:0:0:0:
104,196,73618,2,0,P|112:240|112:288,1,90,2|0,0:0|0:0,0:0:0:0:
32,344,74118,1,8,0:0:0:0:
196,240,74368,1,0,0:0:0:0:
40,140,74618,6,0,L|132:156,1,90,2|0,0:0|0:0,0:0:0:0:
256,288,75118,2,0,P|251:243|255:198,1,90,8|0,0:0|0:0,0:0:0:0:
328,132,75618,1,2,0:0:0:0:
256,288,75868,1,0,0:0:0:0:
336,228,76118,1,8,0:0:0:0:
204,136,76368,1,0,0:0:0:0:
352,324,76618,6,0,P|412:344|484:332,1,135,6|0,0:0|0:0,0:0:0:0:
504,288,77118,2,0,L|484:200,1,90,8|0,0:0|0:0,0:0:0:0:
412,132,77618,1,2,0:0:0:0:
295,224,77868,2,0,P|339:232|384:228,2,90,0|8|0,0:0|0:0|0:0,0:0:0:0:
120,152,78618,6,0,P|48:156|0:200,2,135,4|2|2,0:0|0:0|0:0,0:0:0:0:
200,208,79618,2,0,L|176:72,1,135,4|2,0:0|0:0,0:0:0:0:
212,40,80118,2,0,P|260:48|304:44,1,90,0|2,0:0|0:0,0:0:0:0:
464,120,80618,6,0,P|428:112|392:112,1,72,2|2,0:0|0:0,0:0:0:0:
312,272,81118,2,0,L|292:160,1,107.999996704102,4|0,0:0|0:0,0:0:0:0:
120,104,81618,2,0,P|156:116|184:140,1,72,2|2,0:0|0:0,0:0:0:0:
132,312,82118,2,0,L|112:200,1,107.999996704102,4|0,0:0|0:0,0:0:0:0:
212,40,82618,6,0,P|280:48|324:96,2,135,4|2|12,0:0|0:0|0:0,0:0:0:0:
136,104,83618,1,2,0:0:0:0:
120,8,83868,1,2,0:0:0:0:
232,140,84118,2,0,L|220:236,1,90,2|0,0:0|0:0,0:0:0:0:
140,380,84618,6,0,B|126:307|97:319|83:247,1,144,4|0,0:0|0:0,0:0:0:0:
248,116,85618,2,0,L|264:224,2,108,4|0|0,0:0|0:0|0:0,0:0:0:0:
256,192,86618,12,0,88868,0:0:0:0:
