osu file format v14

[General]
AudioFilename: Kodama Kotodama.mp3
AudioLeadIn: 1000
PreviewTime: 64618
Countdown: 0
SampleSet: Normal
StackLeniency: 0.7
Mode: 1
LetterboxInBreaks: 0
WidescreenStoryboard: 0

[Editor]
DistanceSpacing: 1.1
BeatDivisor: 4
GridSize: 4
TimelineZoom: 1

[Metadata]
Title:Kodama Kotodama
TitleUnicode:こだまことだま
Artist:nano.RIPE
ArtistUnicode:nano.RIPE
Creator:Charlotte
Version:Oni
Source:のんのんびより りぴーと
Tags:non non biyori repeat opening renge hotaru natsumi komari nyanpasu Jun Sasaki Kimiko
BeatmapID:756622
BeatmapSetID:342294

[Difficulty]
HPDrainRate:6
CircleSize:5
OverallDifficulty:5
ApproachRate:5
SliderMultiplier:1.4
SliderTickRate:1

[Events]
//Background and Video events
0,0,"BG.png",0,90
//Break Periods
//Storyboard Layer 0 (Background)
//Storyboard Layer 1 (Fail)
//Storyboard Layer 2 (Pass)
//Storyboard Layer 3 (Foreground)
//Storyboard Sound Samples

[TimingPoints]
618,500,4,1,0,60,1,0
64618,-100,4,1,0,70,0,1
80618,-100,4,1,0,60,0,0
86618,-100,4,1,0,50,0,0
88118,-100,4,1,0,40,0,0

[HitObjects]
256,192,618,5,0,0:0:0:0:
256,192,868,1,8,0:0:0:0:
256,192,1118,1,8,0:0:0:0:
256,192,1368,1,0,0:0:0:0:
256,192,1493,1,8,0:0:0:0:
256,192,1868,1,8,0:0:0:0:
256,192,2118,1,0,0:0:0:0:
256,192,2368,1,8,0:0:0:0:
256,192,2868,1,8,0:0:0:0:
256,192,3118,1,8,0:0:0:0:
256,192,3368,1,0,0:0:0:0:
256,192,3493,1,8,0:0:0:0:
256,192,3743,1,8,0:0:0:0:
256,192,3868,1,0,0:0:0:0:
256,192,4118,1,0,0:0:0:0:
256,192,4618,1,8,0:0:0:0:
256,192,4868,1,8,0:0:0:0:
256,192,4993,1,8,0:0:0:0:
256,192,5118,1,0,0:0:0:0:
256,192,5368,1,8,0:0:0:0:
256,192,5493,1,8,0:0:0:0:
256,192,5618,1,0,0:0:0:0:
256,192,5743,1,0,0:0:0:0:
256,192,5868,1,0,0:0:0:0:
256,192,6118,1,8,0:0:0:0:
256,192,6618,1,8,0:0:0:0:
256,192,6868,1,0,0:0:0:0:
256,192,6993,1,0,0:0:0:0:
256,192,7118,1,8,0:0:0:0:
256,192,7368,1,0,0:0:0:0:
256,192,7493,1,8,0:0:0:0:
256,192,7868,1,0,0:0:0:0:
256,192,8118,1,8,0:0:0:0:
256,192,8618,1,0,0:0:0:0:
256,192,8868,1,8,0:0:0:0:
256,192,9118,1,8,0:0:0:0:
256,192,9368,1,8,0:0:0:0:
256,192,9493,1,8,0:0:0:0:
256,192,9868,1,8,0:0:0:0:
256,192,10118,1,8,0:0:0:0:
256,192,10368,1,0,0:0:0:0:
256,192,10868,1,8,0:0:0:0:
256,192,11118,1,8,0:0:0:0:
256,192,11368,1,8,0:0:0:0:
256,192,11493,1,8,0:0:0:0:
256,192,11868,1,8,0:0:0:0:
256,192,12118,1,8,0:0:0:0:
256,192,12368,1,0,0:0:0:0:
256,192,12618,1,0,0:0:0:0:
256,192,13618,1,8,0:0:0:0:
256,192,14618,1,0,0:0:0:0:
256,192,15618,1,8,0:0:0:0:
256,192,15868,1,0,0:0:0:0:
256,192,16118,1,8,0:0:0:0:
256,192,16618,1,4,0:0:0:0:
256,192,16868,1,0,0:0:0:0:
256,192,16993,1,8,0:0:0:0:
256,192,17118,1,0,0:0:0:0:
256,192,17368,1,8,0:0:0:0:
256,192,17618,1,0,0:0:0:0:
256,192,17868,1,8,0:0:0:0:
256,192,17993,1,8,0:0:0:0:
256,192,18118,1,0,0:0:0:0:
256,192,18368,1,8,0:0:0:0:
256,192,18618,1,0,0:0:0:0:
256,192,18868,1,0,0:0:0:0:
256,192,18993,1,8,0:0:0:0:
256,192,19118,1,0,0:0:0:0:
256,192,19368,1,8,0:0:0:0:
256,192,19618,1,0,0:0:0:0:
256,192,19868,1,8,0:0:0:0:
256,192,19993,1,0,0:0:0:0:
256,192,20118,1,0,0:0:0:0:
256,192,20368,1,8,0:0:0:0:
256,192,20618,1,0,0:0:0:0:
256,192,20868,1,8,0:0:0:0:
256,192,20993,1,8,0:0:0:0:
256,192,21118,1,0,0:0:0:0:
256,192,21368,1,8,0:0:0:0:
256,192,21618,1,0,0:0:0:0:
256,192,21868,1,0,0:0:0:0:
256,192,21993,1,8,0:0:0:0:
256,192,22118,1,0,0:0:0:0:
256,192,22368,1,8,0:0:0:0:
256,192,22618,1,0,0:0:0:0:
256,192,22868,1,8,0:0:0:0:
256,192,22993,1,0,0:0:0:0:
256,192,23118,1,8,0:0:0:0:
256,192,23368,1,8,0:0:0:0:
256,192,23618,1,8,0:0:0:0:
256,192,23743,1,0,0:0:0:0:
256,192,23868,1,8,0:0:0:0:
256,192,23993,1,8,0:0:0:0:
256,192,24118,1,0,0:0:0:0:
256,192,24618,1,4,0:0:0:0:
256,192,24868,1,8,0:0:0:0:
256,192,24993,1,8,0:0:0:0:
256,192,25118,1,0,0:0:0:0:
256,192,25368,1,8,0:0:0:0:
256,192,25618,1,0,0:0:0:0:
256,192,25868,1,0,0:0:0:0:
256,192,25993,1,8,0:0:0:0:
256,192,26118,1,0,0:0:0:0:
256,192,26368,1,8,0:0:0:0:
256,192,26618,1,0,0:0:0:0:
256,192,26868,1,8,0:0:0:0:
256,192,26993,1,8,0:0:0:0:
256,192,27118,1,0,0:0:0:0:
256,192,27368,1,8,0:0:0:0:
256,192,27493,1,0,0:0:0:0:
256,192,27618,1,0,0:0:0:0:
256,192,27868,1,8,0:0:0:0:
256,192,27993,1,8,0:0:0:0:
256,192,28118,1,0,0:0:0:0:
256,192,28368,1,8,0:0:0:0:
256,192,28618,1,0,0:0:0:0:
256,192,28868,1,0,0:0:0:0:
256,192,28993,1,8,0:0:0:0:
256,192,29118,1,0,0:0:0:0:
256,192,29368,1,8,0:0:0:0:
256,192,29618,1,0,0:0:0:0:
256,192,29743,1,0,0:0:0:0:
256,192,29868,1,8,0:0:0:0:
256,192,29993,1,8,0:0:0:0:
256,192,30118,1,0,0:0:0:0:
256,192,30368,1,12,0:0:0:0:
256,192,31618,1,0,0:0:0:0:
256,192,31743,1,0,0:0:0:0:
256,192,31868,1,8,0:0:0:0:
256,192,31993,1,8,0:0:0:0:
256,192,32118,1,8,0:0:0:0:
256,192,32618,1,4,0:0:0:0:
256,192,32868,1,8,0:0:0:0:
256,192,33118,1,8,0:0:0:0:
256,192,33368,1,0,0:0:0:0:
256,192,33493,1,8,0:0:0:0:
256,192,33743,1,8,0:0:0:0:
256,192,33868,1,0,0:0:0:0:
256,192,34118,1,0,0:0:0:0:
256,192,34243,1,0,0:0:0:0:
256,192,34368,1,8,0:0:0:0:
256,192,34618,1,0,0:0:0:0:
256,192,34868,1,8,0:0:0:0:
256,192,35118,1,8,0:0:0:0:
256,192,35368,1,0,0:0:0:0:
256,192,35493,1,8,0:0:0:0:
256,192,35743,1,0,0:0:0:0:
256,192,35868,1,0,0:0:0:0:
256,192,36118,1,8,0:0:0:0:
256,192,36243,1,0,0:0:0:0:
256,192,36368,1,8,0:0:0:0:
256,192,36618,1,0,0:0:0:0:
256,192,37118,1,8,0:0:0:0:
256,192,37493,1,0,0:0:0:0:
256,192,37618,1,0,0:0:0:0:
256,192,37868,1,0,0:0:0:0:
256,192,38118,1,8,0:0:0:0:
256,192,38618,1,0,0:0:0:0:
256,192,38868,1,8,0:0:0:0:
256,192,38993,1,0,0:0:0:0:
256,192,39118,1,8,0:0:0:0:
256,192,39368,1,0,0:0:0:0:
256,192,39493,1,8,0:0:0:0:
256,192,39868,1,0,0:0:0:0:
256,192,40118,1,8,0:0:0:0:
256,192,40618,1,0,0:0:0:0:
256,192,40868,1,8,0:0:0:0:
256,192,40993,1,0,0:0:0:0:
256,192,41118,1,8,0:0:0:0:
256,192,41368,1,8,0:0:0:0:
256,192,41493,1,8,0:0:0:0:
256,192,41743,1,0,0:0:0:0:
256,192,41868,1,8,0:0:0:0:
256,192,42118,1,8,0:0:0:0:
256,192,42243,1,8,0:0:0:0:
256,192,42368,1,0,0:0:0:0:
256,192,42618,1,0,0:0:0:0:
256,192,42868,1,8,0:0:0:0:
256,192,42993,1,0,0:0:0:0:
256,192,43118,1,8,0:0:0:0:
256,192,43368,1,0,0:0:0:0:
256,192,43493,1,8,0:0:0:0:
256,192,43743,1,8,0:0:0:0:
256,192,43868,1,0,0:0:0:0:
256,192,44118,1,8,0:0:0:0:
256,192,44243,1,0,0:0:0:0:
256,192,44368,1,0,0:0:0:0:
256,192,44618,1,0,0:0:0:0:
256,192,45118,1,8,0:0:0:0:
256,192,45493,1,8,0:0:0:0:
256,192,45618,1,0,0:0:0:0:
256,192,45868,1,0,0:0:0:0:
256,192,46118,1,8,0:0:0:0:
256,192,46618,1,0,0:0:0:0:
256,192,46868,1,8,0:0:0:0:
256,192,46993,1,0,0:0:0:0:
256,192,47118,1,8,0:0:0:0:
256,192,47368,1,0,0:0:0:0:
256,192,47493,1,8,0:0:0:0:
256,192,47618,1,8,0:0:0:0:
256,192,47868,1,0,0:0:0:0:
256,192,47993,1,0,0:0:0:0:
256,192,48118,1,8,0:0:0:0:
256,192,48243,1,8,0:0:0:0:
256,192,48368,1,0,0:0:0:0:
256,192,48618,1,4,0:0:0:0:
256,192,49118,1,8,0:0:0:0:
256,192,49368,1,0,0:0:0:0:
256,192,49493,1,8,0:0:0:0:
256,192,49743,1,8,0:0:0:0:
256,192,49868,1,0,0:0:0:0:
256,192,50118,1,8,0:0:0:0:
256,192,50368,1,0,0:0:0:0:
256,192,50618,1,0,0:0:0:0:
256,192,50743,1,0,0:0:0:0:
256,192,50868,1,0,0:0:0:0:
256,192,51118,1,8,0:0:0:0:
256,192,51368,1,0,0:0:0:0:
256,192,51618,1,8,0:0:0:0:
256,192,51743,1,0,0:0:0:0:
256,192,51868,1,0,0:0:0:0:
256,192,52118,1,8,0:0:0:0:
256,192,52243,1,8,0:0:0:0:
256,192,52368,1,0,0:0:0:0:
256,192,52868,1,0,0:0:0:0:
256,192,53118,1,8,0:0:0:0:
256,192,53368,1,8,0:0:0:0:
256,192,53493,1,0,0:0:0:0:
256,192,53743,1,0,0:0:0:0:
256,192,53868,1,8,0:0:0:0:
256,192,54118,1,8,0:0:0:0:
256,192,54368,1,0,0:0:0:0:
256,192,54618,1,0,0:0:0:0:
256,192,54743,1,8,0:0:0:0:
256,192,54868,1,0,0:0:0:0:
256,192,55118,1,8,0:0:0:0:
256,192,55243,1,8,0:0:0:0:
256,192,55368,1,0,0:0:0:0:
256,192,55618,1,0,0:0:0:0:
256,192,55743,1,8,0:0:0:0:
256,192,55868,1,0,0:0:0:0:
256,192,56118,1,0,0:0:0:0:
256,192,56243,1,0,0:0:0:0:
256,192,56368,1,8,0:0:0:0:
256,192,56868,1,0,0:0:0:0:
256,192,57118,1,8,0:0:0:0:
256,192,57368,1,8,0:0:0:0:
256,192,57493,1,8,0:0:0:0:
256,192,57743,1,0,0:0:0:0:
256,192,57868,1,8,0:0:0:0:
256,192,58118,1,0,0:0:0:0:
256,192,58368,1,8,0:0:0:0:
256,192,58618,1,0,0:0:0:0:
256,192,58743,1,8,0:0:0:0:
256,192,58868,1,0,0:0:0:0:
256,192,58993,1,0,0:0:0:0:
256,192,59118,1,8,0:0:0:0:
256,192,59368,1,8,0:0:0:0:
256,192,59868,1,0,0:0:0:0:
256,192,60118,1,8,0:0:0:0:
256,192,60243,1,0,0:0:0:0:
256,192,60368,1,8,0:0:0:0:
256,192,60618,1,0,0:0:0:0:
256,192,60868,1,8,0:0:0:0:
256,192,60993,1,8,0:0:0:0:
256,192,61118,1,0,0:0:0:0:
256,192,61368,1,8,0:0:0:0:
256,192,61618,1,0,0:0:0:0:
256,192,61743,1,0,0:0:0:0:
256,192,61868,1,8,0:0:0:0:
256,192,61993,1,8,0:0:0:0:
256,192,62118,1,0,0:0:0:0:
256,192,62243,1,0,0:0:0:0:
256,192,62368,1,0,0:0:0:0:
256,192,62618,1,12,0:0:0:0:
256,192,62993,1,4,0:0:0:0:
256,192,63368,1,4,0:0:0:0:
256,192,63618,1,12,0:0:0:0:
256,192,64618,1,4,0:0:0:0:
256,192,64868,1,8,0:0:0:0:
256,192,64993,1,8,0:0:0:0:
256,192,65118,1,0,0:0:0:0:
256,192,65368,1,8,0:0:0:0:
256,192,65618,1,0,0:0:0:0:
256,192,65743,1,0,0:0:0:0:
256,192,65868,1,8,0:0:0:0:
256,192,65993,1,8,0:0:0:0:
256,192,66118,1,0,0:0:0:0:
256,192,66368,1,8,0:0:0:0:
256,192,66618,1,0,0:0:0:0:
256,192,66743,1,0,0:0:0:0:
256,192,66868,1,8,0:0:0:0:
256,192,67118,1,0,0:0:0:0:
256,192,67368,1,8,0:0:0:0:
256,192,67618,1,0,0:0:0:0:
256,192,67743,1,8,0:0:0:0:
256,192,67868,1,0,0:0:0:0:
256,192,67993,1,0,0:0:0:0:
256,192,68118,1,8,0:0:0:0:
256,192,68618,1,0,0:0:0:0:
256,192,68868,1,0,0:0:0:0:
256,192,68993,1,0,0:0:0:0:
256,192,69118,1,8,0:0:0:0:
256,192,69368,1,0,0:0:0:0:
256,192,69493,1,0,0:0:0:0:
256,192,69618,1,8,0:0:0:0:
256,192,69743,1,0,0:0:0:0:
256,192,69868,1,8,0:0:0:0:
256,192,70118,1,0,0:0:0:0:
256,192,70368,1,8,0:0:0:0:
256,192,70493,1,0,0:0:0:0:
256,192,70618,1,0,0:0:0:0:
256,192,70868,1,0,0:0:0:0:
256,192,70993,1,0,0:0:0:0:
256,192,71118,1,8,0:0:0:0:
256,192,71368,1,8,0:0:0:0:
256,192,71618,1,0,0:0:0:0:
256,192,72118,1,8,0:0:0:0:
256,192,72618,1,0,0:0:0:0:
256,192,72868,1,0,0:0:0:0:
256,192,72993,1,8,0:0:0:0:
256,192,73118,1,0,0:0:0:0:
256,192,73368,1,8,0:0:0:0:
256,192,73493,1,0,0:0:0:0:
256,192,73618,1,0,0:0:0:0:
256,192,73743,1,8,0:0:0:0:
256,192,73868,1,0,0:0:0:0:
256,192,74118,1,8,0:0:0:0:
256,192,74368,1,0,0:0:0:0:
256,192,74493,1,0,0:0:0:0:
256,192,74618,1,8,0:0:0:0:
256,192,74868,1,0,0:0:0:0:
256,192,75118,1,8,0:0:0:0:
256,192,75368,1,0,0:0:0:0:
256,192,75868,1,0,0:0:0:0:
256,192,76118,1,8,0:0:0:0:
256,192,76368,1,0,0:0:0:0:
256,192,76493,1,0,0:0:0:0:
256,192,76618,1,8,0:0:0:0:
256,192,76868,1,0,0:0:0:0:
256,192,76993,1,8,0:0:0:0:
256,192,77243,1,8,0:0:0:0:
256,192,77368,1,0,0:0:0:0:
256,192,77618,1,0,0:0:0:0:
256,192,77868,1,8,0:0:0:0:
256,192,77993,1,8,0:0:0:0:
256,192,78118,1,0,0:0:0:0:
256,192,78368,1,0,0:0:0:0:
256,192,78618,1,8,0:0:0:0:
256,192,78868,1,0,0:0:0:0:
256,192,78993,1,8,0:0:0:0:
256,192,79243,1,8,0:0:0:0:
256,192,79368,1,0,0:0:0:0:
256,192,79493,1,0,0:0:0:0:
256,192,79618,1,8,0:0:0:0:
256,192,79868,1,0,0:0:0:0:
256,192,79993,1,8,0:0:0:0:
256,192,80118,1,8,0:0:0:0:
256,192,80368,1,8,0:0:0:0:
256,192,80618,1,4,0:0:0:0:
256,192,81118,1,12,0:0:0:0:
256,192,81618,1,0,0:0:0:0:
256,192,81993,1,8,0:0:0:0:
256,192,82118,1,0,0:0:0:0:
256,192,82368,1,8,0:0:0:0:
256,192,82618,1,4,0:0:0:0:
256,192,83118,1,8,0:0:0:0:
256,192,83618,1,0,0:0:0:0:
256,192,83993,1,0,0:0:0:0:
256,192,84118,1,0,0:0:0:0:
256,192,84368,1,8,0:0:0:0:
256,192,84618,1,4,0:0:0:0:
256,192,85118,1,8,0:0:0:0:
256,192,85618,1,12,0:0:0:0:
256,192,85993,1,0,0:0:0:0:
256,192,86368,1,8,0:0:0:0:
256,192,86618,12,0,88118,0:0:0:0:
