osu file format v14

[General]
AudioFilename: Kodama Kotodama.mp3
AudioLeadIn: 1000
PreviewTime: 64618
Countdown: 0
SampleSet: Normal
StackLeniency: 0.7
Mode: 1
LetterboxInBreaks: 0
WidescreenStoryboard: 0

[Editor]
DistanceSpacing: 1.1
BeatDivisor: 4
GridSize: 4
TimelineZoom: 0.8

[Metadata]
Title:Kodama Kotodama
TitleUnicode:こだまことだま
Artist:nano.RIPE
ArtistUnicode:nano.RIPE
Creator:Charlotte
Version:Kantan
Source:のんのんびより りぴーと
Tags:non non biyori repeat opening renge hotaru natsumi komari nyanpasu Jun Sasaki Kimiko
BeatmapID:757269
BeatmapSetID:342294

[Difficulty]
HPDrainRate:8
CircleSize:5
OverallDifficulty:4
ApproachRate:5
SliderMultiplier:1.4
SliderTickRate:1

[Events]
//Background and Video events
0,0,"BG.png",0,90
//Break Periods
//Storyboard Layer 0 (Background)
//Storyboard Layer 1 (Fail)
//Storyboard Layer 2 (Pass)
//Storyboard Layer 3 (Foreground)
//Storyboard Sound Samples

[TimingPoints]
618,500,4,1,0,60,1,0
64618,-100,4,1,0,70,0,1
80618,-100,4,1,0,60,0,0
86618,-100,4,1,0,50,0,0
88118,-100,4,1,0,40,0,0

[HitObjects]
256,192,618,5,0,0:0:0:0:
256,192,2618,1,0,0:0:0:0:
256,192,4618,1,8,0:0:0:0:
256,192,5618,1,0,0:0:0:0:
256,192,6618,1,0,0:0:0:0:
256,192,8618,1,0,0:0:0:0:
256,192,10618,1,0,0:0:0:0:
256,192,12618,1,0,0:0:0:0:
256,192,13618,1,8,0:0:0:0:
256,192,14618,1,0,0:0:0:0:
256,192,16618,1,4,0:0:0:0:
256,192,17618,1,0,0:0:0:0:
256,192,18618,1,0,0:0:0:0:
256,192,19118,1,0,0:0:0:0:
256,192,19618,1,8,0:0:0:0:
256,192,20618,1,0,0:0:0:0:
256,192,21618,1,0,0:0:0:0:
256,192,22618,1,8,0:0:0:0:
256,192,23118,1,0,0:0:0:0:
256,192,23618,1,8,0:0:0:0:
256,192,24618,1,4,0:0:0:0:
256,192,25618,1,0,0:0:0:0:
256,192,26618,1,0,0:0:0:0:
256,192,27118,1,8,0:0:0:0:
256,192,27618,1,0,0:0:0:0:
256,192,28618,1,0,0:0:0:0:
256,192,29368,1,8,0:0:0:0:
256,192,30368,1,12,0:0:0:0:
256,192,32618,1,4,0:0:0:0:
256,192,34118,1,8,0:0:0:0:
256,192,34618,1,0,0:0:0:0:
256,192,36118,1,8,0:0:0:0:
256,192,36618,1,0,0:0:0:0:
256,192,37618,1,8,0:0:0:0:
256,192,38618,1,0,0:0:0:0:
256,192,39618,1,0,0:0:0:0:
256,192,40118,1,8,0:0:0:0:
256,192,40618,1,0,0:0:0:0:
256,192,42118,1,8,0:0:0:0:
256,192,42618,1,0,0:0:0:0:
256,192,44118,1,8,0:0:0:0:
256,192,44618,1,0,0:0:0:0:
256,192,45618,1,8,0:0:0:0:
256,192,46618,1,0,0:0:0:0:
256,192,48618,1,4,0:0:0:0:
256,192,49118,1,8,0:0:0:0:
256,192,50118,1,8,0:0:0:0:
256,192,51118,1,8,0:0:0:0:
256,192,51618,1,0,0:0:0:0:
256,192,52118,1,8,0:0:0:0:
256,192,53118,1,8,0:0:0:0:
256,192,54118,1,8,0:0:0:0:
256,192,55118,1,8,0:0:0:0:
256,192,55618,1,0,0:0:0:0:
256,192,56118,1,8,0:0:0:0:
256,192,57118,1,8,0:0:0:0:
256,192,58118,1,8,0:0:0:0:
256,192,58618,1,0,0:0:0:0:
256,192,59118,1,8,0:0:0:0:
256,192,60118,1,8,0:0:0:0:
256,192,60618,1,0,0:0:0:0:
256,192,62618,1,12,0:0:0:0:
256,192,63618,1,12,0:0:0:0:
256,192,64618,1,4,0:0:0:0:
256,192,65618,1,8,0:0:0:0:
256,192,66618,1,0,0:0:0:0:
256,192,67118,1,8,0:0:0:0:
256,192,67618,1,0,0:0:0:0:
256,192,68618,1,8,0:0:0:0:
256,192,69618,1,8,0:0:0:0:
256,192,70618,1,0,0:0:0:0:
256,192,71118,1,0,0:0:0:0:
256,192,71618,1,8,0:0:0:0:
256,192,72618,1,0,0:0:0:0:
256,192,73618,1,8,0:0:0:0:
256,192,74618,1,0,0:0:0:0:
256,192,75118,1,8,0:0:0:0:
256,192,75618,1,0,0:0:0:0:
256,192,76618,1,8,0:0:0:0:
256,192,77618,1,0,0:0:0:0:
256,192,78618,1,8,0:0:0:0:
256,192,79618,1,0,0:0:0:0:
256,192,80618,1,4,0:0:0:0:
256,192,82618,1,4,0:0:0:0:
256,192,84618,1,4,0:0:0:0:
256,192,85618,1,12,0:0:0:0:
256,192,86618,12,0,88118,0:0:0:0:
