osu file format v14

[General]
AudioFilename: Kamisama.mp3
AudioLeadIn: 0
PreviewTime: 264955
Countdown: 0
SampleSet: Soft
StackLeniency: 0.5
Mode: 0
LetterboxInBreaks: 1
EpilepsyWarning: 1
WidescreenStoryboard: 1

[Editor]
Bookmarks: 24255,46505,68842,91186,107930,113511,135837,141242,141418,147000,169325,191651,211186,227563,241884,253046,267000,287978,289325,300536,301234,311651,320023,339209,345809
DistanceSpacing: 1.4
BeatDivisor: 4
GridSize: 32
TimelineZoom: 1.380001

[Metadata]
Title:Kamisama
TitleUnicode:神様
Artist:nano.RIPE
ArtistUnicode:nano.RIPE
Creator:Milan-
Version:<3
Source:
Tags:appleeaterx Nanairo Megane no Himitsu 七色眼鏡のヒミツ
BeatmapID:811697
BeatmapSetID:321328

[Difficulty]
HPDrainRate:6
CircleSize:4
OverallDifficulty:8
ApproachRate:8.5
SliderMultiplier:2.56
SliderTickRate:1

[Events]
//Background and Video events
0,0,"letitgo.png",0,0
//Break Periods
2,136086,139746
2,242132,252420
//Storyboard Layer 0 (Background)
//Storyboard Layer 1 (Fail)
//Storyboard Layer 2 (Pass)
//Storyboard Layer 3 (Foreground)
//Storyboard Sound Samples

[TimingPoints]
1932,697.674418604651,4,2,1,40,1,0
1932,-133.333333333333,4,2,1,40,0,0
2629,-133.333333333333,4,2,2,40,0,0
2716,-133.333333333333,4,2,1,40,0,0
5420,-133.333333333333,4,2,2,40,0,0
5507,-133.333333333333,4,2,1,40,0,0
8211,-133.333333333333,4,2,2,40,0,0
8298,-133.333333333333,4,2,1,40,0,0
11001,-133.333333333333,4,2,2,40,0,0
11088,-133.333333333333,4,2,1,40,0,0
13792,-133.333333333333,4,2,2,40,0,0
13879,-133.333333333333,4,2,1,40,0,0
16583,-133.333333333333,4,2,2,40,0,0
16670,-133.333333333333,4,2,1,40,0,0
19373,-133.333333333333,4,2,2,40,0,0
19461,-133.333333333333,4,2,1,40,0,0
23559,-133.333333333333,4,2,1,50,0,0
24257,-100,4,2,1,60,0,0
46583,-100,4,2,1,50,0,0
113559,-100,4,2,1,65,0,1
135885,-100,4,2,1,60,0,0
140420,-100,4,2,2,40,0,0
141466,-100,4,2,1,60,0,0
147048,-100,4,2,1,50,0,0
189955,-100,4,2,1,55,0,0
191699,-100,4,2,1,65,0,1
211234,-100,4,2,1,55,0,0
253094,-100,4,2,1,45,0,0
264955,-100,4,2,1,35,0,0
266350,-100,4,2,1,50,0,0
267048,-100,4,2,1,65,0,1
287978,-100,4,2,1,60,0,0
289373,-100,4,2,1,65,0,1
311699,-133.333333333333,4,2,1,40,0,0
319373,-100,4,2,1,50,0,0
320071,-100,4,2,1,60,0,0
339606,1463.41463414634,4,2,1,50,1,0
340337,1538.46153846154,4,2,1,40,1,0
341106,1538.46153846154,4,2,1,30,1,0
341875,1632.65306122449,4,2,1,22,1,0
343509,2376.23762376238,4,2,1,15,1,0

[Colours]
Combo1 : 255,145,145
Combo2 : 3,186,218
Combo3 : 70,134,172
Combo4 : 192,192,192
Combo5 : 87,98,111
Combo6 : 255,157,111

[HitObjects]
99,71,1932,37,2,0:0:0:0:
99,71,2629,2,0,L|99:167,1,96.0000036621095,8|0,0:1|0:0,0:0:0:0:
197,331,3328,2,0,L|197:235,1,96.0000036621095,2|0,0:0|0:0,0:0:0:0:
263,93,4025,1,0,0:1:0:0:
263,93,4374,1,0,0:0:0:0:
263,93,4723,6,0,L|382:89,1,96.0000036621095,2|0,0:0|0:0,0:0:0:0:
486,229,5421,2,0,L|390:225,1,96.0000036621095,8|0,0:1|0:0,0:0:0:0:
263,93,6118,1,2,0:0:0:0:
236,244,6467,1,0,0:0:0:0:
390,225,6816,2,0,P|405:179|401:132,1,96.0000036621095,0|0,0:1|0:0,0:0:0:0:
236,243,7514,70,0,P|220:289|224:336,1,96.0000036621095,2|0,0:0|0:0,0:0:0:0:
297,145,8211,2,0,P|251:129|204:133,1,96.0000036621095,8|0,0:1|0:0,0:0:0:0:
316,298,8909,1,2,0:0:0:0:
316,298,9607,1,2,0:0:0:0:
316,298,10304,5,2,0:0:0:0:
184,219,10653,1,0,0:0:0:0:
93,343,11002,2,0,L|200:340,1,96.0000036621095,8|0,0:1|0:0,0:0:0:0:
378,214,11700,2,0,L|282:211,1,96.0000036621095,2|0,0:0|0:0,0:0:0:0:
188,340,12397,1,0,0:0:0:0:
188,340,12746,1,0,0:0:0:0:
188,340,13094,70,0,L|188:202,1,96.0000036621095,2|0,0:0|0:0,0:0:0:0:
282,115,13793,2,0,L|282:211,1,96.0000036621095,8|0,0:1|0:0,0:0:0:0:
171,75,14490,1,2,0:0:0:0:
316,26,14839,1,0,0:0:0:0:
161,58,15188,1,0,0:0:0:0:
314,52,15537,1,0,0:0:0:0:
242,187,15886,6,0,P|236:233|258:275,1,96.0000036621095,2|0,0:0|0:0,0:0:0:0:
385,378,16583,2,0,P|390:331|368:289,1,96.0000036621095,8|0,0:1|0:0,0:0:0:0:
242,187,17281,1,2,0:0:0:0:
386,135,17630,1,0,0:0:0:0:
273,11,17979,2,0,L|277:123,1,96.0000036621095
285,260,18676,69,2,0:0:0:0:
285,260,19373,2,0,P|234:251|173:264,1,96.0000036621095,8|0,0:1|0:0,0:0:0:0:
34,347,20072,2,0,P|84:355|146:343,1,96.0000036621095,2|0,0:0|0:0,0:0:0:0:
87,70,20769,2,0,L|86:170,1,96.0000036621095
84,272,21292,2,0,L|82:239,2,24.0000009155274,0|0|2,0:0|0:0|0:0,0:0:0:0:
85,83,23560,5,4,0:3:0:0:
85,83,24257,38,0,L|93:231,1,128,4|0,0:0|0:0,0:0:0:0:
272,269,24781,1,0,3:0:0:0:
201,193,24956,2,0,P|169:247|176:310,1,128,10|0,0:0|0:0,0:0:0:0:
299,177,25479,1,8,0:0:0:0:
374,246,25653,2,0,L|462:243,1,64,2|0,0:0|0:0,0:0:0:0:
299,177,26002,1,0,3:0:0:0:
299,177,26351,2,0,L|148:184,1,128,8|0,0:0|0:0,0:0:0:0:
59,79,26874,1,8,0:0:0:0:
47,79,26961,1,0,0:0:0:0:
35,82,27048,6,0,P|72:106|175:87,1,128,2|0,0:0|0:0,0:0:0:0:
229,52,27572,1,0,3:0:0:0:
389,150,27746,2,0,L|261:155,1,128,10|0,0:0|0:0,0:0:0:0:
402,48,28269,1,8,0:0:0:0:
482,111,28444,2,0,L|489:189,1,64,2|0,0:0|0:0,0:0:0:0:
389,150,28793,1,0,3:0:0:0:
389,150,29142,1,8,0:0:0:0:
287,131,29316,1,0,0:0:0:0:
228,215,29490,2,0,P|198:222|166:219,1,64,0|0,3:0|0:0,0:0:0:0:
7,144,29839,70,0,P|65:120|128:132,1,128,2|0,0:0|0:0,0:0:0:0:
166,219,30363,1,0,3:0:0:0:
84,333,30537,2,0,L|77:203,1,128,10|0,0:0|0:0,0:0:0:0:
226,139,31060,1,8,0:0:0:0:
124,68,31235,2,0,L|127:131,1,64,2|0,0:0|0:0,0:0:0:0:
226,139,31583,1,0,3:0:0:0:
226,139,31932,2,0,L|373:133,1,128,8|0,0:0|0:0,0:0:0:0:
452,45,32456,1,8,0:0:0:0:
450,31,32543,1,8,0:0:0:0:
445,19,32629,6,0,P|423:71|452:145,1,128,2|0,0:0|0:0,0:0:0:0:
512,195,33153,1,0,3:0:0:0:
371,272,33328,2,0,L|243:277,1,128,10|0,0:0|0:0,0:0:0:0:
58,233,33851,1,8,0:0:0:0:
149,277,34025,2,0,P|156:246|156:213,1,64,2|0,0:0|0:0,0:0:0:0:
149,46,34374,2,0,P|164:73|187:96,1,64,0|0,3:0|0:0,0:0:0:0:
297,122,34723,38,0,L|354:113,2,42.6666666666667,8|8|8,0:0|0:0|0:3,0:0:0:0:
244,193,35072,2,0,L|187:184,2,42.6666666666667,8|0|0,0:3|3:0|3:0,0:0:0:0:
315,234,35421,22,0,L|453:211,1,128,4|0,0:0|0:0,0:0:0:0:
381,124,35944,1,0,3:0:0:0:
306,245,36118,2,0,P|302:307|337:360,1,128,10|0,0:0|0:0,0:0:0:0:
404,223,36642,1,8,0:0:0:0:
282,146,36816,2,0,L|202:153,1,64,2|0,0:0|0:0,0:0:0:0:
128,200,37165,1,0,3:0:0:0:
128,199,37514,2,0,P|141:138|113:82,1,128,8|0,0:0|0:0,0:0:0:0:
199,19,38037,1,8,0:0:0:0:
206,29,38124,1,8,0:0:0:0:
213,39,38211,6,0,L|365:43,1,128,2|0,0:0|0:0,0:0:0:0:
366,129,38735,1,0,3:0:0:0:
287,281,38909,2,0,P|265:221|279:159,1,128,10|0,0:0|0:0,0:0:0:0:
385,253,39432,1,8,0:0:0:0:
358,351,39607,1,2,0:0:0:0:
483,233,39781,1,8,0:0:0:0:
374,266,39956,1,0,3:0:0:0:
374,266,40304,2,0,L|296:269,1,64,8|0,0:0|0:0,0:0:0:0:
211,236,40653,1,0,3:0:0:0:
286,168,40828,1,8,0:0:0:0:
237,329,41002,70,0,L|109:328,1,128,2|0,0:0|0:0,0:0:0:0:
39,252,41525,1,0,3:0:0:0:
126,108,41700,2,0,P|148:167|138:230,1,128,10|0,0:0|0:0,0:0:0:0:
39,252,42223,1,0,3:0:0:0:
185,163,42397,6,0,L|312:162,1,128,2|8,3:2|0:0,0:0:0:0:
312,162,43095,2,0,L|313:238,1,64,8|0,0:0|0:0,0:0:0:0:
370,90,43444,1,4,0:0:0:0:
370,90,44142,69,0,0:0:0:0:
312,162,44490,1,2,0:0:0:0:
219,167,44839,1,0,0:0:0:0:
319,169,45014,5,8,0:0:0:0:
319,169,45101,1,8,0:0:0:0:
319,169,45188,2,0,L|321:305,1,128,8|8,0:0|0:3,0:0:0:0:
320,296,45886,1,8,0:3:0:0:
219,167,46060,1,8,0:3:0:0:
219,268,46235,1,0,3:0:0:0:
219,268,46583,70,0,P|159:250|122:199,1,128,4|0,0:0|0:0,0:0:0:0:
328,80,47281,2,0,P|312:140|308:220,1,128,8|0,0:0|0:0,0:0:0:0:
424,192,47804,1,0,0:0:0:0:
424,192,47892,1,0,0:0:0:0:
424,192,47979,2,0,P|432:156|432:120,1,64
432,292,48328,2,0,P|476:276|500:256,1,64,0|0,3:0|0:0,0:0:0:0:
328,200,48676,2,0,L|176:192,1,128,8|0,0:0|0:0,0:0:0:0:
132,260,49200,1,0,0:0:0:0:
76,112,49374,6,0,P|128:76|204:96,1,128,0|0,3:0|0:0,0:0:0:0:
368,296,50072,2,0,P|306:304|254:269,1,128,8|0,0:0|0:0,0:0:0:0:
250,177,50595,1,0,0:0:0:0:
408,208,50769,2,0,P|440:192|472:188,1,64
336,152,51118,2,0,P|328:104|336:24,1,128,0|8,3:0|0:0,0:0:0:0:
416,112,51642,1,0,0:0:0:0:
248,144,51816,2,0,P|200:140|172:124,1,64
80,44,52165,70,0,L|220:36,1,128,2|0,0:0|0:0,0:0:0:0:
112,236,52863,2,0,P|68:228|32:228,1,64,8|0,0:0|0:0,0:0:0:0:
184,168,53211,1,0,0:0:0:0:
172,304,53386,2,0,P|228:312|300:276,1,128
376,172,53909,2,0,L|384:244,1,64,0|0,3:0|0:0,0:0:0:0:
296,120,54258,2,0,L|304:48,1,64,8|0,0:0|0:0,0:0:0:0:
256,208,54607,1,0,0:0:0:0:
376,172,54781,1,0,0:0:0:0:
196,116,54956,6,0,L|56:108,1,128,0|0,3:0|0:0,0:0:0:0:
72,304,55653,2,0,P|144:316|196:280,1,128,8|0,0:0|0:0,0:0:0:0:
256,208,56176,1,0,0:0:0:0:
364,304,56351,2,0,P|324:296|276:292,1,64
376,216,56700,2,0,P|432:212|512:208,2,128,0|8|0,3:0|0:0|0:0,0:0:0:0:
388,128,57572,1,0,0:0:0:0:
448,284,57746,70,0,P|456:328|456:356,1,64,2|0,0:0|0:0,0:0:0:0:
308,272,58095,2,0,P|288:216|316:148,1,128,0|8,0:0|0:0,0:0:0:0:
172,304,58792,2,0,P|112:320|48:284,1,128
59,202,59315,1,0,0:0:0:0:
142,138,59490,2,0,P|150:170|146:210,1,64,0|0,3:0|0:0,0:0:0:0:
68,96,59839,2,0,L|216:80,1,128,8|0,0:0|0:0,0:0:0:0:
368,180,60537,6,0,P|432:152|496:184,1,128,0|0,3:0|0:0,0:0:0:0:
428,248,61060,1,0,0:0:0:0:
284,188,61235,2,0,L|304:32,1,128,8|0,0:0|0:0,0:0:0:0:
208,144,61758,1,0,0:0:0:0:
340,260,61932,2,0,L|344:336,1,64
248,272,62281,2,0,P|180:284|116:252,1,128,0|8,3:0|0:0,0:0:0:0:
40,124,62979,1,0,0:0:0:0:
120,160,63153,1,0,0:0:0:0:
104,76,63328,70,0,P|108:40|104:8,2,64,2|0|0,0:0|0:0|0:0,0:0:0:0:
56,208,63851,1,0,0:0:0:0:
184,112,64025,2,0,P|236:100|320:100,1,128,8|0,0:0|0:0,0:0:0:0:
364,168,64549,1,0,0:0:0:0:
288,20,64723,2,0,P|328:20|360:28,1,64
464,136,65072,2,0,L|456:-4,1,128,0|8,3:0|0:0,0:0:0:0:
424,280,65769,2,0,L|428:204,1,64
344,320,66118,6,0,P|312:300|224:304,1,128,2|0,0:1|0:0,0:0:0:0:
148,360,66642,1,0,3:0:0:0:
68,216,66816,2,0,L|204:204,1,128,10|0,0:1|3:0,0:0:0:0:
272,156,67339,1,0,3:0:0:0:
188,108,67514,69,2,0:1:0:0:
296,252,67688,1,8,0:0:0:0:
348,151,67863,2,0,L|356:79,1,64,0|0,3:0|0:0,0:0:0:0:
384,67,68124,1,0,0:0:0:0:
384,67,68211,1,10,0:1:0:0:
489,100,68386,1,8,0:0:0:0:
440,196,68560,2,0,L|444:264,1,64,0|0,3:0|0:0,0:0:0:0:
384,67,68909,6,0,L|240:63,1,128,6|0,0:1|0:0,0:0:0:0:
165,111,69432,1,0,0:0:0:0:
216,271,69607,2,0,P|251:218|245:156,1,128,8|0,0:0|0:0,0:0:0:0:
126,251,70130,2,0,P|123:282|130:313,1,64
216,271,70479,1,0,0:0:0:0:
170,384,70653,1,0,3:0:0:0:
385,150,71002,2,0,L|297:149,1,64,8|0,0:0|0:0,0:0:0:0:
237,208,71351,1,0,0:0:0:0:
251,79,71525,1,0,0:0:0:0:
318,230,71700,70,0,P|321:293|317:368,1,128,0|0,3:0|0:0,0:0:0:0:
237,208,72223,1,0,0:0:0:0:
140,311,72397,2,0,P|81:330|20:314,1,128,8|0,0:0|0:0,0:0:0:0:
79,230,72921,1,0,0:0:0:0:
151,318,73095,2,0,L|223:318,1,64
145,171,73444,1,0,3:0:0:0:
145,171,73793,2,0,P|177:188|214:189,1,64,8|0,0:0|0:0,0:0:0:0:
303,167,74142,1,0,0:0:0:0:
181,82,74316,1,8,0:0:0:0:
318,2,74490,6,0,P|323:33|318:68,1,64,2|0,0:0|0:0,0:0:0:0:
303,167,74839,1,0,0:0:0:0:
303,167,75188,2,0,P|273:160|237:124,1,64,8|0,0:0|0:0,0:0:0:0:
390,126,75537,1,0,0:0:0:0:
280,257,75711,1,0,0:0:0:0:
379,350,75886,2,0,L|379:286,1,64
303,167,76235,1,0,3:0:0:0:
303,167,76583,2,0,L|176:170,1,128,8|0,0:0|0:0,0:0:0:0:
98,101,77107,1,0,0:0:0:0:
98,101,77194,1,0,0:0:0:0:
97,101,77280,70,0,P|71:158|84:220,1,128
175,170,77804,1,0,0:0:0:0:
280,257,77979,2,0,L|407:254,1,128,8|0,0:0|0:0,0:0:0:0:
494,208,78502,1,0,0:0:0:0:
445,330,78676,2,0,L|361:332,1,64
280,257,79025,1,0,3:0:0:0:
390,211,79200,1,0,0:0:0:0:
285,351,79374,6,0,P|225:331|190:279,1,128,8|0,0:0|0:0,0:0:0:0:
170,178,79897,1,0,0:0:0:0:
280,257,80072,1,2,0:0:0:0:
280,257,80421,2,0,L|438:247,1,128,0|8,0:0|0:0,0:0:0:0:
208,99,81118,2,0,P|176:93|145:98,1,64
15,174,81467,2,0,P|46:179|77:174,1,64
113,20,81816,1,0,3:0:0:0:
113,20,82165,2,0,P|81:41|61:78,1,64,8|0,0:0|0:0,0:0:0:0:
170,178,82514,1,0,0:0:0:0:
241,95,82688,1,0,0:0:0:0:
311,230,82862,70,0,L|438:226,1,128,0|0,3:0|0:0,0:0:0:0:
438,226,83560,2,0,L|434:156,1,64,8|0,0:0|0:0,0:0:0:0:
337,108,83909,1,0,0:0:0:0:
427,60,84083,1,0,0:0:0:0:
267,37,84258,2,0,P|249:63|240:94,1,64
355,0,84607,1,0,3:0:0:0:
355,0,84956,2,0,L|484:0,1,128,8|0,0:0|0:0,0:0:0:0:
510,98,85479,1,0,0:0:0:0:
340,93,85653,6,0,P|327:122|320:153,1,64,2|0,3:2|0:0,0:0:0:0:
354,251,86002,2,0,P|309:258|284:253,1,64
424,137,86351,2,0,P|437:192|439:276,1,128,8|0,0:0|0:0,0:0:0:0:
349,214,86874,1,0,0:0:0:0:
277,287,87049,2,0,P|241:293|208:294,1,64
256,136,87397,1,0,3:0:0:0:
256,136,87746,2,0,L|260:214,1,64,8|0,0:0|0:0,0:0:0:0:
151,140,88095,2,0,L|154:76,1,64
188,220,88444,70,0,P|156:226|124:226,1,64,2|0,0:0|0:0,0:0:0:0:
59,148,88793,1,0,0:0:0:0:
154,76,88967,1,0,3:0:0:0:
65,0,89142,2,0,P|61:31|63:63,1,64,8|0,0:0|0:0,0:0:0:0:
154,76,89490,1,0,3:0:0:0:
42,166,89665,1,8,0:0:0:0:
166,216,89839,2,0,L|244:214,1,64,2|0,0:1|0:0,0:0:0:0:
371,143,90187,2,0,L|293:145,1,64,2|0,0:1|0:0,0:0:0:0:
164,228,90536,5,10,0:1:0:0:
243,91,90711,1,8,0:0:0:0:
305,225,90886,1,0,3:1:0:0:
375,137,91060,1,0,0:0:0:0:
424,312,91235,70,0,L|292:304,1,128,6|0,0:1|0:0,0:0:0:0:
115,98,91932,2,0,L|247:90,1,128,0|0,3:0|0:0,0:0:0:0:
324,28,92456,1,0,0:0:0:0:
416,76,92630,2,0,P|440:124|416:196,1,128,0|0,3:0|0:1,0:0:0:0:
232,332,93328,2,0,P|208:284|232:212,1,128,8|0,0:0|0:0,0:0:0:0:
296,272,93851,1,0,0:0:0:0:
132,320,94025,6,0,P|76:320|-4:324,1,128,2|0,0:0|0:0,0:0:0:0:
136,152,94723,2,0,P|192:152|272:148,1,128,0|0,3:0|0:0,0:0:0:0:
356,28,95421,1,0,3:0:0:0:
480,116,95769,1,0,0:0:0:0:
376,232,96118,2,0,P|368:296|368:368,1,128,8|0,0:0|0:0,0:0:0:0:
448,320,96642,1,0,0:0:0:0:
284,280,96816,70,0,P|236:304|156:284,1,128,2|0,0:0|0:0,0:0:0:0:
92,112,97514,2,0,P|140:88|220:108,1,128,0|0,3:0|0:0,0:0:0:0:
276,164,98037,1,0,0:0:0:0:
352,80,98211,2,0,P|360:36|352:0,1,64,2|0,3:2|0:0,0:0:0:0:
404,180,98560,2,0,P|440:188|480:184,1,64
332,264,98909,2,0,P|276:284|208:260,1,128,8|0,0:0|0:0,0:0:0:0:
192,172,99432,1,0,0:0:0:0:
128,312,99607,6,0,L|-12:300,1,128,2|0,0:0|0:0,0:0:0:0:
192,172,100304,2,0,L|276:164,1,64,8|0,0:0|0:0,0:0:0:0:
396,92,100653,1,8,0:0:0:0:
288,68,100828,1,8,0:0:0:0:
356,12,101002,1,2,0:1:0:0:
320,156,101176,1,8,0:3:0:0:
412,192,101351,1,0,3:0:0:0:
276,248,101525,1,2,0:1:0:0:
424,296,101700,2,0,P|432:340|432:376,1,64,14|0,0:1|0:0,0:0:0:0:
168,324,102223,1,0,0:0:0:0:
168,324,102397,70,0,P|148:280|168:188,2,128,2|0|8,0:2|3:0|0:0,0:0:0:0:
88,148,103444,2,0,P|144:112|224:140,1,128,4|0,0:0|0:0,0:0:0:0:
380,260,104142,2,0,L|376:324,1,64,0|0,3:0|0:0,0:0:0:0:
284,224,104490,1,8,0:0:0:0:
368,168,104665,1,8,0:0:0:0:
473,202,104839,2,0,L|469:278,1,64,0|0,3:0|0:0,0:0:0:0:
368,168,105188,6,0,L|360:28,2,128,4|8|8,0:0|0:0|0:0,0:0:0:0:
232,332,106235,2,0,P|180:344|104:292,1,128,4|0,0:0|0:0,0:0:0:0:
28,112,106932,2,0,P|82:80|143:91,1,128,8|8,0:0|0:0,0:0:0:0:
252,236,107630,1,8,0:0:0:0:
272,140,107804,1,8,0:0:0:0:
332,288,107979,70,0,P|388:272|472:260,1,128,4|0,0:0|3:0,0:0:0:0:
272,140,108676,2,0,P|208:130|147:113,2,128,8|0|0,0:0|0:0|0:0,0:0:0:0:
228,24,109723,1,0,0:0:0:0:
104,184,110072,2,0,L|112:332,2,128,8|8|0,0:0|0:0|0:0,0:0:0:0:
414,317,112862,37,4,0:3:0:0:
414,317,113560,38,0,L|286:317,1,128,4|0,0:0|0:0,0:0:0:0:
212,245,114083,1,0,3:0:0:0:
124,346,114257,2,0,P|93:350|61:350,1,64,10|0,0:0|0:0,0:0:0:0:
122,255,114607,1,0,0:0:0:0:
239,353,114781,1,8,0:0:0:0:
295,209,114956,2,0,L|295:135,1,64,2|0,0:0|0:0,0:0:0:0:
212,245,115304,1,0,3:0:0:0:
212,245,115653,2,0,P|255:289|318:294,1,128,8|0,0:0|0:0,0:0:0:0:
449,270,116176,1,8,0:0:0:0:
443,278,116264,1,0,0:0:0:0:
436,285,116351,6,0,L|407:157,1,128,2|0,0:0|0:0,0:0:0:0:
378,61,116874,1,0,3:0:0:0:
267,162,117049,2,0,P|210:164|134:163,1,128,10|0,0:0|0:0,0:0:0:0:
51,109,117572,1,8,0:0:0:0:
191,3,117746,2,0,L|194:83,1,64,2|8,0:0|0:0,0:0:0:0:
70,95,118095,1,0,3:0:0:0:
70,95,118444,2,0,L|72:231,1,128,8|0,0:0|0:0,0:0:0:0:
163,281,118967,1,8,0:0:0:0:
172,264,119054,1,0,0:0:0:0:
181,247,119142,70,0,P|241:227|303:238,1,128,2|0,0:0|0:0,0:0:0:0:
248,324,119665,1,0,3:0:0:0:
135,178,119838,2,0,L|132:101,1,64,10|0,0:0|0:0,0:0:0:0:
196,33,120188,1,0,0:0:0:0:
46,79,120363,1,8,0:0:0:0:
150,181,120537,2,0,L|229:179,1,64,2|0,0:0|0:0,0:0:0:0:
207,47,120886,1,0,3:0:0:0:
207,47,121235,2,0,L|334:44,1,128,8|0,0:0|0:0,0:0:0:0:
430,99,121758,1,0,0:0:0:0:
437,88,121845,1,8,0:0:0:0:
445,77,121931,6,0,P|484:126|483:188,1,128,2|0,0:0|0:0,0:0:0:0:
384,162,122456,1,0,3:0:0:0:
275,265,122630,2,0,L|130:266,1,128,10|0,0:0|0:0,0:0:0:0:
272,160,123153,1,8,0:0:0:0:
386,271,123328,69,2,0:1:0:0:
386,271,123502,1,0,0:0:0:0:
384,162,123676,1,2,3:1:0:0:
384,162,123851,1,0,0:0:0:0:
275,265,124025,5,10,0:1:0:0:
161,136,124200,1,8,0:0:0:0:
326,89,124373,1,0,3:1:0:0:
288,240,124549,1,0,0:1:0:0:
143,152,124723,70,0,L|139:7,1,128,6|0,0:1|0:0,0:0:0:0:
232,68,125246,1,0,3:0:0:0:
200,212,125421,2,0,P|142:235|83:213,1,128,10|0,0:0|0:0,0:0:0:0:
271,140,125944,1,8,0:0:0:0:
300,237,126118,2,0,L|301:328,1,64,2|0,0:0|0:0,0:0:0:0:
200,212,126467,1,0,3:0:0:0:
200,212,126816,2,0,L|202:348,1,128,8|0,0:0|0:0,0:0:0:0:
300,237,127339,1,0,0:0:0:0:
141,135,127513,6,0,L|0:138,1,128,2|0,0:0|0:0,0:0:0:0:
42,236,128037,1,0,3:0:0:0:
150,121,128211,2,0,L|147:52,1,64,10|0,0:0|0:0,0:0:0:0:
241,126,128560,1,0,0:0:0:0:
340,16,128735,1,0,3:0:0:0:
340,118,128909,2,0,L|342:185,1,64,2|0,0:0|0:0,0:0:0:0:
348,283,129258,1,0,3:0:0:0:
348,283,129607,2,0,L|207:285,1,128,8|0,0:0|0:0,0:0:0:0:
136,352,130130,1,0,0:0:0:0:
128,358,130217,1,0,0:0:0:0:
120,364,130304,70,0,P|83:314|87:252,1,128,2|0,3:2|0:0,0:0:0:0:
132,159,130828,1,0,3:0:0:0:
220,284,131002,2,0,L|348:283,1,128,10|0,0:0|0:0,0:0:0:0:
450,286,131525,1,8,0:0:0:0:
331,364,131700,2,0,L|267:365,1,64,2|0,0:0|0:0,0:0:0:0:
340,249,132049,1,0,3:0:0:0:
340,249,132397,2,0,L|342:113,1,128,8|0,0:0|0:0,0:0:0:0:
248,103,132921,1,0,0:0:0:0:
239,114,133008,1,0,0:0:0:0:
230,125,133095,6,0,P|200:117|168:115,1,64,4|0,0:0|0:0,0:0:0:0:
72,153,133444,1,0,0:0:0:0:
88,52,133618,1,0,3:0:0:0:
181,210,133793,1,8,0:0:0:0:
181,210,134142,69,8,0:0:0:0:
72,153,134316,1,8,0:0:0:0:
175,89,134490,1,0,0:0:0:0:
180,230,134665,1,8,3:0:0:0:
51,154,134839,1,0,3:0:0:0:
282,38,135188,5,0,3:0:0:0:
280,288,135537,69,0,3:0:0:0:
180,230,135711,1,0,3:0:0:0:
109,322,135886,1,2,0:0:0:0:
124,205,140421,22,0,L|120:129,1,64,8|0,0:1|0:0,0:0:0:0:
192,272,140769,2,0,P|268:252|328:284,1,128,8|0,0:1|0:0,0:0:0:0:
320,276,141206,1,0,0:0:0:0:
328,284,141293,1,0,0:0:0:0:
336,292,141380,1,0,0:0:0:0:
344,300,141467,54,0,L|348:156,1,128,4|0,0:0|0:0,0:0:0:0:
392,96,141990,1,0,3:0:0:0:
448,208,142165,2,0,P|440:244|436:276,1,64,8|0,0:0|0:0,0:0:0:0:
480,116,142514,1,0,0:0:0:0:
440,24,142688,1,8,0:0:0:0:
316,128,142863,2,0,P|276:120|236:120,1,64
144,216,143211,2,0,L|292:204,1,128,0|8,3:0|0:0,0:0:0:0:
84,288,143909,1,0,0:0:0:0:
20,220,144083,1,8,0:0:0:0:
126,91,144258,6,0,P|142:135|142:223,1,128,2|0,0:0|0:0,0:0:0:0:
48,136,144781,1,0,3:0:0:0:
236,192,144956,2,0,P|276:184|376:184,1,128,8|0,0:0|3:0,0:0:0:0:
308,264,145479,1,0,0:0:0:0:
280,100,145653,2,0,L|272:28,1,64,2|0,0:0|0:0,0:0:0:0:
368,100,146002,1,8,0:3:0:0:
236,192,146176,1,0,0:0:0:0:
236,192,146264,1,0,0:0:0:0:
236,192,146351,69,8,0:0:0:0:
328,184,146525,1,0,3:0:0:0:
232,280,146700,2,0,L|164:276,1,64,0|0,3:0|0:0,0:0:0:0:
48,164,147049,6,0,P|92:132|188:148,1,128,4|0,0:0|0:0,0:0:0:0:
328,288,147746,2,0,L|348:148,1,128,8|0,0:0|0:0,0:0:0:0:
452,92,148269,1,0,0:0:0:0:
452,92,148357,1,0,0:0:0:0:
452,92,148444,2,0,P|444:124|440:176,1,64
360,76,148793,2,0,L|216:68,1,128,0|8,3:0|0:0,0:0:0:0:
116,184,149490,2,0,L|196:176,1,64
96,104,149839,70,0,P|56:124|40:208,1,128,0|0,3:0|0:0,0:0:0:0:
128,260,150363,1,0,0:0:0:0:
60,340,150537,2,0,P|123:340|187:344,1,128,8|0,0:0|0:0,0:0:0:0:
216,252,151060,1,0,0:0:0:0:
336,312,151235,2,0,P|292:316|256:316,1,64,2|0,0:1|0:0,0:0:0:0:
368,232,151583,2,0,L|436:248,1,64,0|0,3:0|0:0,0:0:0:0:
288,192,151932,2,0,P|284:152|288:116,1,64,10|0,0:1|0:0,0:0:0:0:
392,72,152281,1,2,0:1:0:0:
364,152,152456,1,8,0:0:0:0:
208,80,152630,6,0,P|244:40|336:56,1,128,2|0,0:0|0:0,0:0:0:0:
216,252,153328,2,0,P|153:255|109:211,1,128,8|0,0:0|0:0,0:0:0:0:
252,180,153851,1,0,0:0:0:0:
252,180,153938,1,0,0:0:0:0:
252,180,154025,2,0,L|336:176,1,64
400,228,154374,2,0,L|476:232,1,64,0|0,3:0|0:0,0:0:0:0:
396,144,154723,2,0,P|384:96|400:8,1,128,8|0,0:0|0:0,0:0:0:0:
468,84,155246,1,0,0:0:0:0:
308,96,155421,70,0,L|240:88,1,64,2|0,0:0|0:0,0:0:0:0:
128,187,155769,2,0,P|176:171|260:183,1,128,0|8,0:0|0:0,0:0:0:0:
200,328,156467,1,2,0:1:0:0:
200,328,156642,1,0,0:0:0:0:
124,288,156816,2,0,P|88:296|60:308,1,64,2|0,3:2|0:0,0:0:0:0:
280,336,157165,2,0,L|416:328,1,128,0|8,0:0|0:0,0:0:0:0:
456,256,157688,1,0,0:0:0:0:
392,204,157863,2,0,P|388:152|396:116,1,64
324,244,158211,6,0,P|288:196|276:108,1,128,2|0,0:0|0:0,0:0:0:0:
196,200,158735,1,0,0:0:0:0:
196,200,158909,2,0,P|148:192|56:192,1,128,8|0,0:0|0:0,0:0:0:0:
32,280,159432,1,0,0:0:0:0:
32,280,159519,1,0,0:0:0:0:
32,280,159607,2,0,P|40:320|40:356,1,64
128,248,159956,2,0,P|120:204|148:120,1,128,0|8,3:0|0:0,0:0:0:0:
240,272,160653,1,0,0:0:0:0:
164,324,160828,1,0,0:0:0:0:
244,360,161001,70,0,P|300:352|388:344,1,128,2|0,0:0|0:0,0:0:0:0:
464,224,161700,2,0,P|400:217|336:209,1,128,8|0,0:0|0:0,0:0:0:0:
288,132,162223,1,0,0:0:0:0:
440,92,162397,2,0,P|408:112|384:124,1,64,2|0,0:1|0:0,0:0:0:0:
264,56,162746,2,0,P|208:48|128:52,2,128,0|10|0,0:0|0:1|0:0,0:0:0:0:
288,132,163618,1,0,0:0:0:0:
224,184,163792,6,0,P|184:188|156:192,1,64,2|0,0:0|0:0,0:0:0:0:
40,252,164142,2,0,P|80:264|120:264,1,64
224,184,164490,2,0,P|216:248|220:324,1,128,8|0,0:0|0:0,0:0:0:0:
360,212,165014,1,0,0:0:0:0:
360,212,165101,1,0,0:0:0:0:
360,212,165187,2,0,P|368:148|364:72,1,128,2|0,0:0|3:0,0:0:0:0:
288,48,165711,1,0,0:0:0:0:
424,136,165886,2,0,P|464:144|496:144,1,64,8|0,0:0|0:0,0:0:0:0:
360,212,166235,2,0,P|312:220|280:216,1,64
120,152,166583,70,0,P|180:124|256:140,1,128,2|0,0:0|0:0,0:0:0:0:
192,216,167107,1,0,3:0:0:0:
144,52,167281,1,12,0:0:0:0:
236,72,167456,1,0,0:0:0:0:
120,152,167630,1,0,3:0:0:0:
120,152,167804,1,0,3:0:0:0:
172,300,167979,6,0,L|168:372,1,64,2|8,0:1|0:0,0:0:0:0:
280,248,168328,2,0,L|272:172,1,64,2|0,3:1|0:0,0:0:0:0:
356,336,168676,1,10,0:1:0:0:
384,240,168851,1,8,0:0:0:0:
264,160,169025,2,0,P|224:168|192:168,1,64,0|0,3:1|0:0,0:0:0:0:
87,319,169374,70,0,L|214:317,1,128,4|0,0:0|0:0,0:0:0:0:
474,220,170072,2,0,L|346:221,1,128,0|0,3:0|0:0,0:0:0:0:
317,320,170595,1,0,0:0:0:0:
254,170,170769,1,0,3:0:0:0:
232,270,170944,1,0,0:0:0:0:
127,167,171118,2,0,P|89:165|53:169,1,64
11,331,171467,2,0,P|70:310|101:256,1,128,8|0,0:0|0:0,0:0:0:0:
0,223,171990,1,0,0:0:0:0:
94,340,172165,6,0,L|223:335,1,128,2|0,0:0|0:0,0:0:0:0:
312,285,172688,1,0,0:0:0:0:
236,116,172863,2,0,P|210:173|221:236,1,128,0|0,3:0|0:0,0:0:0:0:
416,122,173560,2,0,P|442:64|431:2,1,128,0|0,3:0|0:0,0:0:0:0:
345,210,174258,2,0,P|402:236|464:225,1,128,8|0,0:0|0:0,0:0:0:0:
318,109,174781,1,0,0:0:0:0:
200,188,174956,70,0,P|169:193|138:186,1,64,2|0,0:0|0:0,0:0:0:0:
200,36,175304,2,0,P|217:62|225:93,1,64
54,210,175653,2,0,P|59:147|103:102,1,128,0|0,3:0|0:0,0:0:0:0:
225,93,176176,1,0,0:0:0:0:
138,186,176350,2,0,L|147:313,1,128,2|0,3:2|0:0,0:0:0:0:
365,315,177049,2,0,L|375:188,1,128,8|0,0:0|0:0,0:0:0:0:
376,85,177572,1,0,0:0:0:0:
283,171,177746,6,0,L|149:170,1,128,2|0,0:0|0:0,0:0:0:0:
31,328,178444,1,8,0:0:0:0:
31,328,178792,69,8,0:0:0:0:
80,185,178967,1,8,0:0:0:0:
125,277,179142,1,2,0:1:0:0:
5,149,179316,1,8,0:3:0:0:
167,126,179490,1,0,3:0:0:0:
80,185,179665,1,2,3:1:0:0:
223,301,179839,1,14,0:1:0:0:
230,308,180363,5,0,0:0:0:0:
230,308,180450,1,0,0:0:0:0:
230,308,180537,2,0,L|357:302,1,128,2|0,0:0|3:0,0:0:0:0:
357,302,181234,1,8,0:0:0:0:
357,301,181583,2,0,P|353:181|240:138,1,256,4|8,0:0|3:0,0:0:0:0:
160,203,182456,1,0,0:0:0:0:
153,220,182543,1,0,0:0:0:0:
146,237,182630,1,8,0:0:0:0:
132,85,182804,1,8,0:0:0:0:
241,139,182979,2,0,P|275:141|321:138,1,64,0|0,3:0|0:0,0:0:0:0:
419,66,183328,69,4,0:0:0:0:
419,66,183676,1,8,0:0:0:0:
419,66,184025,1,8,0:0:0:0:
419,66,184374,2,0,P|346:114|219:32,1,256,4|8,0:0|0:0,0:0:0:0:
219,32,185421,1,8,0:0:0:0:
219,32,185769,1,8,0:0:0:0:
116,109,185944,1,8,0:0:0:0:
288,130,186118,6,0,L|298:257,1,128,4|0,0:0|3:0,0:0:0:0:
143,366,186816,2,0,L|153:238,1,128,8|0,0:0|3:0,0:0:0:0:
198,146,187339,1,0,0:0:0:0:
229,264,187514,2,0,L|223:339,1,64
122,166,187863,1,0,3:0:0:0:
122,166,188211,2,0,L|194:152,1,64,8|0,0:0|0:0,0:0:0:0:
291,276,188560,2,0,L|228:263,1,64,0|0,3:0|3:0,0:0:0:0:
238,69,188909,70,0,P|278:117|275:193,1,128,4|0,0:0|0:0,0:0:0:0:
184,153,189432,1,0,3:0:0:0:
334,40,189607,1,4,0:0:0:0:
334,40,189956,5,8,0:0:0:0:
238,69,190130,1,8,0:3:0:0:
383,122,190304,1,8,0:0:0:0:
241,156,190479,1,8,0:0:0:0:
427,204,190653,1,8,0:0:0:0:
245,247,190828,1,0,0:0:0:0:
245,247,190915,1,0,0:0:0:0:
245,247,191002,2,0,L|237:166,1,64,8|0,0:0|3:0,0:0:0:0:
338,293,191351,2,0,L|331:356,1,64,0|0,3:0|0:0,0:0:0:0:
168,280,191699,70,0,P|116:296|20:276,1,128,4|0,0:0|0:0,0:0:0:0:
96,196,192223,1,0,0:0:0:0:
216,96,192397,2,0,L|208:176,1,64,10|0,0:0|0:0,0:0:0:0:
245,247,192746,1,0,0:0:0:0:
132,120,192921,1,8,0:0:0:0:
308,164,193095,2,0,P|348:168|388:164,1,64,2|0,0:0|0:0,0:0:0:0:
464,56,193444,2,0,P|456:88|452:120,1,64,0|0,3:0|0:0,0:0:0:0:
456,288,193793,2,0,P|424:276|328:280,1,128,8|0,0:0|0:0,0:0:0:0:
184,324,194316,1,0,0:0:0:0:
184,324,194403,1,0,0:0:0:0:
184,324,194490,6,0,P|192:284|192:248,1,64,2|0,0:0|0:0,0:0:0:0:
104,128,194839,2,0,L|108:208,1,64,0|0,0:0|3:0,0:0:0:0:
272,256,195188,2,0,L|268:168,1,64,10|0,0:0|0:0,0:0:0:0:
208,112,195537,1,0,0:0:0:0:
184,224,195711,1,8,0:0:0:0:
340,152,195886,2,0,L|484:160,1,128,2|0,0:0|3:0,0:0:0:0:
168,324,196583,2,0,L|24:332,1,128,8|0,0:0|0:0,0:0:0:0:
24,216,197107,1,8,0:0:0:0:
116,96,197281,70,0,P|124:152|124:184,1,64,2|0,0:0|0:0,0:0:0:0:
252,268,197630,2,0,P|252:224|256:196,1,64,0|0,0:0|3:0,0:0:0:0:
216,96,197979,2,0,P|268:100|292:100,1,64,10|0,0:0|0:0,0:0:0:0:
384,44,198328,1,0,0:0:0:0:
340,176,198502,1,8,0:0:0:0:
472,128,198676,2,0,P|480:168|484:268,1,128,2|0,0:0|3:0,0:0:0:0:
400,320,199200,1,0,0:0:0:0:
400,320,199374,2,0,P|352:312|252:320,1,128,8|0,0:0|0:0,0:0:0:0:
188,352,199897,1,8,0:0:0:0:
140,232,200072,6,0,L|128:144,1,64,2|0,0:0|0:0,0:0:0:0:
272,280,200421,2,0,L|280:192,1,64,0|0,0:0|3:0,0:0:0:0:
212,56,200769,2,0,L|216:120,1,64,10|0,0:0|0:0,0:0:0:0:
382,136,201118,2,0,L|376:200,1,64,0|8,0:0|0:0,0:0:0:0:
240,224,201466,2,0,L|248:368,1,128,2|2,0:1|3:1,0:0:0:0:
332,280,201990,1,0,0:0:0:0:
152,256,202165,2,0,P|160:208|160:180,1,64,10|8,0:1|0:0,0:0:0:0:
88,60,202514,2,0,P|92:120|100:140,1,64,0|0,3:0|0:0,0:0:0:0:
304,88,202863,70,0,P|272:72|172:84,1,128,4|0,0:0|0:0,0:0:0:0:
270,180,203386,1,0,3:0:0:0:
396,130,203560,2,0,L|393:56,1,64,10|0,0:0|0:0,0:0:0:0:
355,214,203909,2,0,L|357:283,1,64
448,217,204258,5,2,0:0:0:0:
266,276,204432,2,0,P|220:268|184:268,1,64,8|0,0:0|3:0,0:0:0:0:
152,351,204781,1,0,0:0:0:0:
71,248,204956,2,0,P|58:211|58:164,1,64,8|0,0:0|0:0,0:0:0:0:
211,81,205304,1,0,0:0:0:0:
157,170,205479,1,8,0:0:0:0:
142,33,205653,70,0,P|200:44|277:18,1,128,2|0,0:0|0:0,0:0:0:0:
307,114,206176,1,0,0:0:0:0:
402,83,206351,2,0,L|390:235,1,128,10|0,0:0|0:0,0:0:0:0:
483,151,206874,1,8,0:0:0:0:
312,225,207049,2,0,L|317:300,1,64,2|8,0:0|0:0,0:0:0:0:
435,340,207397,2,0,L|441:274,1,64
342,121,207746,6,0,P|279:113|222:159,1,128,8|0,0:0|0:0,0:0:0:0:
107,245,208269,1,0,0:0:0:0:
107,245,208357,1,0,0:0:0:0:
107,245,208444,2,0,L|123:90,1,128,2|0,0:0|0:0,0:0:0:0:
187,48,208967,1,0,3:0:0:0:
32,155,209142,70,0,P|24:114|44:72,1,64,10|0,0:0|0:0,0:0:0:0:
203,213,209490,2,0,P|211:254|191:296,1,64,0|0,3:0|0:0,0:0:0:0:
66,340,209839,1,10,0:0:0:0:
178,375,210014,1,0,0:0:0:0:
107,245,210188,1,8,0:0:0:0:
217,204,210363,1,0,0:0:0:0:
105,121,210537,2,0,L|113:38,1,64,8|0,0:0|0:0,0:0:0:0:
272,39,210886,1,0,3:0:0:0:
202,112,211060,1,0,3:0:0:0:
352,51,211235,6,0,P|394:116|375:188,1,128,4|0,0:0|0:0,0:0:0:0:
295,133,211758,1,0,0:0:0:0:
207,265,211932,2,0,L|79:263,1,128,8|0,0:0|0:0,0:0:0:0:
194,162,212456,1,0,3:0:0:0:
194,162,212629,1,2,0:0:0:0:
286,288,212804,2,0,P|321:293|370:288,1,64,8|0,0:0|0:0,0:0:0:0:
445,257,213153,1,0,0:0:0:0:
323,384,213328,1,8,0:0:0:0:
323,384,213676,70,0,L|186:381,2,128,4|0|8,0:0|0:0|0:0,0:0:0:0:
323,384,214723,1,8,0:0:0:0:
260,159,215072,2,0,P|253:229|260:289,1,128,4|0,0:0|0:0,0:0:0:0:
259,286,215769,1,8,0:0:0:0:
259,286,216118,2,0,P|264:243|262:208,1,64,8|0,0:0|0:0,0:0:0:0:
345,316,216467,6,0,P|305:363|243:374,1,128,4|0,0:0|0:0,0:0:0:0:
41,226,217165,2,0,P|100:225|118:229,1,64,0|0,3:0|0:0,0:0:0:0:
263,137,217514,2,0,P|214:185|194:248,1,128,8|0,0:0|0:0,0:0:0:0:
205,265,217950,1,0,0:0:0:0:
205,265,218037,1,0,0:0:0:0:
268,361,218211,2,0,P|292:341|307:313,1,64,2|0,0:0|0:0,0:0:0:0:
148,377,218560,2,0,P|116:376|85:367,1,64,8|0,0:0|0:0,0:0:0:0:
61,202,218909,2,0,P|109:226|127:297,1,128,8|0,0:0|0:0,0:0:0:0:
25,301,219432,1,0,0:0:0:0:
121,131,219606,70,0,L|261:130,1,128,2|0,0:0|3:0,0:0:0:0:
248,130,220304,2,0,L|253:54,1,64,8|0,0:0|0:0,0:0:0:0:
338,182,220653,1,0,3:0:0:0:
338,182,220828,1,0,0:0:0:0:
175,227,221002,2,0,L|180:151,1,64,2|0,0:0|0:0,0:0:0:0:
270,258,221351,1,0,3:0:0:0:
338,182,221525,1,0,0:0:0:0:
447,343,221700,2,0,L|311:344,1,128,8|0,0:0|0:0,0:0:0:0:
270,258,222223,1,0,0:0:0:0:
118,285,222397,6,0,P|93:225|135:153,1,128,2|0,0:0|3:0,0:0:0:0:
201,313,222921,1,0,0:0:0:0:
259,173,223095,2,0,L|393:155,1,128,8|0,0:0|0:0,0:0:0:0:
477,204,223618,1,0,0:0:0:0:
384,69,223793,69,2,0:0:0:0:
328,212,223967,1,0,0:0:0:0:
223,93,224142,1,0,3:0:0:0:
223,93,224316,1,0,3:0:0:0:
394,86,224490,2,0,L|465:80,1,64,8|0,0:0|0:0,0:0:0:0:
328,212,224839,2,0,L|257:206,1,64
166,176,225188,5,0,0:0:0:0:
216,328,225363,1,8,0:0:0:0:
130,272,225537,1,0,0:0:0:0:
316,312,225711,1,0,3:0:0:0:
260,136,225886,1,10,0:0:0:0:
260,136,226235,1,6,0:1:0:0:
166,176,226409,1,0,0:0:0:0:
269,54,226583,70,0,P|318:78|338:156,1,128,2|8,3:1|0:3,0:0:0:0:
249,237,227107,1,0,3:0:0:0:
166,176,227281,2,0,L|87:172,1,64,0|0,3:0|0:0,0:0:0:0:
208,332,227630,6,0,P|264:344|332:288,1,128,4|0,0:0|0:0,0:0:0:0:
360,92,228328,1,8,0:0:0:0:
476,208,228676,2,0,L|460:344,1,128,8|0,0:0|0:0,0:0:0:0:
380,368,229200,1,0,0:0:0:0:
344,216,229374,2,0,P|304:200|268:200,1,64,2|0,0:0|0:0,0:0:0:0:
164,240,229723,2,0,P|184:188|176:108,1,128,0|8,3:0|0:0,0:0:0:0:
96,168,230246,1,0,0:0:0:0:
60,260,230421,2,0,P|52:316|52:332,1,64
168,332,230769,70,0,P|240:328|304:324,2,128,2|0|8,0:0|3:0|0:0,0:0:0:0:
164,168,231816,2,0,L|88:164,1,64
204,72,232164,2,0,P|244:96|265:175,2,128,2|0|8,3:0|0:0|0:0,0:0:0:0:
104,328,233211,6,0,P|160:340|228:304,1,128,4|0,0:0|0:0,0:0:0:0:
424,84,233909,1,0,3:0:0:0:
376,160,234083,1,0,0:0:0:0:
464,172,234258,2,0,P|452:224|444:300,1,128,8|0,0:0|0:0,0:0:0:0:
344,256,234781,1,0,0:0:0:0:
344,256,234955,2,0,P|296:264|260:264,1,64,2|0,0:0|0:0,0:0:0:0:
151,168,235304,2,0,P|191:168|223:172,1,64,0|0,3:0|0:0,0:0:0:0:
184,332,235653,1,8,0:0:0:0:
245,258,235828,1,8,0:0:0:0:
63,217,236002,70,0,L|55:81,1,128,4|0,0:0|0:0,0:0:0:0:
276,16,236700,2,0,L|268:143,1,128,0|8,3:0|0:0,0:0:0:0:
132,348,237397,2,0,P|184:364|260:320,1,128,4|0,0:0|0:0,0:0:0:0:
380,144,238095,2,0,P|388:192|384:232,1,64,8|0,0:0|0:0,0:0:0:0:
304,184,238444,1,0,3:0:0:0:
304,184,238618,1,0,3:0:0:0:
440,60,238793,6,0,P|388:40|312:68,1,128,4|0,0:0|0:0,0:0:0:0:
208,212,239490,1,0,3:0:0:0:
76,160,239839,2,0,P|68:116|72:76,1,64,8|0,0:0|0:0,0:0:0:0:
208,212,240188,2,0,P|216:236|212:296,1,64,4|0,0:0|3:0,0:0:0:0:
164,376,240537,2,0,L|316:360,1,128,10|0,0:0|3:0,0:0:0:0:
408,144,241235,1,0,3:0:0:0:
312,176,241409,1,0,3:0:0:0:
384,240,241583,1,0,3:0:0:0:
336,80,241932,69,4,0:0:0:0:
102,40,253095,22,0,L|112:186,1,128,4|0,0:0|0:0,0:0:0:0:
410,40,253793,2,0,L|400:186,1,128,0|0,3:0|0:0,0:0:0:0:
102,344,254490,2,0,L|112:198,1,128,2|0,3:2|0:0,0:0:0:0:
410,344,255188,2,0,L|400:198,1,128,8|0,0:0|0:0,0:0:0:0:
299,113,255711,1,0,0:0:0:0:
299,113,255799,1,0,0:0:0:0:
298,113,255885,6,0,P|276:171|221:201,1,128,2|0,0:0|0:0,0:0:0:0:
33,305,256583,2,0,P|55:246|110:216,1,128,0|0,3:0|0:0,0:0:0:0:
246,289,257107,1,0,0:0:0:0:
246,289,257194,1,0,0:0:0:0:
246,289,257280,2,0,L|397:284,1,128,2|0,3:2|0:0,0:0:0:0:
207,117,257979,2,0,L|79:112,1,128,8|0,0:0|0:0,0:0:0:0:
353,202,258676,70,0,L|348:51,1,128,2|0,3:2|0:0,0:0:0:0:
181,241,259374,2,0,L|176:368,1,128,0|0,3:0|0:0,0:0:0:0:
93,152,260072,2,0,P|143:114|206:116,1,128,2|0,0:0|0:0,0:0:0:0:
418,231,260769,2,0,P|368:269|305:267,1,128,8|0,0:0|0:0,0:0:0:0:
172,202,261293,1,0,0:0:0:0:
172,202,261380,1,0,0:0:0:0:
172,202,261467,6,0,L|167:71,1,128,2|2,0:2|0:3,0:0:0:0:
167,74,262165,1,2,0:3:0:0:
167,74,262514,1,0,0:0:0:0:
197,83,262601,1,0,0:0:0:0:
228,81,262688,1,0,0:0:0:0:
256,66,262775,1,0,0:0:0:0:
280,45,262863,69,8,0:0:0:0:
398,158,263037,1,8,0:0:0:0:
384,27,263211,1,8,0:0:0:0:
296,183,263386,1,0,0:0:0:0:
296,183,263473,1,0,0:0:0:0:
296,183,263560,1,8,0:0:0:0:
484,132,263735,1,8,0:0:0:0:
333,104,263909,1,8,0:0:0:0:
382,257,264083,1,8,0:0:0:0:
333,104,264956,5,2,0:0:0:0:
382,257,265653,1,2,0:0:0:0:
333,104,266351,69,8,0:3:0:0:
333,104,267049,54,0,L|196:100,1,128,4|0,0:0|0:0,0:0:0:0:
112,56,267572,1,0,3:0:0:0:
164,184,267746,2,0,L|291:187,1,128,10|0,0:0|0:0,0:0:0:0:
433,104,268269,1,8,0:0:0:0:
406,203,268444,2,0,L|410:269,1,64,2|0,0:0|0:0,0:0:0:0:
305,377,268793,2,0,L|308:313,1,64,0|0,3:0|0:0,0:0:0:0:
237,218,269142,2,0,P|196:231|165:229,1,64,8|0,0:0|0:0,0:0:0:0:
101,180,269490,1,0,0:0:0:0:
76,324,269665,1,0,0:0:0:0:
76,324,269752,1,0,0:0:0:0:
76,324,269839,6,0,L|212:351,1,128,2|0,0:0|0:0,0:0:0:0:
301,324,270363,1,0,3:0:0:0:
237,218,270537,2,0,L|239:143,1,64,10|0,0:0|0:0,0:0:0:0:
328,230,270886,1,0,0:0:0:0:
208,309,271060,1,8,0:0:0:0:
104,200,271235,2,0,L|33:200,1,64,2|0,0:0|0:0,0:0:0:0:
116,290,271583,1,0,3:0:0:0:
116,290,271932,2,0,P|154:269|183:240,1,64,8|0,0:0|0:0,0:0:0:0:
104,200,272281,1,0,0:0:0:0:
259,162,272456,1,0,0:0:0:0:
259,162,272543,1,0,0:0:0:0:
259,162,272630,70,0,P|277:221|332:252,1,128,2|0,0:0|0:0,0:0:0:0:
359,153,273153,1,0,3:0:0:0:
184,184,273328,2,0,L|51:193,1,128,10|0,0:0|0:0,0:0:0:0:
113,86,273851,1,8,0:0:0:0:
191,197,274025,1,2,0:0:0:0:
219,94,274200,1,0,0:0:0:0:
272,240,274374,2,0,P|303:241|337:234,1,64,0|0,3:0|0:0,0:0:0:0:
381,66,274723,2,0,P|317:111|310:167,1,128,8|0,0:0|0:0,0:0:0:0:
411,160,275246,1,0,0:0:0:0:
292,22,275421,6,0,L|214:24,1,64,2|0,0:0|0:0,0:0:0:0:
142,79,275769,1,0,0:0:0:0:
269,123,275944,1,0,3:0:0:0:
167,209,276118,2,0,P|158:270|192:323,1,128,6|0,0:0|0:0,0:0:0:0:
325,232,276642,1,8,0:0:0:0:
301,331,276816,1,2,3:1:0:0:
301,331,276990,1,0,0:0:0:0:
248,174,277165,1,2,3:1:0:0:
248,174,277339,1,0,0:0:0:0:
94,243,277514,69,10,0:1:0:0:
195,262,277688,1,0,3:0:0:0:
83,141,277863,1,8,0:3:0:0:
83,259,278037,1,0,0:0:0:0:
177,101,278211,6,0,L|309:96,1,128,4|0,0:0|0:0,0:0:0:0:
408,90,278735,1,0,3:0:0:0:
293,183,278908,2,0,L|165:187,1,128,10|0,0:0|0:0,0:0:0:0:
105,53,279432,1,8,0:0:0:0:
81,152,279607,2,0,P|50:143|26:123,1,64,2|0,0:0|0:0,0:0:0:0:
166,188,279956,2,0,P|163:219|147:247,1,64,0|0,3:0|0:0,0:0:0:0:
52,353,280304,2,0,P|41:324|40:292,1,64,8|0,0:0|0:0,0:0:0:0:
168,349,280653,1,0,0:0:0:0:
278,304,280828,1,0,0:0:0:0:
278,304,280915,1,0,0:0:0:0:
278,304,281002,70,0,P|336:279|397:293,1,128,2|0,0:0|0:0,0:0:0:0:
348,383,281525,1,0,3:0:0:0:
196,266,281700,2,0,L|193:132,1,128,10|0,0:0|0:0,0:0:0:0:
347,171,282223,1,8,0:0:0:0:
274,99,282397,2,0,L|271:30,1,64,2|0,0:0|0:0,0:0:0:0:
353,182,282746,2,0,L|350:245,1,64,0|0,3:0|0:0,0:0:0:0:
265,350,283095,2,0,P|233:354|181:346,1,64,8|0,0:0|0:0,0:0:0:0:
249,246,283444,1,0,0:0:0:0:
249,246,283618,1,0,0:0:0:0:
358,350,283793,6,0,P|389:354|497:324,1,128,4|0,0:0|0:0,0:0:0:0:
414,255,284316,1,0,3:0:0:0:
313,128,284490,2,0,P|309:163|317:205,1,64,10|0,0:0|0:0,0:0:0:0:
430,154,284839,1,0,0:0:0:0:
304,110,285014,1,8,0:0:0:0:
249,246,285188,2,0,P|202:252|173:250,1,64,2|0,0:0|0:0,0:0:0:0:
86,189,285537,1,0,3:0:0:0:
86,189,285886,2,0,P|119:168|156:156,1,64,8|0,0:0|0:0,0:0:0:0:
302,280,286234,2,0,P|272:268|245:250,1,64,8|0,0:0|0:0,0:0:0:0:
304,110,286583,69,2,0:0:0:0:
237,236,286758,1,8,0:0:0:0:
183,148,286932,1,0,3:0:0:0:
183,148,287107,1,0,3:0:0:0:
139,318,287281,1,8,0:0:0:0:
83,208,287456,1,0,3:0:0:0:
155,336,287630,2,0,L|232:333,1,64
324,228,287978,54,0,B|319:264|319:264|294:306,2,85.3333333333333,10|8|8,0:1|0:0|0:1,0:0:0:0:
217,332,288676,6,0,P|141:283|63:330,1,192,10|0,0:1|0:0,0:0:0:0:
16,168,289373,6,0,P|64:180|144:132,1,128,4|0,0:0|0:0,0:0:0:0:
64,84,289897,1,0,3:0:0:0:
228,92,290071,2,0,P|216:144|212:220,1,128,10|0,0:0|0:0,0:0:0:0:
300,164,290594,1,8,0:0:0:0:
348,291,290769,6,0,P|356:327|360:359,1,64,2|0,0:0|0:0,0:0:0:0:
464,184,291118,2,0,P|456:224|444:256,1,64,0|0,3:0|0:0,0:0:0:0:
300,164,291467,2,0,L|228:160,1,64,8|0,0:0|0:0,0:0:0:0:
376,72,291816,2,0,L|448:76,1,64
272,52,292165,70,0,P|216:36|148:88,1,128,2|0,0:0|0:0,0:0:0:0:
100,144,292688,1,0,3:0:0:0:
196,216,292863,2,0,P|204:252|204:280,1,64,10|0,0:0|0:0,0:0:0:0:
92,332,293211,2,0,P|92:300|100:269,1,64,0|8,0:0|0:0,0:0:0:0:
208,360,293560,2,0,P|264:344|356:332,1,128,2|0,0:0|3:0,0:0:0:0:
480,180,294258,2,0,P|416:170|355:153,1,128,8|0,0:0|0:0,0:0:0:0:
408,68,294781,1,8,0:0:0:0:
268,80,294956,6,0,P|268:144|272:212,1,128,6|0,0:0|0:0,0:0:0:0:
312,300,295479,1,0,3:0:0:0:
180,332,295653,2,0,P|140:328|96:320,1,64,10|0,0:0|0:0,0:0:0:0:
64,188,296002,2,0,P|104:192|148:200,1,64,0|8,0:0|0:0,0:0:0:0:
272,224,296351,70,0,L|420:216,1,128,2|0,0:0|3:0,0:0:0:0:
428,128,296874,1,0,0:0:0:0:
348,68,297049,2,0,L|200:60,1,128,8|0,0:0|0:0,0:0:0:0:
136,24,297572,1,8,0:0:0:0:
96,144,297746,6,0,P|144:152|180:140,1,64,2|0,0:0|0:0,0:0:0:0:
64,288,298095,2,0,P|108:284|144:264,1,64,0|0,0:0|3:0,0:0:0:0:
268,192,298444,2,0,L|256:348,1,128,6|0,0:0|0:0,0:0:0:0:
380,244,298967,1,8,0:0:0:0:
380,244,299142,2,0,P|392:280|404:312,1,64,2|0,3:1|0:0,0:0:0:0:
368,136,299490,2,0,P|379:105|389:75,1,64,2|0,3:1|0:0,0:0:0:0:
460,180,299838,69,10,0:1:0:0:
460,180,300014,1,8,0:0:0:0:
380,244,300188,1,8,0:0:0:0:
484,308,300363,1,8,0:0:0:0:
372,359,300536,54,8,P|351:365|330:367,2,42.6666666666667,8|8|8,0:3|0:3|0:3,0:3:0:0:
239,288,300886,2,8,P|260:283|281:280,2,42.6666666666667,8|8|8,0:3|0:3|0:3,0:3:0:0:
148,352,301235,38,0,P|92:356|24:304,1,128,4|0,0:0|0:0,0:0:0:0:
104,176,301758,1,0,0:0:0:0:
104,176,301845,1,0,0:0:0:0:
104,176,301932,2,0,P|116:216|112:248,1,64,6|8,0:0|0:0,0:0:0:0:
4,136,302281,2,0,L|16:60,1,64
204,28,302629,2,0,L|212:164,1,128,8|0,0:0|0:0,0:0:0:0:
296,96,303153,1,0,0:0:0:0:
388,196,303328,70,0,P|424:184|468:176,1,64,4|0,0:0|0:0,0:0:0:0:
340,312,303676,2,0,P|296:300|256:292,1,64,0|0,0:0|3:0,0:0:0:0:
152,332,304025,2,0,P|176:280|176:200,1,128,10|0,0:0|0:0,0:0:0:0:
80,256,304549,1,8,0:0:0:0:
72,144,304723,2,0,P|32:152|0:168,1,64,2|0,0:0|0:0,0:0:0:0:
176,248,305072,2,0,L|248:256,1,64,0|0,3:0|0:0,0:0:0:0:
404,148,305421,2,0,L|264:136,1,128,8|0,0:0|0:0,0:0:0:0:
188,152,305944,1,0,0:0:0:0:
240,336,306118,6,0,P|284:348|364:308,1,128,4|0,0:0|0:0,0:0:0:0:
320,232,306642,1,0,3:0:0:0:
404,148,306816,2,0,L|396:-4,1,128,10|0,0:0|0:0,0:0:0:0:
480,72,307339,1,8,0:0:0:0:
304,132,307514,2,0,P|264:132|232:128,1,64,2|0,0:0|0:0,0:0:0:0:
128,16,307863,2,0,P|168:16|200:20,1,64,0|0,3:0|0:0,0:0:0:0:
132,144,308211,2,0,P|84:168|8:160,1,128,8|0,0:0|0:0,0:0:0:0:
56,80,308735,1,0,3:0:0:0:
24,272,308909,70,0,L|176:276,1,128,4|8,0:0|0:0,0:0:0:0:
151,275,309607,1,8,0:3:0:0:
151,275,309956,1,8,0:3:0:0:
248,228,310130,1,8,0:3:0:0:
230,54,310304,1,2,3:2:0:0:
288,137,310479,1,8,0:3:0:0:
162,118,310653,1,8,0:3:0:0:
348,209,310828,5,0,0:0:0:0:
348,209,310915,1,0,0:0:0:0:
348,209,311002,2,0,P|352:245|352:273,1,64,0|0,3:0|3:0,0:0:0:0:
297,349,311350,2,0,P|349:365|429:325,1,128,0|4,0:0|0:0,0:0:0:0:
456,224,313095,5,2,0:0:0:0:
456,224,314490,2,0,P|444:177|453:116,1,96.0000036621095,2|0,0:0|0:0,0:0:0:0:
396,320,315188,2,0,P|347:340|288:325,1,96.0000036621095
251,122,315886,2,0,P|298:116|341:136,1,96.0000036621095
207,251,316583,1,2,0:0:0:0:
207,251,317281,5,2,3:1:0:0:
123,167,317456,1,0,3:0:0:0:
87,285,317630,1,8,0:0:0:0:
246,127,317979,1,8,0:0:0:0:
290,367,318327,69,8,0:3:0:0:
177,351,318502,1,8,0:3:0:0:
416,197,318851,5,8,0:3:0:0:
296,211,319025,1,0,0:0:0:0:
343,109,319200,1,0,3:0:0:0:
470,259,319373,70,0,P|495:221|464:126,1,128,8|0,0:0|0:0,0:0:0:0:
469,128,319810,1,0,0:0:0:0:
458,117,319897,1,0,0:0:0:0:
446,106,319985,1,0,0:0:0:0:
434,95,320072,54,0,L|283:101,1,128,4|0,0:0|0:0,0:0:0:0:
275,198,320595,1,0,3:0:0:0:
236,25,320769,2,0,P|204:79|211:142,1,128,10|0,0:0|0:0,0:0:0:0:
354,178,321293,1,8,0:0:0:0:
330,278,321467,2,0,L|331:362,1,64,2|0,0:0|0:0,0:0:0:0:
275,198,321816,1,0,3:0:0:0:
275,198,322165,2,0,L|124:205,1,128,8|0,0:0|0:0,0:0:0:0:
33,93,322688,1,0,0:0:0:0:
33,93,322775,1,0,0:0:0:0:
33,93,322863,6,0,L|184:100,1,128,2|0,0:0|0:0,0:0:0:0:
220,31,323386,1,0,3:0:0:0:
319,115,323560,2,0,L|326:257,1,128,10|0,0:0|0:0,0:0:0:0:
362,21,324083,1,8,0:0:0:0:
419,106,324258,2,0,L|426:184,1,64,2|0,0:0|0:0,0:0:0:0:
319,115,324607,1,0,3:0:0:0:
319,115,324956,1,8,0:0:0:0:
342,214,325130,1,0,0:0:0:0:
365,313,325304,2,0,L|363:381,1,64
224,248,325653,70,0,P|283:214|350:216,1,128,2|0,0:0|0:0,0:0:0:0:
283,319,326176,1,0,3:0:0:0:
144,216,326351,2,0,L|141:78,1,128,10|0,0:0|0:0,0:0:0:0:
283,101,326874,1,8,3:0:0:0:
223,183,327049,2,0,L|223:247,1,64,2|0,0:0|0:0,0:0:0:0:
283,101,327397,1,0,3:0:0:0:
283,101,327746,2,0,L|430:95,1,128,8|0,0:0|0:0,0:0:0:0:
403,200,328269,1,0,0:0:0:0:
400,213,328357,1,0,0:0:0:0:
394,225,328444,6,0,P|377:171|412:100,1,128,2|0,0:0|0:0,0:0:0:0:
479,246,328967,1,0,3:0:0:0:
344,296,329142,2,0,L|216:301,1,128,6|0,0:0|0:0,0:0:0:0:
55,201,329665,1,8,0:0:0:0:
112,286,329839,2,0,P|134:263|150:235,1,64,2|0,0:0|0:0,0:0:0:0:
183,68,330188,2,0,P|205:90|221:118,1,64,8|0,0:0|0:0,0:0:0:0:
312,270,330537,38,8,L|354:276,2,42.6666666666667,8|8|8,0:3|0:3|0:3,0:3:0:0:
259,199,330886,2,8,L|216:205,2,42.6666666666667,8|8|8,0:3|0:3|0:3,0:3:0:0:
330,157,331235,22,0,P|378:118|383:30,1,128,4|0,0:0|0:0,0:0:0:0:
290,68,331758,1,0,3:0:0:0:
259,199,331932,2,0,P|255:261|290:314,1,128,6|0,0:0|0:0,0:0:0:0:
373,232,332456,1,8,0:0:0:0:
259,199,332630,2,0,L|179:206,1,64,2|0,0:0|0:0,0:0:0:0:
93,213,332979,1,0,3:0:0:0:
93,213,333328,2,0,P|106:152|78:96,1,128,8|0,0:0|0:0,0:0:0:0:
199,104,333851,1,0,0:0:0:0:
210,112,333938,1,0,0:0:0:0:
222,118,334025,6,0,L|372:100,1,128,2|0,0:0|0:0,0:0:0:0:
430,164,334549,1,0,3:0:0:0:
351,313,334723,2,0,P|329:253|343:191,1,128,10|0,0:0|0:0,0:0:0:0:
441,317,335246,1,8,0:0:0:0:
284,372,335421,1,2,0:0:0:0:
349,200,335595,1,0,0:0:0:0:
233,298,335769,1,0,3:0:0:0:
233,298,336118,2,0,L|234:209,1,64,8|0,0:0|0:0,0:0:0:0:
226,131,336467,1,0,0:0:0:0:
105,233,336642,1,0,0:0:0:0:
105,233,336729,1,0,0:0:0:0:
105,233,336816,70,0,L|233:234,1,128,6|0,0:0|0:0,0:0:0:0:
304,181,337339,1,0,3:0:0:0:
243,316,337514,2,0,L|115:315,1,128,10|0,0:0|0:0,0:0:0:0:
32,283,338037,1,8,0:0:0:0:
117,148,338211,2,0,P|124:85|97:27,1,128,2|8,3:2|0:0,0:0:0:0:
97,27,338909,2,0,P|97:75|103:102,1,64,8|0,0:0|0:0,0:0:0:0:
184,224,339257,5,4,0:0:0:0:
256,192,339345,12,2,345885,0:0:0:0:
