osu file format v14

[General]
AudioFilename: 13. Kage Fumi.mp3
AudioLeadIn: 0
PreviewTime: 122614
Countdown: 0
SampleSet: Soft
StackLeniency: 0.7
Mode: 0
LetterboxInBreaks: 0
WidescreenStoryboard: 0

[Editor]
Bookmarks: 35085,46121,68214,90258,101267,123336,145431
DistanceSpacing: 1
BeatDivisor: 2
GridSize: 32
TimelineZoom: 1.750002

[Metadata]
Title:Kage Fumi
TitleUnicode:影踏み
Artist:nano.RIPE
ArtistUnicode:nano.RIPE
Creator:Milan-
Version:Normal
Source:劇場版 花咲くいろは HOME SWEET HOME
Tags:Lantis P.A. Works cut version ending hanairo hanasaku iroha Movie gekijouban
BeatmapID:582297
BeatmapSetID:252815

[Difficulty]
HPDrainRate:4
CircleSize:3.5
OverallDifficulty:4
ApproachRate:5
SliderMultiplier:1.1
SliderTickRate:1

[Events]
//Background and Video events
0,0,"bggggggg.jpg",0,0
//Break Periods
//Storyboard Layer 0 (Background)
//Storyboard Layer 1 (Fail)
//Storyboard Layer 2 (Pass)
//Storyboard Layer 3 (Foreground)
//Storyboard Sound Samples

[TimingPoints]
4836,387.096774193548,4,2,1,30,1,0
5610,-133.333333333333,4,2,1,30,0,0
26513,405.131667792032,4,2,1,30,1,0
26513,-133.333333333333,4,2,1,30,0,0
28133,606.060606060606,4,2,1,30,1,0
28436,-100,4,2,1,15,0,0
35117,344.827586206897,4,2,1,63,1,0
35117,-100,4,2,1,63,0,0
45448,331.491712707182,4,2,1,66,1,0
46141,344.827586206897,4,2,1,70,1,0
68209,-100,4,2,1,60,0,0
90278,-100,4,2,1,70,0,0
101302,344.827586206897,4,2,1,60,1,0
105459,344.827586206897,4,2,1,60,1,0
120631,-100,4,2,1,65,0,0
123390,-100,4,2,1,73,0,1
145459,-100,4,2,1,73,0,0

[Colours]
Combo1 : 223,168,0
Combo2 : 0,187,131
Combo3 : 228,14,73
Combo4 : 0,196,196

[HitObjects]
408,111,5610,5,0,0:0:0:0:
408,111,5997,1,0,0:0:0:0:
408,111,6384,2,0,L|325:106,1,82.5000031471254,2|0,0:0|0:0,0:0:0:0:
263,160,7158,2,0,L|180:164,1,82.5000031471254
110,206,7932,1,0,0:0:0:0:
269,253,8706,6,0,L|351:248,1,82.5000031471254
425,279,9481,2,0,P|431:238|418:200,1,82.5000031471254,2|0,0:0|0:0,0:0:0:0:
393,167,10061,1,0,0:0:0:0:
393,167,10255,2,0,P|379:128|385:87,2,82.5000031471254
282,289,11803,6,0,P|249:262|233:218,1,82.5000031471254
203,149,12577,2,0,P|161:149|110:175,1,82.5000031471254,2|0,0:0|0:0,0:0:0:0:
123,249,13352,2,0,P|128:289|120:329,1,82.5000031471254
187,378,14126,2,0,P|225:362|266:361,1,82.5000031471254,0|0,0:0|0:0,0:0:0:0:
348,366,14900,2,0,L|369:282,1,82.5000031471254,0|0,0:0|0:0,0:0:0:0:
442,251,15674,2,0,L|421:170,1,82.5000031471254,2|0,0:0|0:0,0:0:0:0:
429,88,16448,2,0,L|394:48,1,41.2500015735627,0|0,0:0|0:0,0:0:0:0:
327,21,17029,1,0,0:0:0:0:
278,221,17997,5,0,0:0:0:0:
278,221,18384,1,0,0:0:0:0:
278,221,18771,2,0,L|170:227,1,82.5000031471254,2|0,0:0|0:0,0:0:0:0:
134,170,19545,2,0,P|115:206|116:247,1,82.5000031471254,0|0,0:0|0:0,0:0:0:0:
174,305,20319,1,0,0:0:0:0:
216,145,21094,6,0,L|210:43,1,82.5000031471254
290,41,21868,2,0,L|294:123,1,82.5000031471254,2|0,0:0|0:0,0:0:0:0:
314,159,22448,1,0,0:0:0:0:
314,159,22642,2,0,P|352:177|392:173,2,82.5000031471254
211,89,23997,6,0,P|173:71|133:75,1,82.5000031471254
98,95,24577,1,0,0:0:0:0:
157,152,24965,2,0,L|165:246,1,82.5000031471254,2|0,0:0|0:0,0:0:0:0:
191,312,25739,2,0,P|224:288|245:253,1,82.5000031471254,0|0,0:0|0:0,0:0:0:0:
264,176,26513,2,0,P|300:194|321:228,1,82.5000031471254,0|0,0:0|0:0,0:0:0:0:
343,308,27323,2,0,P|364:342|400:360,2,82.5000031471254,0|0|2,0:0|0:0|0:0,0:0:0:0:
256,192,28436,12,0,32981,0:0:0:0:
360,111,35117,6,0,P|399:73|453:70,2,110,4|0|8,1:2|3:0|0:0,0:0:0:0:
357,221,36151,2,0,L|385:298,2,55,0|0|0,1:0|3:0|0:0,0:0:0:0:
307,196,36668,1,8,0:0:0:0:
225,269,37013,1,0,3:0:0:0:
225,269,37185,2,0,L|113:266,1,110,10|2,0:0|0:0,0:0:0:0:
44,181,37875,6,0,L|28:63,2,110,4|0|8,1:2|0:0|0:0,0:0:0:0:
115,266,38910,2,0,L|106:330,2,55,0|0|0,1:0|3:0|0:0,0:0:0:0:
148,221,39427,1,8,0:0:0:0:
253,190,39772,1,0,3:0:0:0:
253,190,39944,2,0,L|377:182,1,110,10|4,0:0|0:3,0:0:0:0:
428,94,40634,6,0,P|462:136|472:189,2,110,4|0|8,1:2|0:0|0:0,0:0:0:0:
320,68,41668,2,0,L|334:15,2,55,0|0|0,1:0|3:0|0:0,0:0:0:0:
273,97,42185,1,8,0:0:0:0:
196,175,42530,1,0,3:0:0:0:
196,175,42703,2,0,L|83:182,1,110,10|2,0:0|0:0,0:0:0:0:
135,280,43392,6,0,L|25:286,2,110,4|0|8,1:2|0:0|0:0,0:0:0:0:
228,338,44427,2,0,L|297:331,1,55,8|8,0:2|1:2,0:0:0:0:
459,112,45448,2,0,L|456:166,1,55,8|4,0:3|0:3,0:0:0:0:
479,217,45779,1,8,1:2:0:0:
371,174,46141,6,0,P|316:166|265:185,1,110,4|8,0:0|0:0,0:0:0:0:
194,269,46830,2,0,L|186:340,2,55,0|0|8,3:0|3:0|0:0,0:0:0:0:
162,163,47520,1,0,0:0:0:0:
53,180,47865,1,8,0:0:0:0:
95,78,48209,2,0,P|121:62|151:58,1,55,0|0,0:0|3:0,0:0:0:0:
198,72,48554,2,0,P|224:66|248:52,1,55,8|0,0:0|3:0,0:0:0:0:
287,14,48899,6,0,P|341:6|391:26,1,110,2|8,0:0|0:0,0:0:0:0:
450,120,49589,2,0,L|470:177,2,55,0|0|8,0:0|3:0|0:0,0:0:0:0:
340,115,50278,1,0,0:0:0:0:
278,206,50623,1,8,0:0:0:0:
205,123,50968,2,0,P|179:118|137:115,1,55,0|0,0:0|3:0,0:0:0:0:
121,162,51313,2,0,P|93:159|66:154,1,55,8|0,0:0|1:0,0:0:0:0:
26,192,51658,6,0,P|11:244|20:298,1,110,4|8,0:0|0:0,0:0:0:0:
112,359,52347,2,0,L|169:379,2,55,0|0|8,0:0|3:0|0:0,0:0:0:0:
109,248,53037,1,0,0:0:0:0:
183,167,53382,1,8,0:0:0:0:
275,226,53727,2,0,L|313:265,1,55,0|0,0:0|3:0,0:0:0:0:
360,236,54072,2,0,L|398:275,1,55,8|0,0:0|1:0,0:0:0:0:
450,292,54416,6,0,P|485:251|487:197,1,110,4|8,0:0|0:0,0:0:0:0:
455,91,55106,2,0,L|480:19,2,55,0|0|8,0:0|3:0|0:0,0:0:0:0:
357,142,55796,1,0,0:0:0:0:
299,47,56141,1,8,0:0:0:0:
195,82,56485,2,0,L|127:98,1,55,8|8,1:2|1:2,0:0:0:0:
141,149,56830,2,0,L|73:165,1,55,8|8,1:2|1:2,0:0:0:0:
47,199,57175,6,0,P|28:254|42:320,1,110,4|8,0:0|0:0,0:0:0:0:
137,264,57865,2,0,L|168:216,2,55,0|0|8,0:0|3:0|0:0,0:0:0:0:
175,367,58554,1,0,0:0:0:0:
277,322,58899,1,8,0:0:0:0:
374,373,59244,2,0,L|438:366,1,55,0|0,0:0|3:0,0:0:0:0:
422,312,59589,2,0,L|475:286,1,55,8|0,0:0|0:0,0:0:0:0:
462,233,59934,6,0,P|472:179|454:126,1,110,2|8,3:2|0:0,0:0:0:0:
361,70,60623,2,0,L|360:13,2,55,0|0|8,0:0|3:0|0:0,0:0:0:0:
345,179,61313,1,0,0:0:0:0:
259,110,61658,1,8,0:0:0:0:
183,189,62003,2,0,P|153:177|119:171,1,55,0|0,0:0|3:0,0:0:0:0:
96,215,62347,2,0,P|63:205|35:184,1,55,8|0,0:0|1:0,0:0:0:0:
23,143,62692,6,0,P|28:89|64:48,1,110,4|8,0:0|0:0,0:0:0:0:
175,51,63382,2,0,L|215:-11,2,55,0|0|8,0:0|3:0|0:0,0:0:0:0:
161,160,64072,1,0,0:0:0:0:
264,123,64416,1,8,0:0:0:0:
276,232,64761,2,0,P|288:264|311:300,1,55,0|0,0:0|3:0,0:0:0:0:
353,278,65106,2,0,P|379:299|417:319,1,55,8|0,0:0|1:0,0:0:0:0:
445,282,65451,6,0,P|483:244|493:191,1,110,4|8,0:0|0:0,0:0:0:0:
456,86,66141,2,0,L|478:26,2,55,0|8|0,0:0|0:0|0:0,0:0:0:0:
366,150,66830,1,8,0:0:0:0:
306,57,67175,1,8,0:0:0:0:
220,126,67520,2,0,P|188:132|159:132,1,55,8|8,1:2|1:2,0:0:0:0:
114,152,67865,2,0,P|86:152|59:158,1,55,8|8,1:2|1:2,0:0:0:0:
33,205,68209,6,0,P|23:257|47:305,1,110,4|8,0:0|0:0,0:0:0:0:
156,287,68899,2,0,L|174:226,2,55,0|0|8,3:0|3:0|0:0,0:0:0:0:
170,340,69416,2,0,P|252:345|301:336,1,110,0|0,3:0|3:0,0:0:0:0:
320,304,69934,1,8,0:0:0:0:
320,304,70106,2,0,P|374:298|429:305,1,110,0|0,0:0|3:0,0:0:0:0:
481,322,70623,1,8,0:0:0:0:
477,211,70968,6,0,L|493:97,2,110,0|8|0,1:3|0:0|3:0,0:0:0:0:
372,161,72003,1,8,0:0:0:0:
372,161,72175,2,0,P|357:239|378:326,1,165,2|8,3:2|0:0,0:0:0:0:
364,374,72865,2,0,P|316:346|262:347,1,110,2|2,3:2|3:2,0:0:0:0:
213,372,73382,1,8,0:0:0:0:
166,274,73727,6,0,L|162:154,1,110,0|8,1:3|0:0,0:0:0:0:
237,80,74416,2,0,L|230:21,2,55,0|0|8,3:0|3:0|0:0,0:0:0:0:
275,120,74934,1,0,3:0:0:0:
374,73,75278,2,0,L|428:65,1,55,0|8,3:0|0:0,0:0:0:0:
478,92,75623,2,0,P|498:144|494:198,1,110,0|0,3:0|3:0,0:0:0:0:
468,247,76141,1,8,0:0:0:0:
468,247,76313,6,0,B|365:248|365:248|292:260,1,165,0|8,3:0|0:0,0:0:0:0:
285,366,77175,2,0,L|161:363,1,110,0|8,3:0|0:0,0:0:0:0:
127,334,77692,2,0,P|111:266|111:161,1,165,2|8,3:2|0:0,0:0:0:0:
139,125,78382,2,0,L|259:113,1,110,2|2,3:2|3:2,0:0:0:0:
300,132,78899,1,8,0:0:0:0:
405,162,79244,6,0,P|407:107|381:60,1,110,0|8,1:0|0:0,0:0:0:0:
300,132,79934,2,0,L|296:210,2,55,0|0|8,3:0|3:0|0:0,0:0:0:0:
267,87,80451,2,0,P|216:66|123:98,1,110,0|0,1:0|3:0,0:0:0:0:
116,104,80968,1,8,0:0:0:0:
116,104,81141,2,0,B|109:163|109:163|128:269,1,165,0|8,3:0|0:0,0:0:0:0:
205,344,82003,6,0,P|158:372|104:373,2,110,0|8|0,1:2|0:0|3:0,0:0:0:0:
266,253,83037,1,8,0:0:0:0:
266,253,83209,2,0,P|347:241|427:255,1,165,2|8,3:2|0:0,0:0:0:0:
477,279,83899,2,0,P|487:225|468:174,1,110,2|2,3:2|3:2,0:0:0:0:
434,130,84416,1,8,0:0:0:0:
326,105,84761,6,0,P|307:54|317:0,2,110,0|8|0,1:0|0:0|3:0,0:0:0:0:
359,210,85796,1,8,0:0:0:0:
250,189,86141,1,0,0:0:0:0:
233,297,86485,1,8,0:0:0:0:
341,317,86830,1,0,0:0:0:0:
359,210,87175,1,8,0:0:0:0:
250,189,87520,6,0,P|221:142|217:88,2,110,0|8|0,1:0|0:0|3:0,0:0:0:0:
325,108,88554,1,8,0:0:0:0:
434,122,88899,2,0,L|480:83,2,55,2|0|14,1:2|3:0|0:0,0:0:0:0:
403,168,89416,2,0,B|392:198|381:218|381:218|383:251|376:286|376:286|355:306|341:327,1,165,0|8,1:2|1:2,0:0:0:0:
272,237,90278,6,0,P|218:230|170:256,1,110,4|8,0:0|0:0,0:0:0:0:
90,331,90968,2,0,P|66:344|40:353,2,55,0|0|8,3:0|3:0|0:0,0:0:0:0:
70,222,91658,1,0,0:0:0:0:
130,130,92003,1,8,0:0:0:0:
239,137,92347,2,0,L|296:133,1,55,0|0,0:0|3:0,0:0:0:0:
333,171,92692,2,0,L|390:167,1,55,8|0,0:0|3:0,0:0:0:0:
432,199,93037,6,0,P|476:231|489:284,1,110,2|8,0:0|0:0,0:0:0:0:
401,350,93727,2,0,L|347:384,2,55,0|0|8,3:0|3:0|0:0,0:0:0:0:
328,266,94416,1,0,0:0:0:0:
224,304,94761,1,8,0:0:0:0:
126,253,95106,2,0,L|65:218,1,55,0|0,0:0|3:0,0:0:0:0:
91,172,95451,2,0,L|55:111,1,55,8|0,0:0|3:0,0:0:0:0:
83,73,95796,6,0,P|116:30|169:17,1,110,4|8,0:0|0:0,0:0:0:0:
235,103,96485,2,0,L|237:161,2,55,0|0|8,0:0|3:0|0:0,0:0:0:0:
300,13,97175,1,0,0:0:0:0:
410,10,97520,1,8,0:0:0:0:
491,84,97865,2,0,L|475:163,1,55,0|0,0:0|3:0,0:0:0:0:
425,136,98209,2,0,L|427:221,1,55,8|0,0:0|3:0,0:0:0:0:
467,227,98554,6,0,L|447:360,1,110,4|8,0:0|0:0,0:0:0:0:
342,357,99244,2,0,L|276:385,2,55,0|0|8,0:0|3:0|0:0,0:0:0:0:
370,250,99934,1,0,3:0:0:0:
310,157,100278,1,8,0:0:0:0:
202,178,100623,2,0,L|181:119,2,55,8|8|8,1:2|1:2|1:2,0:0:0:0:
183,286,101302,6,0,P|129:287|88:252,1,110,4|8,1:3|0:0,0:0:0:0:
62,145,101992,2,0,P|47:114|29:92,2,55,0|0|8,3:0|3:0|0:0,0:0:0:0:
112,166,102509,2,0,L|233:159,1,110,0|0,1:0|3:0,0:0:0:0:
274,177,103026,1,8,0:0:0:0:
274,177,103198,2,0,P|302:128|301:62,1,110,0|0,0:0|3:0,0:0:0:0:
284,23,103716,1,8,0:0:0:0:
179,61,104061,6,0,L|69:67,1,110,0|8,1:0|0:0,0:0:0:0:
24,167,104750,2,0,L|6:228,2,55,0|0|8,3:0|3:0|0:0,0:0:0:0:
77,156,105267,1,2,3:2:0:0:
188,189,105631,2,0,P|203:211|217:245,1,55,2|8,3:2|0:0,0:0:0:0:
175,275,105976,2,0,L|349:271,1,165,2|8,3:2|0:0,0:0:0:0:
436,324,106838,6,0,P|448:271|435:218,1,110,0|8,1:0|0:0,0:0:0:0:
390,186,107355,2,0,P|379:123|395:73,1,110,0|0,0:0|3:0,0:0:0:0:
420,32,107873,2,0,L|350:14,1,55,8|0,0:0|3:0,0:0:0:0:
295,102,108390,2,0,L|241:115,2,55,0|8|0,3:0|0:0|3:0,0:0:0:0:
225,16,109080,2,0,L|155:-2,1,55,0|8,3:0|0:0,0:0:0:0:
73,50,109597,6,0,P|46:98|45:152,2,110,0|8|0,1:0|0:0|3:0,0:0:0:0:
151,126,110631,1,8,0:0:0:0:
151,126,110804,2,0,P|206:133|257:116,1,110,2|2,3:2|3:2,0:0:0:0:
299,79,111321,1,8,0:0:0:0:
299,79,111493,2,0,L|364:257,1,165,2|8,3:2|0:0,0:0:0:0:
316,336,112355,6,0,P|268:362|214:361,1,110,0|8,1:0|0:0,0:0:0:0:
131,287,113045,2,0,L|102:153,1,110,0|8,1:0|1:2,0:0:0:0:
111,124,113562,1,8,1:2:0:0:
209,172,113907,1,8,1:2:0:0:
293,102,114252,1,8,1:2:0:0:
381,167,114597,2,0,L|387:238,1,55,0|8,3:0|0:0,0:0:0:0:
347,324,115114,6,0,P|300:352|246:353,2,110,4|8|0,0:0|0:0|3:0,0:0:0:0:
270,245,116149,1,8,0:0:0:0:
270,245,116321,2,0,P|215:246|168:273,1,110,2|2,1:2|3:2,0:0:0:0:
141,321,116838,1,8,0:0:0:0:
141,321,117011,2,0,L|77:145,1,165,2|8,3:2|0:0,0:0:0:0:
45,62,117873,6,0,P|98:54|147:78,1,110,0|8,1:0|0:0,0:0:0:0:
215,165,118562,2,0,L|212:225,2,55,0|0|8,3:0|3:0|0:0,0:0:0:0:
261,64,119252,1,0,0:0:0:0:
369,48,119597,1,8,0:0:0:0:
428,140,119942,1,0,0:0:0:0:
408,248,120286,2,0,P|416:277|428:299,1,55,8|8,0:0|1:2,0:0:0:0:
474,328,120631,6,0,L|504:207,2,110,4|8|0,0:0|0:0|3:0,0:0:0:0:
376,379,121666,1,8,0:0:0:0:
289,311,122011,2,0,P|259:298|223:292,1,55,10|0,0:0|3:0,0:0:0:0:
183,303,122355,2,0,P|156:296|131:285,1,55,14|0,0:0|3:0,0:0:0:0:
112,233,122700,2,0,L|110:98,1,110,10|8,1:2|1:2,0:0:0:0:
197,54,123390,6,0,L|195:163,1,110,4|8,0:0|0:0,0:0:0:0:
269,245,124080,2,0,L|303:157,2,55,0|0|8,3:0|3:0|0:0,0:0:0:0:
257,298,124597,2,0,P|304:339|375:321,1,110,2|0,1:2|3:0,0:0:0:0:
398,313,125114,1,8,0:0:0:0:
396,202,125459,1,0,0:0:0:0:
490,145,125804,1,8,0:0:0:0:
393,92,126149,6,0,L|283:95,1,110,2|8,1:2|0:0,0:0:0:0:
246,136,126666,2,0,P|193:124|162:80,1,110,0|0,0:0|3:0,0:0:0:0:
149,26,127183,1,8,0:0:0:0:
149,26,127355,2,0,L|52:96,1,110,2|0,1:2|3:0,0:0:0:0:
45,143,127873,1,8,0:0:0:0:
128,214,128217,1,0,0:0:0:0:
164,317,128562,1,8,0:0:0:0:
263,267,128907,6,0,P|314:249|369:246,1,110,4|8,0:0|0:0,0:0:0:0:
467,298,129597,2,0,P|476:235|459:188,1,110,0|8,3:0|0:0,0:0:0:0:
369,137,130286,2,0,P|314:134|263:117,1,110,2|8,1:2|0:0,0:0:0:0:
154,138,130976,2,0,P|102:120|47:117,1,110,0|8,0:0|0:0,0:0:0:0:
80,223,131666,6,0,L|88:360,1,110,4|8,0:0|0:0,0:0:0:0:
179,274,132355,2,0,L|184:211,2,55,0|0|8,3:0|3:0|0:0,0:0:0:0:
190,328,132873,2,0,P|241:348|311:317,1,110,4|0,0:0|3:0,0:0:0:0:
329,292,133390,1,8,0:0:0:0:
394,203,133735,1,8,1:2:0:0:
502,222,134080,1,8,1:2:0:0:
477,115,134424,6,0,P|402:84|354:79,1,110,4|8,0:0|0:0,0:0:0:0:
263,69,135114,2,0,L|247:-1,2,55,0|0|8,3:0|3:0|0:0,0:0:0:0:
259,124,135631,2,0,L|145:179,1,110,4|0,0:0|3:0,0:0:0:0:
121,212,136149,1,8,0:0:0:0:
156,316,136493,1,0,0:0:0:0:
265,324,136838,1,8,0:0:0:0:
329,235,137183,6,0,P|335:180|319:128,1,110,4|8,0:0|0:0,0:0:0:0:
213,97,137873,2,0,L|247:52,2,55,0|0|8,3:0|3:0|0:0,0:0:0:0:
174,136,138390,2,0,L|44:131,1,110,4|0,0:0|3:0,0:0:0:0:
25,91,138907,1,8,0:0:0:0:
106,16,139252,1,0,0:0:0:0:
213,38,139597,1,8,0:0:0:0:
287,118,139942,6,0,P|305:169|297:222,1,110,4|8,0:0|0:0,0:0:0:0:
244,320,140631,2,0,P|192:338|139:330,1,110,0|8,3:0|0:0,0:0:0:0:
58,253,141321,2,0,P|39:201|47:148,1,110,2|8,0:2|0:0,0:0:0:0:
105,54,142010,2,0,P|156:35|222:51,1,110,0|8,0:0|0:0,0:0:0:0:
287,118,142700,6,0,L|271:251,1,110,4|8,0:0|0:0,0:0:0:0:
332,320,143390,2,0,L|350:406,2,55,0|0|8,3:0|3:0|0:0,0:0:0:0:
404,228,144079,6,0,B|436:183|436:183|420:131|420:131|427:78|427:78|377:38,1,220,0|2,3:0|1:3,0:0:0:0:
161,107,145459,5,4,0:0:0:0:
