osu file format v14

[General]
AudioFilename: 13. Kage Fumi.mp3
AudioLeadIn: 0
PreviewTime: 122614
Countdown: 0
SampleSet: Soft
StackLeniency: 0.7
Mode: 0
LetterboxInBreaks: 0
WidescreenStoryboard: 0

[Editor]
Bookmarks: 35085,46121,68214,79244,90258,101267,123336,134416,145431
DistanceSpacing: 1.3
BeatDivisor: 4
GridSize: 32
TimelineZoom: 2.450002

[Metadata]
Title:Kage Fumi
TitleUnicode:影踏み
Artist:nano.RIPE
ArtistUnicode:nano.RIPE
Creator:Milan-
Version:Hard
Source:劇場版 花咲くいろは HOME SWEET HOME
Tags:Lantis P.A. Works cut version ending hanairo hanasaku iroha Movie gekijouban
BeatmapID:580587
BeatmapSetID:252815

[Difficulty]
HPDrainRate:6
CircleSize:4
OverallDifficulty:6
ApproachRate:7.2
SliderMultiplier:1.4
SliderTickRate:1

[Events]
//Background and Video events
0,0,"bggggggg.jpg",0,0
//Break Periods
//Storyboard Layer 0 (Background)
//Storyboard Layer 1 (Fail)
//Storyboard Layer 2 (Pass)
//Storyboard Layer 3 (Foreground)
//Storyboard Sound Samples

[TimingPoints]
4836,387.096774193548,4,2,1,30,1,0
5610,-133.333333333333,4,2,1,30,0,0
26513,405.131667792032,4,2,1,30,1,0
26513,-133.333333333333,4,2,1,30,0,0
28133,606.060606060606,4,2,1,30,1,0
28436,-100,4,2,1,15,0,0
35117,344.827586206897,4,2,1,63,1,0
35117,-111.111111111111,4,2,1,63,0,0
45448,331.491712707182,4,2,1,66,1,0
46141,344.827586206897,4,2,1,70,1,0
68209,-111.111111111111,4,2,1,60,0,0
90278,-100,4,2,1,70,0,0
101302,344.827586206897,4,2,1,60,1,0
101302,-111.111111111111,4,2,1,60,0,0
105459,344.827586206897,4,2,1,60,1,0
105459,-111.111111111111,4,2,1,60,0,0
120631,-99.9999999999999,4,2,1,65,0,0
123390,-100,4,2,1,73,0,1
144769,-133.333333333333,4,2,1,73,0,1
145459,-133.333333333333,4,2,1,73,0,0

[Colours]
Combo1 : 223,168,0
Combo2 : 0,187,131
Combo3 : 228,14,73
Combo4 : 0,196,196

[HitObjects]
233,103,5610,6,0,L|221:168,1,52.5000020027161,0|0,0:0|0:0,0:0:0:0:
282,207,5997,2,0,L|248:270,1,52.5000020027161,0|0,0:0|0:0,0:0:0:0:
188,292,6384,2,0,P|135:296|83:296,1,105.000004005432,2|0,0:0|0:0,0:0:0:0:
41,228,6965,1,0,0:0:0:0:
41,228,7158,2,0,L|37:123,1,105.000004005432,0|0,0:0|0:0,0:0:0:0:
81,57,7739,1,0,0:0:0:0:
81,57,7932,2,0,L|77:161,1,105.000004005432,0|0,0:0|0:0,0:0:0:0:
190,271,8706,6,0,L|205:206,1,52.5000020027161,0|0,0:0|0:0,0:0:0:0:
278,198,9094,2,0,L|274:145,1,52.5000020027161,0|0,0:0|0:0,0:0:0:0:
285,67,9481,2,0,P|342:35|387:40,1,105.000004005432,2|0,0:0|0:0,0:0:0:0:
352,111,10061,2,0,L|358:240,1,105.000004005432
250,332,10835,1,0,0:0:0:0:
250,332,11029,2,0,L|254:227,1,105.000004005432
188,83,11803,6,0,L|192:157,1,52.5000020027161
126,181,12190,2,0,L|116:255,1,52.5000020027161,0|0,0:0|0:0,0:0:0:0:
69,294,12577,2,0,P|111:309|182:278,1,105.000004005432,2|0,0:0|0:0,0:0:0:0:
289,192,13352,2,0,P|337:175|387:190,1,105.000004005432,0|0,0:0|0:0,0:0:0:0:
353,354,14126,2,0,L|339:232,1,105.000004005432,0|0,0:0|0:0,0:0:0:0:
237,130,14900,2,0,L|225:234,1,105.000004005432,0|0,0:0|0:0,0:0:0:0:
160,90,15674,2,0,P|200:51|266:46,1,105.000004005432,2|0,0:0|0:0,0:0:0:0:
395,93,16448,2,0,P|421:92|446:86,1,52.5000020027161
479,240,17029,1,0,0:0:0:0:
479,240,17223,2,0,P|454:305|407:332,1,105.000004005432
272,352,17997,6,0,L|264:283,1,52.5000020027161,0|0,0:0|0:0,0:0:0:0:
314,237,18384,1,0,0:0:0:0:
314,237,18771,2,0,L|308:118,1,105.000004005432,2|0,0:0|0:0,0:0:0:0:
264,66,19352,1,0,0:0:0:0:
264,66,19545,2,0,L|258:170,1,105.000004005432,0|0,0:0|0:0,0:0:0:0:
214,236,20126,1,0,0:0:0:0:
214,236,20319,2,0,P|154:230|96:253,1,105.000004005432,0|0,0:0|0:0,0:0:0:0:
68,309,20900,6,0,L|66:380,2,52.5000020027161,0|0|0,0:0|0:0|0:0,0:0:0:0:
36,236,21481,2,0,L|42:173,1,52.5000020027161,0|0,0:0|0:0,0:0:0:0:
88,121,21868,2,0,L|201:113,1,105.000004005432,2|0,0:0|0:0,0:0:0:0:
261,151,22448,2,0,L|375:129,1,105.000004005432,0|0,0:0|0:0,0:0:0:0:
247,237,23223,1,0,0:0:0:0:
247,237,23416,2,0,L|133:215,1,105.000004005432,0|0,0:0|0:0,0:0:0:0:
105,148,23997,6,0,L|105:88,2,52.5000020027161,0|0|0,0:0|0:0|0:0,0:0:0:0:
66,219,24577,1,0,0:0:0:0:
66,219,24965,2,0,L|82:334,1,105.000004005432,2|0,0:0|0:0,0:0:0:0:
180,201,25739,2,0,L|194:97,1,105.000004005432,0|0,0:0|0:0,0:0:0:0:
256,234,26513,2,0,P|223:274|173:286,1,105.000004005432,0|0,0:0|0:0,0:0:0:0:
251,149,27323,2,0,P|301:161|333:201,2,105.000004005432,0|0|2,0:0|0:0|0:0,0:0:0:0:
256,192,28436,12,0,32981,0:0:0:0:
441,309,35117,6,0,P|380:294|320:309,1,125.999996154785,4|0,1:2|3:0,0:0:0:0:
240,289,35634,2,0,P|203:298|177:300,1,62.9999980773926,0|8,3:0|0:0,0:0:0:0:
206,138,36151,2,0,P|243:129|269:127,1,62.9999980773926,0|0,1:0|3:0,0:0:0:0:
346,158,36496,1,0,0:0:0:0:
335,77,36668,1,8,0:0:0:0:
426,212,37013,5,0,3:0:0:0:
426,212,37099,1,0,3:0:0:0:
426,212,37185,2,0,L|425:290,1,62.9999980773926,10|0,0:0|3:0,0:0:0:0:
344,291,37530,2,0,L|343:369,1,62.9999980773926,2|0,0:0|3:0,0:0:0:0:
267,321,37875,6,0,P|213:297|126:313,1,125.999996154785,4|0,1:2|0:0,0:0:0:0:
84,354,38392,2,0,L|13:353,1,62.9999980773926,0|8,3:0|0:0,0:0:0:0:
83,201,38910,2,0,L|80:138,2,62.9999980773926,0|0|0,1:0|3:0|0:0,0:0:0:0:
134,264,39427,1,8,0:0:0:0:
240,139,39772,5,0,3:0:0:0:
240,139,39858,1,0,3:0:0:0:
240,139,39944,2,0,L|240:76,1,62.9999980773926,10|8,0:0|0:3,0:0:0:0:
308,29,40289,1,4,0:3:0:0:
308,29,40461,1,4,0:3:0:0:
308,29,40634,6,0,P|383:41|443:26,1,125.999996154785,4|0,1:2|0:0,0:0:0:0:
494,82,41151,2,0,P|488:112|488:144,1,62.9999980773926,0|8,3:0|0:0,0:0:0:0:
404,285,41668,2,0,P|409:254|409:222,1,62.9999980773926,0|0,1:0|3:0,0:0:0:0:
349,166,42013,1,0,0:0:0:0:
331,245,42185,1,8,0:0:0:0:
318,81,42530,5,0,3:0:0:0:
318,81,42617,1,0,3:0:0:0:
318,81,42703,2,0,L|239:92,1,62.9999980773926,10|0,0:0|3:0,0:0:0:0:
197,147,43048,2,0,L|110:155,1,62.9999980773926,2|0,0:0|1:0,0:0:0:0:
45,212,43392,6,0,P|59:271|114:296,1,125.999996154785,4|0,1:2|0:0,0:0:0:0:
195,275,43910,2,0,L|270:267,1,62.9999980773926,0|8,3:0|0:0,0:0:0:0:
406,337,44427,1,8,0:2:0:0:
391,256,44599,1,8,1:2:0:0:
136,354,45448,6,0,L|89:343,3,35,8|0|4|0,0:3|3:0|0:3|3:0,0:0:0:0:
82,324,45779,1,8,1:2:0:0:
137,141,46141,6,0,P|149:206|211:230,1,140,4|8,0:0|0:0,0:0:0:0:
290,184,46658,1,0,0:0:0:0:
367,230,46830,2,0,P|378:168|319:98,1,140,0|8,3:0|0:0,0:0:0:0:
290,184,47347,1,0,3:0:0:0:
291,275,47520,6,0,L|298:362,1,70,0|0,0:0|3:0,0:0:0:0:
211,311,47865,2,0,L|154:377,1,70,8|0,0:0|3:0,0:0:0:0:
116,288,48209,2,0,L|29:295,1,70,0|0,0:0|3:0,0:0:0:0:
72,206,48554,1,8,0:0:0:0:
72,206,48727,1,0,3:0:0:0:
162,211,48899,6,0,P|197:186|220:78,1,140,2|8,0:0|0:0,0:0:0:0:
242,7,49416,1,0,3:0:0:0:
242,7,49589,2,0,P|253:74|304:121,1,140,0|8,0:0|0:0,0:0:0:0:
395,118,50106,1,0,3:0:0:0:
395,118,50278,6,0,L|457:69,1,70,0|0,0:0|3:0,0:0:0:0:
477,161,50623,2,0,L|498:233,1,70,8|0,0:0|3:0,0:0:0:0:
405,219,50968,2,0,L|339:188,1,70,0|0,0:0|3:0,0:0:0:0:
254,161,51313,1,8,0:0:0:0:
214,242,51485,1,0,1:0:0:0:
129,155,51658,6,0,P|62:143|5:180,1,140,4|8,0:0|0:0,0:0:0:0:
80,232,52175,1,0,3:0:0:0:
30,307,52347,2,0,P|97:319|154:282,1,140,0|8,0:0|0:0,0:0:0:0:
202,204,52865,1,0,3:0:0:0:
202,204,53037,6,0,L|276:195,1,70,0|0,0:0|3:0,0:0:0:0:
357,269,53382,2,0,L|287:277,1,70,8|0,0:0|3:0,0:0:0:0:
209,324,53727,2,0,L|128:313,1,70,0|0,0:0|3:0,0:0:0:0:
66,259,54072,1,8,0:0:0:0:
57,349,54244,1,0,1:0:0:0:
87,239,54416,6,0,P|85:189|69:92,1,140,4|8,0:0|0:0,0:0:0:0:
138,37,54934,1,0,3:0:0:0:
138,37,55106,2,0,P|188:35|285:19,1,140,0|8,0:0|0:0,0:0:0:0:
365,44,55623,1,0,3:0:0:0:
365,44,55796,6,0,L|373:142,1,70,0|0,0:0|3:0,0:0:0:0:
283,141,56141,2,0,L|275:239,1,70,8|0,0:0|3:0,0:0:0:0:
338,278,56485,2,0,L|343:326,3,35,8|0|8|0,1:2|1:0|1:2|1:0,0:0:0:0:
298,328,56830,2,0,L|290:372,3,35,8|0|8|0,1:2|1:2|1:2|1:2,0:0:0:0:
247,376,57175,6,0,P|189:377|99:362,1,140,4|8,0:0|0:0,0:0:0:0:
61,286,57692,1,0,3:0:0:0:
121,217,57865,2,0,P|124:161|107:74,1,140,0|8,0:0|0:0,0:0:0:0:
40,17,58382,1,0,3:0:0:0:
40,17,58554,6,0,L|14:91,1,70,0|0,0:0|3:0,0:0:0:0:
108,78,58899,2,0,L|202:60,1,70,8|0,0:0|3:0,0:0:0:0:
236,133,59244,2,0,L|315:128,1,70,0|0,0:0|3:0,0:0:0:0:
386,86,59589,1,8,0:0:0:0:
381,176,59761,1,0,0:0:0:0:
462,134,59934,6,0,P|473:66|435:9,1,140,2|8,3:2|0:0,0:0:0:0:
386,86,60451,1,0,3:0:0:0:
381,176,60623,2,0,L|393:319,1,140,0|8,0:0|0:0,0:0:0:0:
321,373,61141,1,0,3:0:0:0:
321,373,61313,6,0,L|241:362,1,70,0|0,0:0|3:0,0:0:0:0:
255,272,61658,2,0,L|175:283,1,70,8|0,0:0|3:0,0:0:0:0:
151,366,62003,2,0,L|71:355,1,70,0|0,0:0|3:0,0:0:0:0:
11,298,62347,1,8,0:0:0:0:
44,213,62520,1,0,1:0:0:0:
157,251,62692,6,0,L|307:231,1,140,4|8,0:0|0:0,0:0:0:0:
366,174,63209,1,0,3:0:0:0:
278,148,63382,2,0,L|139:166,1,140,0|8,0:0|0:0,0:0:0:0:
52,137,63899,1,0,3:0:0:0:
124,81,64072,6,0,L|199:70,1,70,0|0,0:0|3:0,0:0:0:0:
283,67,64416,2,0,L|358:56,1,70,8|0,0:0|3:0,0:0:0:0:
436,92,64761,2,0,P|453:122|460:156,1,70,0|0,0:0|3:0,0:0:0:0:
368,155,65106,1,8,0:0:0:0:
390,243,65278,1,0,1:0:0:0:
284,186,65451,6,0,P|236:189|158:248,1,140,4|8,0:0|0:0,0:0:0:0:
138,328,65968,1,0,3:0:0:0:
73,262,66141,2,0,L|-10:268,1,70,0|8,0:0|0:0,0:0:0:0:
138,328,66485,2,0,L|207:333,1,70,0|0,0:0|0:0,0:0:0:0:
293,302,66830,5,8,0:0:0:0:
227,132,67175,1,8,0:0:0:0:
406,158,67520,2,0,L|454:131,3,35,8|0|8|0,1:2|1:2|1:2|1:2,0:0:0:0:
422,96,67865,2,0,L|460:56,3,35,8|0|8|8,1:2|0:0|1:2|1:2,0:0:0:0:
464,33,68209,6,0,P|406:52|321:57,1,125.999996154785,4|8,0:0|0:0,0:0:0:0:
187,114,68899,2,0,L|178:38,2,62.9999980773926,0|0|8,3:0|3:0|0:0,0:0:0:0:
245,172,69416,2,0,L|243:300,1,125.999996154785,0|0,3:0|3:0,0:0:0:0:
227,379,69934,1,8,0:0:0:0:
305,347,70106,2,0,P|366:335|428:344,1,125.999996154785,0|0,0:0|3:0,0:0:0:0:
500,306,70623,2,0,P|502:274|500:243,1,62.9999980773926,8|0,0:0|3:0,0:0:0:0:
451,148,70968,6,0,P|444:85|461:25,1,125.999996154785,0|8,1:3|0:0,0:0:0:0:
461,25,71485,2,0,L|377:37,1,62.9999980773926,0|0,0:0|3:0,0:0:0:0:
338,90,71830,1,0,3:0:0:0:
264,52,72003,1,8,0:0:0:0:
269,133,72175,2,0,P|266:189|260:265,1,125.999996154785,2|2,3:2|3:2,0:0:0:0:
204,318,72692,1,8,0:0:0:0:
204,318,72865,2,0,P|145:313|64:315,1,125.999996154785,2|2,3:2|3:2,0:0:0:0:
23,252,73382,2,0,L|37:166,1,62.9999980773926,8|0,0:0|0:0,0:0:0:0:
94,99,73727,5,0,1:3:0:0:
94,99,74072,2,0,L|104:161,1,62.9999980773926,8|0,0:0|0:0,0:0:0:0:
157,223,74416,2,0,P|190:226|223:220,1,62.9999980773926,0|0,3:0|3:0,0:0:0:0:
289,178,74761,1,8,0:0:0:0:
215,141,74934,1,0,3:0:0:0:
215,141,75278,2,0,L|214:73,1,62.9999980773926,0|8,3:0|0:0,0:0:0:0:
289,178,75623,2,0,L|290:331,1,125.999996154785,0|0,3:0|3:0,0:0:0:0:
232,363,76141,1,8,0:0:0:0:
194,290,76313,6,0,P|173:266|145:251,2,62.9999980773926,0|0|0,3:0|1:3|3:0,0:0:0:0:
232,363,76830,1,8,0:0:0:0:
312,379,77003,2,0,P|358:338|364:277,1,125.999996154785,0|0,0:0|3:0,0:0:0:0:
305,220,77520,1,8,0:0:0:0:
289,303,77692,1,2,3:2:0:0:
289,303,78037,2,0,L|208:304,1,62.9999980773926,2|8,3:2|0:0,0:0:0:0:
154,263,78382,2,0,P|137:203|150:120,1,125.999996154785,2|2,3:2|3:2,0:0:0:0:
213,98,78899,2,0,L|216:25,1,62.9999980773926,8|0,0:0|0:0,0:0:0:0:
289,139,79244,6,0,P|339:150|407:121,1,125.999996154785,0|8,1:0|0:0,0:0:0:0:
454,55,79761,2,0,L|492:123,1,62.9999980773926,0|0,0:0|3:0,0:0:0:0:
461,188,80106,2,0,L|464:262,1,62.9999980773926,0|8,3:0|0:0,0:0:0:0:
377,319,80451,2,0,L|248:318,1,125.999996154785,0|0,1:0|3:0,0:0:0:0:
174,348,80968,1,8,0:0:0:0:
185,267,81141,2,0,P|175:205|134:158,1,125.999996154785,0|0,3:0|3:0,0:0:0:0:
54,175,81658,2,0,P|66:203|87:227,1,62.9999980773926,8|0,0:0|3:0,0:0:0:0:
91,101,82003,6,0,P|64:43|2:20,1,125.999996154785,0|8,1:2|0:0,0:0:0:0:
11,102,82520,2,0,L|13:168,1,62.9999980773926,0|0,0:0|3:0,0:0:0:0:
64,228,82865,1,0,3:0:0:0:
136,189,83037,1,8,0:0:0:0:
200,238,83209,2,0,P|286:237|325:214,1,125.999996154785,2|2,3:2|3:2,0:0:0:0:
385,169,83727,1,8,0:0:0:0:
385,169,83899,2,0,L|376:29,1,125.999996154785,2|2,3:2|3:2,0:0:0:0:
456,65,84416,2,0,L|463:151,1,62.9999980773926,8|0,0:0|3:0,0:0:0:0:
512,230,84761,5,0,1:0:0:0:
512,229,85106,2,0,P|481:238|450:241,2,62.9999980773926,8|0|0,0:0|0:0|3:0,0:0:0:0:
465,162,85623,1,0,3:0:0:0:
385,183,85796,2,0,P|350:184|308:186,1,62.9999980773926,8|0,0:0|3:0,0:0:0:0:
261,240,86141,2,0,P|229:238|198:237,1,62.9999980773926,0|0,0:0|3:0,0:0:0:0:
132,189,86485,2,0,L|117:115,1,62.9999980773926,8|0,0:0|3:0,0:0:0:0:
96,48,86830,2,0,L|91:177,1,125.999996154785,0|8,0:0|0:0,0:0:0:0:
66,254,87347,1,0,3:0:0:0:
66,254,87520,6,0,L|96:323,1,62.9999980773926,0|0,1:0|3:0,0:0:0:0:
154,371,87865,1,8,0:0:0:0:
198,213,88209,1,0,3:0:0:0:
259,158,88382,1,0,3:0:0:0:
341,154,88554,1,8,0:0:0:0:
178,133,88899,2,0,L|177:59,2,62.9999980773926,2|0|14,1:2|3:0|0:0,0:0:0:0:
109,178,89415,5,0,1:2:0:0:
109,178,89502,1,0,1:0:0:0:
109,178,89588,2,0,L|60:186,3,31.4999990386963,10|0|8|0,1:2|1:0|1:2|1:0,0:0:0:0:
74,224,89933,2,0,L|45:260,3,31.4999990386963,8|0|8|0,1:2|1:0|1:2|1:0,0:0:0:0:
73,289,90278,6,0,P|83:347|156:375,1,140,4|8,0:0|0:0,0:0:0:0:
234,328,90796,1,0,0:0:0:0:
234,328,90968,2,0,P|305:315|390:324,1,140,0|8,3:0|0:0,0:0:0:0:
458,351,91485,1,0,3:0:0:0:
438,261,91658,6,0,L|436:178,1,70,0|0,0:0|3:0,0:0:0:0:
353,153,92003,2,0,L|351:222,1,70,8|0,0:0|3:0,0:0:0:0:
271,264,92347,2,0,L|269:181,1,70,0|0,0:0|3:0,0:0:0:0:
227,113,92692,1,8,0:0:0:0:
227,113,92865,1,0,3:0:0:0:
175,187,93037,6,0,P|137:201|45:167,1,140,2|8,0:0|0:0,0:0:0:0:
120,115,93554,1,0,0:0:0:0:
172,40,93727,2,0,P|239:25|299:57,1,140,0|8,3:0|0:0,0:0:0:0:
338,140,94244,1,0,3:0:0:0:
338,140,94416,6,0,L|407:131,1,70,0|0,0:0|3:0,0:0:0:0:
362,224,94761,2,0,L|292:215,1,70,8|0,0:0|3:0,0:0:0:0:
246,307,95106,2,0,L|315:298,1,70,0|0,0:0|3:0,0:0:0:0:
386,355,95451,1,8,0:0:0:0:
454,295,95623,1,0,3:0:0:0:
369,210,95796,6,0,P|357:159|385:70,1,140,4|8,0:0|0:0,0:0:0:0:
308,19,96313,1,0,3:0:0:0:
308,19,96485,2,0,P|233:45|145:35,1,140,0|8,0:0|0:0,0:0:0:0:
85,15,97003,1,0,3:0:0:0:
109,102,97175,6,0,L|104:185,1,70,0|0,0:0|3:0,0:0:0:0:
40,236,97520,2,0,L|44:305,1,70,8|0,0:0|3:0,0:0:0:0:
120,356,97865,2,0,P|170:346|200:323,1,70,0|0,0:0|3:0,0:0:0:0:
237,261,98209,1,8,0:0:0:0:
308,317,98382,1,0,3:0:0:0:
371,214,98554,6,0,P|375:156|350:64,1,140,4|8,0:0|0:0,0:0:0:0:
282,132,99072,1,0,3:0:0:0:
282,132,99244,2,0,P|239:149|132:137,1,140,0|8,0:0|0:0,0:0:0:0:
74,87,99761,1,0,0:0:0:0:
65,177,99934,6,0,L|65:253,1,70,0|0,3:0|3:0,0:0:0:0:
127,313,100278,2,0,L|149:245,1,70,8|0,0:0|3:0,0:0:0:0:
215,184,100623,2,0,L|207:141,3,35,8|0|8|0,1:2|1:0|1:2|1:0,0:0:0:0:
224,122,100968,2,0,L|223:31,1,70,8|0,1:2|0:0,0:0:0:0:
310,139,101302,6,0,P|357:146|434:106,1,125.999996154785,4|8,1:3|0:0,0:0:0:0:
499,261,101992,2,0,L|506:323,2,62.9999980773926,0|0|8,3:0|3:0|0:0,0:0:0:0:
423,228,102509,2,0,P|361:223|306:252,1,125.999996154785,0|0,1:0|3:0,0:0:0:0:
261,321,103026,1,8,0:0:0:0:
222,249,103198,2,0,L|209:114,1,125.999996154785,0|0,0:0|3:0,0:0:0:0:
153,63,103716,2,0,L|83:62,1,62.9999980773926,8|0,0:0|3:0,0:0:0:0:
209,123,104061,6,0,L|334:100,1,125.999996154785,0|8,1:0|0:0,0:0:0:0:
413,117,104578,2,0,P|412:85|402:55,1,62.9999980773926,0|0,0:0|3:0,0:0:0:0:
328,19,104923,1,0,3:0:0:0:
247,35,105095,1,8,0:0:0:0:
167,52,105267,1,2,3:2:0:0:
108,214,105631,1,2,3:2:0:0:
192,239,105804,1,8,0:0:0:0:
191,239,105976,2,0,P|250:218|312:221,1,125.999996154785,2|2,3:2|3:2,0:0:0:0:
393,229,106493,2,0,L|410:303,1,62.9999980773926,8|0,0:0|0:0,0:0:0:0:
351,376,106838,5,0,1:0:0:0:
351,376,107183,2,0,L|274:369,1,62.9999980773926,8|0,0:0|0:0,0:0:0:0:
226,315,107528,2,0,L|146:328,1,62.9999980773926,0|0,3:0|3:0,0:0:0:0:
90,361,107873,1,8,0:0:0:0:
97,279,108045,1,0,3:0:0:0:
97,279,108389,2,0,L|96:209,1,62.9999980773926,0|8,3:0|0:0,0:0:0:0:
176,198,108734,2,0,P|206:144|264:123,1,125.999996154785,0|0,3:0|3:0,0:0:0:0:
343,147,109251,2,0,L|428:140,1,62.9999980773926,8|0,0:0|0:0,0:0:0:0:
480,67,109596,5,0,1:0:0:0:
480,67,109941,1,8,0:0:0:0:
485,148,110114,2,0,P|485:211|476:295,1,125.999996154785,0|0,0:0|3:0,0:0:0:0:
398,256,110630,1,8,0:0:0:0:
346,319,110803,1,2,3:2:0:0:
346,319,111148,2,0,L|265:320,1,62.9999980773926,2|8,3:2|0:0,0:0:0:0:
209,282,111493,2,0,P|192:222|205:139,1,125.999996154785,2|2,3:2|3:2,0:0:0:0:
261,69,112010,2,0,P|271:98|272:129,1,62.9999980773926,8|0,0:0|0:0,0:0:0:0:
197,159,112355,6,0,L|58:155,1,125.999996154785,0|8,1:0|0:0,0:0:0:0:
27,225,112872,1,0,0:0:0:0:
108,229,113044,2,0,L|116:310,1,62.9999980773926,0|8,1:0|1:2,0:0:0:0:
133,314,113303,1,0,1:0:0:0:
134,314,113389,1,8,1:2:0:0:
221,246,113561,5,8,1:2:0:0:
337,361,113906,1,8,1:2:0:0:
378,202,114251,1,8,1:2:0:0:
221,246,114596,1,0,3:0:0:0:
274,184,114768,1,8,0:0:0:0:
274,184,115114,6,0,L|130:219,1,125.999996154785,4|8,0:0|0:0,0:0:0:0:
75,245,115630,2,0,P|69:214|71:182,1,62.9999980773926,0|0,0:0|3:0,0:0:0:0:
138,135,115975,1,0,3:0:0:0:
101,60,116148,1,8,0:0:0:0:
204,49,116320,2,0,P|250:46|344:47,1,125.999996154785,2|2,1:2|3:2,0:0:0:0:
401,97,116837,1,8,0:0:0:0:
401,97,117010,2,0,L|409:222,1,125.999996154785,2|2,3:2|3:2,0:0:0:0:
483,257,117527,2,0,P|488:226|484:194,1,62.9999980773926,8|0,0:0|0:0,0:0:0:0:
419,303,117872,5,0,1:0:0:0:
419,303,118216,1,8,0:0:0:0:
341,275,118389,2,0,L|206:274,1,125.999996154785,0|0,0:0|3:0,0:0:0:0:
152,328,118906,2,0,P|137:299|132:269,1,62.9999980773926,8|0,0:0|3:0,0:0:0:0:
179,202,119251,2,0,P|173:171|159:143,1,62.9999980773926,0|0,0:0|3:0,0:0:0:0:
81,116,119596,2,0,P|78:147|83:178,1,62.9999980773926,8|0,0:0|3:0,0:0:0:0:
159,143,119941,2,0,L|295:118,1,125.999996154785,0|8,0:0|0:0,0:0:0:0:
365,51,120459,5,8,1:2:0:0:
365,51,120545,1,8,1:2:0:0:
365,51,120631,2,0,L|371:193,1,140,4|8,0:0|0:0,0:0:0:0:
296,357,121321,2,0,P|284:324|278:281,2,70,0|0|8,3:0|3:0|0:0,0:0:0:0:
455,267,122010,6,0,P|466:234|473:191,1,70,10|0,0:0|3:0,0:0:0:0:
382,212,122354,2,0,P|371:178|369:143,1,70,14|0,0:0|3:0,0:0:0:0:
415,65,122700,2,0,L|414:22,3,35,10|0|8|0,1:2|1:2|1:2|1:2,0:0:0:0:
368,37,123044,2,0,L|339:-10,3,35,8|0|8|8,1:2|0:0|1:2|1:2,0:0:0:0:
308,28,123389,6,0,P|234:25|149:44,1,140,4|8,0:0|0:0,0:0:0:0:
109,106,123906,1,0,0:0:0:0:
109,106,124079,2,0,L|112:186,2,70,0|0|8,3:0|3:0|0:0,0:0:0:0:
191,194,124596,6,0,L|182:341,1,140,2|0,1:2|3:0,0:0:0:0:
182,333,125113,1,8,0:0:0:0:
277,178,125458,2,0,P|310:169|345:168,1,70,0|0,0:0|3:0,0:0:0:0:
425,213,125803,2,0,P|433:170|429:139,1,70,8|0,0:0|0:0,0:0:0:0:
354,245,126148,6,0,P|348:313|379:375,1,140,2|8,1:2|0:0,0:0:0:0:
469,359,126665,2,0,P|477:325|476:290,1,70,0|0,0:0|3:0,0:0:0:0:
425,213,127010,2,0,P|424:178|432:144,1,70,0|8,3:0|0:0,0:0:0:0:
510,56,127355,6,0,P|464:67|356:62,1,140,2|0,1:2|3:0,0:0:0:0:
371,65,127872,1,8,0:0:0:0:
294,229,128217,2,0,L|287:152,1,70,0|0,0:0|3:0,0:0:0:0:
214,104,128561,2,0,L|198:191,1,70,8|0,0:0|0:0,0:0:0:0:
138,274,128907,6,0,P|93:288|-8:244,1,140,4|8,0:0|0:0,0:0:0:0:
201,172,129596,2,0,P|246:158|347:202,1,140,0|8,3:0|0:0,0:0:0:0:
397,249,130113,1,0,0:0:0:0:
397,249,130286,2,0,L|428:109,1,140,2|8,1:2|0:0,0:0:0:0:
427,112,130975,2,0,L|357:106,1,70,0|0,0:0|3:0,0:0:0:0:
296,174,131320,2,0,L|226:180,1,70,8|0,0:0|0:0,0:0:0:0:
138,104,131665,6,0,P|87:99|5:139,1,140,4|8,0:0|0:0,0:0:0:0:
98,294,132355,2,0,L|101:200,2,70,0|0|8,3:0|3:0|0:0,0:0:0:0:
176,217,132872,2,0,L|166:68,1,140,4|0,0:0|3:0,0:0:0:0:
228,9,133389,2,0,P|247:39|254:73,1,70,8|0,0:0|0:0,0:0:0:0:
261,164,133734,6,0,L|274:202,3,35,8|0|8|0,1:2|1:0|1:2|1:0,0:0:0:0:
260,233,134079,2,0,L|267:273,3,35,8|0|8|8,1:2|0:0|1:2|1:2,0:0:0:0:
254,301,134424,6,0,P|190:333|96:330,1,140,4|8,0:0|0:0,0:0:0:0:
65,264,134941,1,0,0:0:0:0:
65,264,135114,2,0,L|68:184,2,70,0|0|8,3:0|3:0|0:0,0:0:0:0:
151,181,135631,6,0,L|142:41,1,140,4|0,0:0|3:0,0:0:0:0:
142,41,136148,1,8,0:0:0:0:
248,188,136492,2,0,P|281:196|316:197,1,70,0|0,0:0|3:0,0:0:0:0:
399,157,136837,2,0,P|407:200|403:231,1,70,8|0,0:0|3:0,0:0:0:0:
329,315,137182,6,0,P|259:317|191:334,1,140,4|8,0:0|0:0,0:0:0:0:
102,315,137699,2,0,L|86:235,1,70,0|0,0:0|3:0,0:0:0:0:
159,189,138044,2,0,L|164:95,1,70,0|8,3:0|0:0,0:0:0:0:
242,208,138389,6,0,P|311:208|367:153,1,140,4|0,0:0|3:0,0:0:0:0:
281,123,138906,1,8,0:0:0:0:
281,123,139079,2,0,L|283:44,2,70,0|0|0,3:0|0:0|3:0,0:0:0:0:
242,208,139596,2,0,L|243:277,1,70,8|0,0:0|0:0,0:0:0:0:
159,189,139941,6,0,L|168:40,1,140,4|8,0:0|0:0,0:0:0:0:
344,49,140631,2,0,L|353:189,1,140,0|8,3:0|0:0,0:0:0:0:
377,279,141149,1,0,3:0:0:0:
377,279,141321,2,0,P|433:240|444:173,1,140,2|8,0:2|0:0,0:0:0:0:
292,274,142010,2,0,L|273:354,1,70,0|0,0:0|3:0,0:0:0:0:
208,281,142355,2,0,L|191:212,1,70,8|0,0:0|3:0,0:0:0:0:
137,322,142700,6,0,P|64:335|-8:286,1,140,4|8,0:0|0:0,0:0:0:0:
82,139,143390,2,0,L|85:233,2,70,0|0|8,3:0|3:0|0:0,0:0:0:0:
150,78,143907,1,0,0:0:0:0:
238,117,144079,6,0,L|297:92,5,46.6666666666667,0|8|8|8|8|8,3:0|0:0|0:0|0:0|0:0|0:0,0:0:0:0:
349,137,144769,6,0,B|423:142|472:80|472:80|438:73|403:78,1,210.000008010865,2|4,1:3|0:0,0:0:0:0:
