osu file format v14

[General]
AudioFilename: 13. Kage Fumi.mp3
AudioLeadIn: 0
PreviewTime: 122614
Countdown: 0
SampleSet: Soft
StackLeniency: 0.7
Mode: 0
LetterboxInBreaks: 0
WidescreenStoryboard: 1

[Editor]
Bookmarks: 35085,46121,57175,68214,79244,90258,101267,123336,134416,145431
DistanceSpacing: 1.3
BeatDivisor: 4
GridSize: 32
TimelineZoom: 3.107997

[Metadata]
Title:Kage Fumi
TitleUnicode:影踏み
Artist:nano.RIPE
ArtistUnicode:nano.RIPE
Creator:Milan-
Version:<3
Source:劇場版 花咲くいろは HOME SWEET HOME
Tags:Lantis P.A. Works cut version ending hanairo hanasaku iroha Movie gekijouban
BeatmapID:580583
BeatmapSetID:252815

[Difficulty]
HPDrainRate:7
CircleSize:4
OverallDifficulty:8
ApproachRate:9
SliderMultiplier:1.7
SliderTickRate:1

[Events]
//Background and Video events
0,0,"bggggggg.jpg",0,0
//Break Periods
//Storyboard Layer 0 (Background)
//Storyboard Layer 1 (Fail)
//Storyboard Layer 2 (Pass)
//Storyboard Layer 3 (Foreground)
//Storyboard Sound Samples

[TimingPoints]
4836,387.096774193548,4,2,1,30,1,0
5610,-166.666666666667,4,2,1,30,0,0
26513,405.131667792032,4,2,1,30,1,0
26513,-166.666666666667,4,2,1,30,0,0
28133,606.060606060606,4,2,1,30,1,0
28436,-100,4,2,1,15,0,0
35117,344.827586206897,4,2,1,63,1,0
35117,-125,4,2,1,63,0,0
45448,331.491712707182,4,2,1,66,1,0
46141,344.827586206897,4,2,1,70,1,0
68209,-125,4,2,1,60,0,0
90278,-100,4,2,1,70,0,0
101302,344.827586206897,4,2,1,60,1,0
101302,-125,4,2,1,60,0,0
105459,344.827586206897,4,2,1,60,1,0
105459,-125,4,2,1,60,0,0
120631,-111.111111111111,4,2,1,65,0,0
123390,-100,4,2,1,73,0,1
144769,-166.666666666667,4,2,1,73,0,1
145459,-100,4,2,1,73,0,0

[Colours]
Combo1 : 223,168,0
Combo2 : 0,187,131
Combo3 : 228,14,73
Combo4 : 0,196,196

[HitObjects]
62,226,5610,6,0,L|112:222,1,50.9999984436036
112,309,5997,2,0,L|171:314,1,50.9999984436036
236,360,6384,2,0,P|285:350|320:315,1,101.999996887207,2|0,0:0|0:0,0:0:0:0:
336,228,6965,1,0,0:0:0:0:
322,141,7158,2,0,P|324:116|385:49,1,101.999996887207
336,228,7739,1,0,0:0:0:0:
266,278,7932,2,0,P|216:288|169:271,1,101.999996887207
124,105,8706,5,0,0:0:0:0:
121,191,8900,1,0,0:0:0:0:
34,190,9094,1,0,0:0:0:0:
37,104,9287,1,0,0:0:0:0:
123,104,9481,2,0,P|170:123|200:163,1,101.999996887207,2|0,0:0|0:0,0:0:0:0:
274,208,10061,2,0,P|278:184|279:158,1,50.9999984436036
204,243,10448,2,0,P|199:267|198:293,1,50.9999984436036
254,368,10835,1,0,0:0:0:0:
254,368,11029,2,0,L|366:359,1,101.999996887207
403,193,11803,5,0,0:0:0:0:
382,277,11997,1,0,0:0:0:0:
465,255,12190,1,0,0:0:0:0:
350,125,12577,2,0,P|303:131|236:131,1,101.999996887207,2|0,0:0|0:0,0:0:0:0:
89,200,13352,2,0,P|135:193|203:194,1,101.999996887207
350,125,14126,2,0,P|352:69|346:11,1,101.999996887207
174,115,14900,1,0,0:0:0:0:
325,211,15287,1,0,0:0:0:0:
325,211,15674,6,0,P|322:266|329:325,1,101.999996887207,2|0,0:0|0:0,0:0:0:0:
386,149,16448,1,0,0:0:0:0:
444,213,16642,2,0,P|450:251|450:278,1,50.9999984436036
386,149,17029,1,0,0:0:0:0:
325,211,17223,2,0,P|275:222|226:211,1,101.999996887207
226,38,17997,5,0,0:0:0:0:
273,110,18190,1,0,0:0:0:0:
353,78,18384,2,0,P|378:82|401:92,1,50.9999984436036
350,167,18771,2,0,P|303:150|273:110,1,101.999996887207,2|0,0:0|0:0,0:0:0:0:
469,159,19545,1,0,0:0:0:0:
409,220,19739,2,0,P|408:246|412:271,1,50.9999984436036
469,159,20126,1,0,0:0:0:0:
409,219,20319,2,0,P|358:226|309:213,1,101.999996887207
239,162,20900,5,0,0:0:0:0:
239,162,21094,2,0,L|174:190,1,50.9999984436036
128,241,21481,2,0,L|193:269,1,50.9999984436036
242,315,21868,2,0,L|135:356,1,101.999996887207,2|0,0:0|0:0,0:0:0:0:
70,311,22448,2,0,L|60:374,1,50.9999984436036
128,241,22835,2,0,L|120:190,1,50.9999984436036
104,104,23223,1,0,0:0:0:0:
185,133,23416,2,0,P|239:122|280:70,1,101.999996887207
350,55,23997,5,0,0:0:0:0:
340,140,24190,1,0,0:0:0:0:
381,216,24384,1,0,0:0:0:0:
452,264,24577,2,0,P|477:260|498:247,1,50.9999984436036
381,216,24965,2,0,P|336:224|297:272,1,101.999996887207,2|0,0:0|0:0,0:0:0:0:
146,345,25739,2,0,P|191:337|230:289,1,101.999996887207
231,210,26319,1,0,0:0:0:0:
231,210,26513,2,0,L|224:106,1,101.999996887207
299,264,27323,2,0,L|292:365,2,101.999996887207,0|0|2,0:0|0:0|0:0,0:0:0:0:
256,192,28436,12,0,32981,0:0:0:0:
358,278,35117,6,0,B|321:277|321:277|290:275,1,68,4|0,1:2|0:0,0:0:0:0:
204,253,35461,1,0,3:0:0:0:
225,339,35634,1,0,3:0:0:0:
274,200,35806,1,8,0:0:0:0:
274,200,36151,6,0,B|279:155|279:155|278:132,1,68,0|0,1:0|3:0,0:0:0:0:
194,161,36496,1,0,0:0:0:0:
308,57,36668,1,8,0:0:0:0:
308,57,37013,5,0,3:0:0:0:
308,57,37099,1,0,3:0:0:0:
307,57,37185,2,0,P|274:62|240:63,1,68,10|0,0:0|3:0,0:0:0:0:
126,154,37530,2,0,P|159:159|193:160,1,68,2|0,0:0|3:0,0:0:0:0:
101,73,37875,5,4,1:2:0:0:
56,208,38048,1,8,0:0:0:0:
86,77,38220,1,0,0:0:0:0:
66,223,38392,1,0,3:0:0:0:
193,160,38565,1,8,0:0:0:0:
193,160,38910,6,0,P|244:147|288:147,1,68,0|0,1:0|3:0,0:0:0:0:
241,232,39254,1,0,0:0:0:0:
116,194,39427,1,8,0:0:0:0:
116,194,39772,5,0,3:0:0:0:
116,194,39858,1,0,3:0:0:0:
116,194,39944,1,10,0:0:0:0:
136,280,40117,1,8,0:3:0:0:
212,323,40289,1,4,0:3:0:0:
299,311,40461,1,4,0:3:0:0:
198,152,40634,6,0,P|189:184|186:218,1,68,4|8,1:2|0:0,0:0:0:0:
274,206,40979,1,0,0:0:0:0:
316,283,41151,1,0,3:0:0:0:
307,126,41323,1,8,0:0:0:0:
307,126,41668,6,0,B|298:87|298:87|292:46,1,68,0|0,1:0|3:0,0:0:0:0:
364,4,42013,1,0,0:0:0:0:
448,114,42185,1,8,0:0:0:0:
448,114,42530,5,0,3:0:0:0:
448,114,42617,1,0,3:0:0:0:
448,114,42703,2,0,P|457:147|459:181,1,68,10|0,0:0|3:0,0:0:0:0:
510,265,43048,2,0,P|478:278|445:278,1,68,2|0,0:0|1:0,0:0:0:0:
376,161,43392,6,0,P|342:166|312:181,1,68,4|8,1:2|0:0,0:0:0:0:
225,198,43737,1,0,0:0:0:0:
254,114,43910,1,0,3:0:0:0:
285,262,44082,2,0,P|286:293|280:351,1,68,8|0,0:0|3:0,0:0:0:0:
225,198,44427,1,8,0:2:0:0:
263,101,44599,5,8,1:2:0:0:
342,13,45448,6,0,P|341:41|339:57,1,42.5,8|0,0:3|3:0,0:0:0:0:
263,101,45613,1,4,0:3:0:0:
277,115,45696,1,0,3:0:0:0:
293,128,45779,1,8,1:2:0:0:
175,91,46141,6,0,L|88:101,1,85,4|0,0:0|0:0,0:0:0:0:
0,180,46485,2,0,L|84:189,1,85,8|0,0:0|0:0,0:0:0:0:
187,77,46830,2,0,L|100:87,1,85,0|0,3:0|3:0,0:0:0:0:
8,196,47175,1,8,0:0:0:0:
20,94,47347,1,0,3:0:0:0:
102,214,47520,6,0,P|105:255|87:293,1,85,0|0,0:0|3:0,0:0:0:0:
37,117,47865,2,0,P|33:75|51:37,1,85,8|0,0:0|3:0,0:0:0:0:
105,203,48209,1,0,0:0:0:0:
105,203,48382,1,0,3:0:0:0:
181,135,48554,1,8,0:0:0:0:
181,135,48727,1,0,3:0:0:0:
249,241,48899,6,0,P|282:248|362:243,1,85,2|0,0:0|3:0,0:0:0:0:
460,157,49244,2,0,P|417:156|376:165,1,85,8|0,0:0|3:0,0:0:0:0:
254,259,49589,2,0,P|284:275|362:290,1,85,0|0,0:0|3:0,0:0:0:0:
451,236,49934,1,8,0:0:0:0:
373,184,50106,1,0,3:0:0:0:
347,291,50278,6,0,P|347:333|351:380,1,85,0|0,0:0|3:0,0:0:0:0:
365,190,50623,2,0,P|368:147|368:105,1,85,8|0,0:0|3:0,0:0:0:0:
283,223,50968,1,0,0:0:0:0:
339,297,51141,1,0,3:0:0:0:
268,215,51313,1,8,0:0:0:0:
219,342,51485,1,0,1:0:0:0:
219,342,51572,1,0,1:2:0:0:
219,342,51658,6,0,B|175:351|175:351|119:358,1,85,4|0,0:0|3:0,0:0:0:0:
13,256,52003,2,0,B|53:261|53:261|97:270,1,85,8|0,0:0|3:0,0:0:0:0:
80,167,52347,2,0,P|74:124|85:71,1,85,0|0,0:0|3:0,0:0:0:0:
220,53,52692,1,8,0:0:0:0:
159,124,52865,1,0,3:0:0:0:
239,47,53037,6,0,L|333:46,1,85,0|0,0:0|3:0,0:0:0:0:
469,130,53382,2,0,L|384:129,1,85,8|0,0:0|3:0,0:0:0:0:
280,223,53727,1,0,0:0:0:0:
300,131,53899,1,0,3:0:0:0:
376,253,54072,1,8,0:0:0:0:
390,355,54244,1,0,1:0:0:0:
390,355,54330,1,8,1:2:0:0:
390,355,54416,6,0,B|427:362|427:362|482:365,1,85,4|0,0:0|3:0,0:0:0:0:
366,262,54761,2,0,B|319:263|319:263|281:271,1,85,8|0,0:0|3:0,0:0:0:0:
208,329,55106,2,0,P|163:332|121:318,1,85,0|0,0:0|3:0,0:0:0:0:
116,182,55451,1,8,0:0:0:0:
173,255,55623,1,0,3:0:0:0:
209,108,55796,6,0,P|212:70|201:11,1,85,0|0,0:0|3:0,0:0:0:0:
112,97,56141,2,0,P|109:135|120:194,1,85,8|0,0:0|3:0,0:0:0:0:
173,255,56485,1,8,1:2:0:0:
198,239,56572,1,0,1:0:0:0:
226,230,56658,1,8,1:2:0:0:
255,230,56744,1,0,1:0:0:0:
283,238,56830,1,8,1:2:0:0:
311,245,56916,1,0,1:2:0:0:
340,246,57003,1,8,1:2:0:0:
368,239,57089,1,0,1:2:0:0:
390,219,57175,6,0,P|398:177|391:135,1,85,4|0,0:0|3:0,0:0:0:0:
319,6,57520,2,0,P|310:47|317:89,1,85,8|0,0:0|3:0,0:0:0:0:
466,104,57865,2,0,P|439:71|400:54,1,85,0|0,0:0|3:0,0:0:0:0:
308,176,58209,1,8,0:0:0:0:
391,135,58382,1,0,3:0:0:0:
312,266,58554,6,0,P|270:260|239:230,1,85,0|0,0:0|3:0,0:0:0:0:
287,97,58899,2,0,P|307:133|307:175,1,85,8|0,0:0|3:0,0:0:0:0:
187,91,59244,1,0,0:0:0:0:
243,16,59416,1,0,3:0:0:0:
284,118,59589,1,8,0:0:0:0:
170,99,59761,1,0,0:0:0:0:
258,10,59934,6,0,L|361:5,1,85,2|0,3:2|3:0,0:0:0:0:
430,63,60278,2,0,P|441:103|437:145,1,85,8|0,0:0|3:0,0:0:0:0:
371,298,60623,2,0,P|359:257|363:215,1,85,0|0,0:0|3:0,0:0:0:0:
487,297,60968,1,8,0:0:0:0:
431,372,61141,1,0,3:0:0:0:
356,292,61313,6,0,P|305:284|256:291,1,85,0|0,0:0|3:0,0:0:0:0:
189,336,61658,2,0,P|157:297|106:280,1,85,8|0,0:0|3:0,0:0:0:0:
37,309,62003,1,0,0:0:0:0:
104,374,62175,1,0,3:0:0:0:
27,322,62347,1,8,0:0:0:0:
142,243,62520,1,0,1:0:0:0:
142,243,62606,1,8,1:2:0:0:
142,243,62692,6,0,L|138:137,1,85,4|0,0:0|3:0,0:0:0:0:
234,37,63037,2,0,L|230:121,1,85,8|0,0:0|3:0,0:0:0:0:
115,88,63382,2,0,L|111:-18,1,85,0|0,0:0|3:0,0:0:0:0:
221,135,63727,1,8,0:0:0:0:
139,179,63899,1,0,3:0:0:0:
265,216,64072,6,0,P|308:210|349:200,1,85,0|0,0:0|3:0,0:0:0:0:
467,122,64416,2,0,P|425:111|383:106,1,85,8|0,0:0|3:0,0:0:0:0:
271,206,64761,1,0,0:0:0:0:
289,114,64934,1,0,3:0:0:0:
371,218,65106,1,8,0:0:0:0:
275,308,65278,1,0,1:0:0:0:
275,308,65365,1,0,1:0:0:0:
275,308,65451,6,0,L|179:322,1,85,4|0,0:0|3:0,0:0:0:0:
136,243,65796,2,0,L|51:230,1,85,8|0,0:0|3:0,0:0:0:0:
110,323,66141,1,0,0:0:0:0:
217,238,66313,1,8,0:0:0:0:
195,328,66485,1,0,0:0:0:0:
126,233,66658,1,0,0:0:0:0:
236,148,66830,6,0,L|230:241,1,85,8|0,0:0|0:0,0:0:0:0:
146,114,67175,2,0,L|140:29,1,85,8|0,0:0|0:0,0:0:0:0:
237,66,67520,1,8,1:2:0:0:
269,76,67606,1,0,1:2:0:0:
302,74,67692,1,8,1:2:0:0:
332,60,67778,1,0,1:2:0:0:
355,35,67865,1,8,1:2:0:0:
433,112,68037,1,8,1:2:0:0:
429,132,68123,1,8,1:2:0:0:
425,150,68209,6,0,B|426:227|426:227|437:301,1,136,4|8,0:0|0:0,0:0:0:0:
434,285,68899,1,0,3:0:0:0:
353,269,69072,2,0,P|317:269|254:279,1,68,0|8,3:0|0:0,0:0:0:0:
381,360,69416,1,0,3:0:0:0:
381,360,69761,6,0,P|411:344|433:318,1,68,0|8,3:0|0:0,0:0:0:0:
351,202,70106,2,0,P|345:235|352:268,1,68,0|0,0:0|3:0,0:0:0:0:
426,180,70451,1,0,3:0:0:0:
310,132,70623,2,0,P|276:131|224:138,1,68,8|0,0:0|3:0,0:0:0:0:
119,210,70968,6,0,P|184:214|265:213,1,136,0|8,1:3|0:0,0:0:0:0:
310,132,71485,2,0,P|312:102|305:51,1,68,0|0,0:0|3:0,0:0:0:0:
230,140,71830,1,0,3:0:0:0:
334,207,72003,1,8,0:0:0:0:
248,228,72175,1,2,3:2:0:0:
243,244,72520,5,2,3:2:0:0:
329,223,72692,1,8,0:0:0:0:
240,328,72865,2,0,P|180:299|159:236,1,136,2|2,3:2|3:2,0:0:0:0:
171,148,73382,1,8,0:0:0:0:
78,233,73554,1,0,0:0:0:0:
78,233,73641,1,0,0:0:0:0:
78,233,73727,1,0,1:3:0:0:
78,233,74072,6,0,P|77:199|76:154,1,68,8|0,0:0|0:0,0:0:0:0:
91,37,74416,1,0,3:0:0:0:
145,107,74589,1,0,3:0:0:0:
256,31,74761,1,8,0:0:0:0:
265,167,74934,1,0,3:0:0:0:
265,167,75278,6,0,P|294:160|339:155,1,68,0|8,3:0|0:0,0:0:0:0:
237,255,75623,2,0,P|177:270|103:226,1,136,0|0,3:0|3:0,0:0:0:0:
166,101,76141,1,8,0:0:0:0:
183,187,76313,1,0,3:0:0:0:
77,114,76485,5,0,1:3:0:0:
77,114,76658,1,0,3:0:0:0:
175,199,76830,2,0,L|259:191,1,68,8|0,0:0|0:0,0:0:0:0:
175,84,77175,1,0,3:0:0:0:
175,84,77347,1,0,3:0:0:0:
168,211,77520,1,8,0:0:0:0:
247,117,77692,6,0,L|331:109,1,68,2|0,3:2|0:0,0:0:0:0:
417,187,78037,2,0,L|349:180,1,68,2|8,3:2|0:0,0:0:0:0:
488,136,78382,2,0,P|502:200|468:258,1,136,2|2,3:2|3:2,0:0:0:0:
413,109,78899,2,0,L|412:30,1,68,8|0,0:0|0:0,0:0:0:0:
425,13,79158,1,0,0:0:0:0:
425,13,79244,6,0,P|374:46|285:40,1,136,0|8,1:0|0:0,0:0:0:0:
213,65,79761,2,0,P|180:64|146:69,1,68,0|0,0:0|3:0,0:0:0:0:
77,124,80106,1,0,3:0:0:0:
222,78,80278,1,8,0:0:0:0:
186,219,80451,1,0,1:0:0:0:
186,219,80796,6,0,L|194:311,1,68,0|8,3:0|0:0,0:0:0:0:
285,165,81141,2,0,L|277:257,1,68,0|0,3:0|0:0,0:0:0:0:
309,315,81485,1,0,3:0:0:0:
392,210,81658,1,8,0:0:0:0:
328,320,81830,1,0,3:0:0:0:
383,193,82003,6,0,P|376:127|336:73,1,136,0|8,1:2|0:0,0:0:0:0:
285,165,82520,2,0,P|245:172|200:166,1,68,0|0,0:0|3:0,0:0:0:0:
243,85,82865,1,0,3:0:0:0:
373,182,83037,1,8,0:0:0:0:
247,257,83209,1,2,3:2:0:0:
247,257,83554,5,2,3:2:0:0:
285,165,83727,1,8,0:0:0:0:
165,221,83899,2,0,P|161:287|205:336,1,136,2|2,3:2|3:2,0:0:0:0:
204,150,84416,1,8,0:0:0:0:
269,267,84589,1,0,3:0:0:0:
269,267,84675,1,0,0:0:0:0:
269,267,84761,1,0,1:0:0:0:
269,267,85106,5,8,0:0:0:0:
310,189,85278,2,0,L|309:155|308:121,1,68,0|0,0:0|3:0,0:0:0:0:
276,38,85623,1,0,3:0:0:0:
382,103,85796,2,0,P|386:135|389:197,1,68,8|0,0:0|3:0,0:0:0:0:
357,24,86141,6,0,P|390:23|423:32,1,68,0|0,0:0|3:0,0:0:0:0:
300,116,86485,2,0,P|266:117|233:108,1,68,8|0,0:0|3:0,0:0:0:0:
382,103,86830,2,0,P|386:135|389:197,1,68,0|0,0:0|3:0,0:0:0:0:
315,317,87175,1,8,0:0:0:0:
326,229,87347,1,0,3:0:0:0:
400,349,87520,6,0,L|475:342,1,68,0|0,1:0|3:0,0:0:0:0:
308,326,87865,1,8,0:0:0:0:
302,335,88209,1,0,3:0:0:0:
240,262,88382,1,0,3:0:0:0:
345,183,88554,2,0,P|349:149|344:115,1,68,8|0,0:0|3:0,0:0:0:0:
273,62,88899,5,2,1:2:0:0:
273,62,89072,1,0,3:0:0:0:
408,62,89244,1,14,0:0:0:0:
272,151,89416,1,0,1:2:0:0:
244,150,89503,1,0,1:0:0:0:
219,139,89589,2,0,L|176:135,3,34,10|0|8|0,1:2|1:0|1:2|1:0,0:0:0:0:
136,206,89934,1,8,1:2:0:0:
103,216,90020,1,0,1:0:0:0:
69,208,90106,1,8,1:2:0:0:
46,182,90192,1,0,1:0:0:0:
37,148,90278,6,0,L|55:56,1,85,4|0,0:0|0:0,0:0:0:0:
136,206,90623,2,0,L|152:289,1,85,8|0,0:0|0:0,0:0:0:0:
38,373,90968,2,0,L|56:281,1,85,0|0,3:0|3:0,0:0:0:0:
145,196,91313,1,8,0:0:0:0:
162,287,91485,1,0,3:0:0:0:
215,127,91658,6,0,P|179:103|138:98,1,85,0|0,0:0|3:0,0:0:0:0:
263,201,92003,2,0,P|304:195|339:172,1,85,8|0,0:0|3:0,0:0:0:0:
401,39,92347,1,0,0:0:0:0:
422,130,92520,1,0,3:0:0:0:
309,25,92692,1,8,0:0:0:0:
262,106,92865,1,0,3:0:0:0:
398,49,93037,6,0,L|482:36,1,85,2|0,0:0|3:0,0:0:0:0:
302,30,93382,2,0,L|218:17,1,85,8|0,0:0|0:0,0:0:0:0:
100,104,93727,2,0,L|184:91,1,85,0|0,3:0|3:0,0:0:0:0:
111,200,94072,1,8,0:0:0:0:
27,157,94244,1,0,3:0:0:0:
108,81,94416,6,0,L|192:68,1,85,0|0,0:0|3:0,0:0:0:0:
287,126,94761,2,0,P|303:171|300:218,1,85,8|0,0:0|3:0,0:0:0:0:
207,180,95106,1,0,0:0:0:0:
207,180,95278,1,0,3:0:0:0:
191,296,95451,1,8,0:0:0:0:
191,296,95623,1,0,3:0:0:0:
304,221,95796,6,0,P|352:218|404:225,1,85,4|0,0:0|3:0,0:0:0:0:
289,318,96141,2,0,P|246:321|204:318,1,85,8|0,0:0|3:0,0:0:0:0:
370,296,96485,2,0,P|373:344|366:396,1,85,0|0,0:0|3:0,0:0:0:0:
297,224,96830,1,8,0:0:0:0:
327,135,97003,1,0,3:0:0:0:
202,208,97175,6,0,P|159:214|117:212,1,85,0|0,0:0|3:0,0:0:0:0:
72,130,97520,2,0,P|61:89|33:58,1,85,8|0,0:0|3:0,0:0:0:0:
30,211,97865,1,0,0:0:0:0:
56,301,98037,1,0,3:0:0:0:
160,147,98209,1,8,0:0:0:0:
147,240,98382,1,0,3:0:0:0:
262,96,98554,6,0,P|305:89|356:96,1,85,4|0,0:0|3:0,0:0:0:0:
157,164,98899,2,0,P|113:170|63:164,1,85,8|0,0:0|3:0,0:0:0:0:
156,10,99244,2,0,P|175:47|180:89,1,85,0|0,0:0|3:0,0:0:0:0:
263,257,99589,2,0,P|243:219|238:177,1,85,8|0,0:0|0:0,0:0:0:0:
344,249,99934,5,0,3:0:0:0:
245,336,100106,1,0,3:0:0:0:
360,255,100278,2,0,L|364:348,1,85,8|0,0:0|3:0,0:0:0:0:
289,174,100623,1,8,1:2:0:0:
280,141,100709,1,0,1:0:0:0:
284,106,100796,1,8,1:2:0:0:
303,78,100882,1,0,1:0:0:0:
334,64,100968,2,0,B|384:58|384:58|423:58,1,85,8|0,1:2|0:0,0:0:0:0:
202,149,101302,6,0,B|124:149|124:149|45:140,1,136,4|8,1:3|0:0,0:0:0:0:
66,142,101991,1,0,3:0:0:0:
128,224,102164,2,0,P|129:272|116:307,1,68,0|8,3:0|0:0,0:0:0:0:
59,158,102508,1,0,1:0:0:0:
50,170,102854,6,0,L|50:88,1,68,0|8,3:0|0:0,0:0:0:0:
126,29,103198,2,0,L|121:72,2,34,0|8|0,0:0|0:0|3:0,0:0:0:0:
181,124,103543,1,0,3:0:0:0:
270,40,103715,2,0,P|303:37|337:41,1,68,8|0,0:0|3:0,0:0:0:0:
438,123,104060,5,0,1:0:0:0:
438,123,104405,1,8,0:0:0:0:
379,189,104577,2,0,P|375:237|382:269,1,68,0|0,0:0|3:0,0:0:0:0:
442,126,104922,1,0,3:0:0:0:
366,199,105095,1,8,0:0:0:0:
482,281,105267,1,2,3:2:0:0:
482,281,105631,5,2,3:2:0:0:
498,194,105803,1,8,0:0:0:0:
408,326,105976,2,0,P|337:329|266:328,1,136,2|2,3:2|3:2,0:0:0:0:
136,258,106493,1,8,0:0:0:0:
199,377,106666,1,0,0:0:0:0:
199,377,106752,1,0,0:0:0:0:
199,377,106838,1,0,1:0:0:0:
199,377,107183,5,8,0:0:0:0:
121,247,107355,2,0,L|116:314,1,68,0|0,0:0|3:0,0:0:0:0:
192,209,107700,1,0,3:0:0:0:
72,184,107873,1,8,0:0:0:0:
166,91,108045,1,0,3:0:0:0:
166,91,108390,6,0,P|193:82|260:77,1,68,0|8,3:0|0:0,0:0:0:0:
344,122,108734,1,0,3:0:0:0:
344,122,109079,5,0,3:0:0:0:
213,156,109252,1,8,0:0:0:0:
294,201,109424,2,0,L|302:251,1,34,0|8,0:0|0:0,0:0:0:0:
288,272,109596,2,0,P|239:281|134:283,1,136,0|8,1:0|0:0,0:0:0:0:
153,284,110114,1,0,0:0:0:0:
103,210,110286,1,0,3:0:0:0:
80,340,110459,1,0,3:0:0:0:
180,208,110631,1,8,0:0:0:0:
230,325,110803,6,0,L|314:333,1,68,2|0,3:2|0:0,0:0:0:0:
400,255,111148,2,0,L|332:262,1,68,2|8,3:2|0:0,0:0:0:0:
471,306,111493,2,0,P|485:242|451:184,1,136,2|2,3:2|3:2,0:0:0:0:
362,172,112010,2,0,P|353:139|353:105,1,68,8|0,0:0|0:0,0:0:0:0:
364,80,112269,1,0,0:0:0:0:
364,79,112355,6,0,P|297:69|218:83,1,136,0|8,1:0|0:0,0:0:0:0:
185,155,112872,2,0,L|185:242,1,68,0|0,0:0|1:0,0:0:0:0:
194,248,113131,1,0,1:0:0:0:
207,271,113217,1,8,1:2:0:0:
223,292,113303,1,0,1:0:0:0:
238,314,113390,1,8,1:2:0:0:
292,135,113562,5,8,1:2:0:0:
286,165,113906,1,8,1:2:0:0:
281,195,114251,1,8,1:2:0:0:
349,72,114596,1,0,3:0:0:0:
210,103,114769,2,0,L|110:98,1,68,8|0,0:0|0:0,0:0:0:0:
281,195,115114,6,0,L|416:189,1,136,4|8,0:0|0:0,0:0:0:0:
483,245,115631,2,0,P|492:278|494:312,1,68,0|0,0:0|3:0,0:0:0:0:
416,189,115976,1,0,3:0:0:0:
418,295,116149,1,8,0:0:0:0:
499,163,116321,1,2,1:2:0:0:
499,163,116665,5,2,3:2:0:0:
416,189,116837,1,8,0:0:0:0:
335,151,117010,2,0,P|280:142|198:174,1,136,2|2,3:2|3:2,0:0:0:0:
163,284,117528,1,8,0:0:0:0:
285,236,117700,1,0,0:0:0:0:
285,236,117786,1,0,0:0:0:0:
285,236,117873,6,0,L|254:75,1,136,0|8,1:0|0:0,0:0:0:0:
304,26,118390,1,0,0:0:0:0:
172,106,118562,1,0,3:0:0:0:
172,106,118735,1,0,3:0:0:0:
304,26,118907,2,0,P|343:25|391:33,1,68,8|0,0:0|3:0,0:0:0:0:
172,106,119252,6,0,P|138:107|104:103,1,68,0|0,0:0|3:0,0:0:0:0:
259,102,119597,2,0,P|287:128|315:168,1,68,8|0,0:0|3:0,0:0:0:0:
230,282,119942,2,0,P|229:242|237:194,1,68,0|0,0:0|3:0,0:0:0:0:
313,324,120286,1,8,0:0:0:0:
184,375,120459,1,8,1:2:0:0:
184,375,120545,1,8,1:2:0:0:
184,375,120631,6,0,L|85:366,1,76.4999976654053,4|0,0:0|0:0,0:0:0:0:
139,211,120976,2,0,L|155:307,1,76.4999976654053,8|0,0:0|0:0,0:0:0:0:
52,178,121321,1,0,3:0:0:0:
52,178,121493,1,0,3:0:0:0:
73,301,121666,2,0,L|63:376,1,76.4999976654053,8|0,0:0|0:0,0:0:0:0:
56,182,122011,5,10,0:0:0:0:
151,286,122183,1,0,3:0:0:0:
197,81,122355,1,14,0:0:0:0:
139,211,122528,1,0,3:0:0:0:
285,170,122700,1,10,1:2:0:0:
310,153,122786,1,0,1:2:0:0:
328,128,122873,1,8,1:2:0:0:
339,99,122959,1,0,1:2:0:0:
341,68,123045,1,8,1:2:0:0:
185,90,123217,1,8,1:2:0:0:
161,120,123304,1,8,1:2:0:0:
151,151,123390,6,0,P|146:237|166:320,1,170,4|8,0:0|0:0,0:0:0:0:
255,346,123907,2,0,L|339:334,1,85,0|0,0:0|3:0,0:0:0:0:
424,257,124252,1,0,3:0:0:0:
363,352,124424,1,8,0:0:0:0:
323,207,124597,6,0,P|315:109|331:29,1,170,2|0,1:2|3:0,0:0:0:0:
420,172,125114,2,0,P|425:221|423:263,1,85,8|0,0:0|3:0,0:0:0:0:
315,229,125459,1,0,0:0:0:0:
315,229,125631,1,0,3:0:0:0:
352,126,125804,1,8,0:0:0:0:
362,295,125976,1,0,0:0:0:0:
259,162,126149,6,0,P|196:144|77:163,1,170,2|8,1:2|0:0,0:0:0:0:
48,238,126666,2,0,L|60:336,1,85,0|0,0:0|3:0,0:0:0:0:
93,156,127011,2,0,L|103:71,1,85,0|8,3:0|0:0,0:0:0:0:
225,241,127355,6,0,P|141:256|57:247,1,170,2|0,1:2|3:0,0:0:0:0:
184,166,127873,2,0,P|225:156|267:164,1,85,8|0,0:0|3:0,0:0:0:0:
231,334,128217,1,0,0:0:0:0:
225,241,128390,1,0,3:0:0:0:
335,126,128562,2,0,P|344:167|335:208,1,85,8|0,0:0|0:0,0:0:0:0:
248,79,128907,6,0,P|317:35|398:55,1,170,4|8,0:0|0:0,0:0:0:0:
256,165,129424,1,0,0:0:0:0:
256,165,129597,2,0,L|157:170,1,85,0|0,3:0|3:0,0:0:0:0:
31,96,129942,2,0,L|130:101,1,85,8|0,0:0|0:0,0:0:0:0:
190,270,130286,6,0,P|131:267|71:162,1,170,2|8,1:2|0:0,0:0:0:0:
135,54,130804,1,0,3:0:0:0:
135,54,130976,2,0,L|138:143,1,85,0|0,0:0|3:0,0:0:0:0:
206,280,131321,2,0,L|209:195,1,85,8|0,0:0|0:0,0:0:0:0:
111,18,131666,6,0,L|118:187,1,170,4|8,0:0|0:0,0:0:0:0:
205,114,132183,1,0,0:0:0:0:
205,114,132355,1,0,3:0:0:0:
209,242,132528,1,0,3:0:0:0:
100,180,132700,1,8,0:0:0:0:
223,106,132873,6,0,P|307:109|384:142,1,170,4|0,0:0|3:0,0:0:0:0:
301,277,133390,2,0,P|292:222|297:190,1,85,8|0,0:0|0:0,0:0:0:0:
388,309,133735,1,8,1:2:0:0:
370,337,133821,1,0,1:0:0:0:
343,358,133907,1,8,1:2:0:0:
311,368,133993,1,0,1:0:0:0:
277,366,134080,2,0,L|192:341,1,85,8|8,1:2|1:2,0:0:0:0:
168,348,134338,1,8,1:2:0:0:
141,356,134424,6,0,P|96:284|84:200,1,170,4|8,0:0|0:0,0:0:0:0:
155,74,134942,2,0,P|163:116|156:158,1,85,0|0,0:0|3:0,0:0:0:0:
71,55,135286,1,0,3:0:0:0:
214,11,135459,1,8,0:0:0:0:
240,184,135631,6,0,L|70:188,1,170,4|0,0:0|3:0,0:0:0:0:
260,109,136149,2,0,P|295:130|315:170,1,85,8|0,0:0|3:0,0:0:0:0:
235,277,136493,1,0,0:0:0:0:
235,277,136666,1,0,3:0:0:0:
352,237,136838,1,8,0:0:0:0:
240,184,137011,1,0,3:0:0:0:
312,315,137183,6,0,P|393:314|440:247,1,170,4|8,0:0|0:0,0:0:0:0:
359,152,137700,2,0,L|350:260,1,85,0|0,0:0|3:0,0:0:0:0:
242,359,138045,2,0,P|230:318|234:276,1,85,0|8,3:0|0:0,0:0:0:0:
276,132,138390,6,0,L|454:124,1,170,4|0,0:0|3:0,0:0:0:0:
284,217,138907,2,0,L|198:212,1,85,8|0,0:0|3:0,0:0:0:0:
142,137,139252,1,0,0:0:0:0:
144,270,139424,1,0,3:0:0:0:
274,231,139597,2,0,P|320:232|360:241,1,85,8|0,0:0|0:0,0:0:0:0:
222,305,139942,6,0,P|148:273|88:198,1,170,4|8,0:0|0:0,0:0:0:0:
148,57,140459,1,0,0:0:0:0:
147,56,140631,2,0,P|163:95|163:137,1,85,0|0,3:0|3:0,0:0:0:0:
0,109,140976,2,0,L|99:114,1,85,8|0,0:0|3:0,0:0:0:0:
209,217,141321,6,0,L|124:221,1,85,2|0,0:2|3:0,0:0:0:0:
252,140,141666,1,8,0:0:0:0:
252,140,141838,1,0,3:0:0:0:
279,272,142010,2,0,L|203:335,1,85,0|0,0:0|3:0,0:0:0:0:
171,172,142355,2,0,P|167:124|194:72,1,85,8|0,0:0|3:0,0:0:0:0:
319,194,142700,6,0,L|488:187,1,170,4|8,0:0|0:0,0:0:0:0:
441,106,143216,1,0,0:0:0:0:
415,272,143389,1,0,3:0:0:0:
415,272,143561,1,0,3:0:0:0:
307,182,143734,2,0,P|267:167|225:166,1,85,8|0,0:0|0:0,0:0:0:0:
143,260,144079,6,0,L|76:238,2,56.6666666666667,0|8|8,3:0|0:0|0:0,0:0:0:0:
211,310,144424,2,0,L|278:288,2,56.6666666666667,8|8|8,0:0|0:0|0:0,0:0:0:0:
139,342,144769,6,0,B|83:381|5:352|5:352|35:319|61:329,1,203.999993774414,2|4,1:3|0:0,0:0:0:0:
