osu file format v9

[General]
AudioFilename: 01 .mp3
AudioLeadIn: 1000
PreviewTime: -1
Countdown: 1
SampleSet: Soft
StackLeniency: 0.7
Mode: 0
LetterboxInBreaks: 1

[Editor]
DistanceSpacing: 0.2
BeatDivisor: 4
GridSize: 4

[Metadata]
Title:Hana no iro
Artist:nano.RIPE
Creator:ex666830
Version:aaa
Source:
Tags:

[Difficulty]
HPDrainRate:8
CircleSize:4
OverallDifficulty:7
ApproachRate:8
SliderMultiplier:1.4
SliderTickRate:1

[Events]
//Background and Video events
0,0,"bg.jpg"
//Break Periods
2,11706,32422
2,137039,150755
//Storyboard Layer 0 (Background)
//Storyboard Layer 1 (Fail)
//Storyboard Layer 2 (Pass)
//Storyboard Layer 3 (Foreground)
//Storyboard Sound Samples
//Background Colour Transformations
3,100,163,162,255

[TimingPoints]
3506,333.333333333333,4,2,1,40,1,0
11364,-100,4,1,1,50,0,0
33075,-100,4,1,1,50,0,0
64818,-100,4,1,1,50,0,1
86147,-100,4,2,1,40,0,0
91396,-100,4,1,1,50,0,0
151382,-100,4,2,1,40,0,0
163380,-100,4,1,1,50,0,0
172711,-100,4,1,2,50,0,0
174044,-100,4,1,1,50,0,1
216701,-100,4,2,1,40,0,0

[Colours]
Combo1 : 255,255,128
Combo2 : 255,185,185
Combo3 : 130,253,253
Combo4 : 128,255,128

[HitObjects]
216,88,2172,2,0,B|144:136|128:232,1,140,8|2
56,272,2839,2,0,B|96:320|192:312,1,140,0|2
288,320,3506,6,0,B|368:248|320:128|432:72,1,280,8|0
304,56,4672,2,0,B|240:24|136:112|72:40,1,210,0|2
48,216,5505,6,0,B|176:304|336:240,1,280,0|8
400,208,6505,1,2
304,144,6839,1,0
408,72,7172,6,0,B|288:16|232:104|120:48,1,280,2|2
48,136,8172,1,0
112,240,8505,1,2
192,168,8839,6,0,B|272:80|392:256|448:144,1,280,8|0
360,80,9839,1,2
216,48,10172,6,0,B|64:64,1,140,8|2
32,176,10839,2,0,B|176:224,1,140,0|2
256,200,11506,5,0
136,64,33172,6,0,B|80:144,1,70,8|0
176,160,33505,2,0,B|208:240,2,70,0|0|8
96,232,34005,2,0,B|112:312|208:336,1,140
288,328,34505,6,0,B|320:240,1,70,8|0
416,160,35005,1,0
416,160,35172,1,8
272,56,35505,6,0,B|192:32|112:64,1,140,0|8
64,112,36005,1,0
72,208,36172,2,0,B|136:256,1,70
224,208,36505,2,0,B|160:156,1,70,8|0
328,288,37005,1,0
328,120,37339,1,0
160,176,37672,5,0
160,176,37839,1,8
328,120,38172,1,0
424,216,38505,5,8
424,216,38672,2,0,B|360:232|272:216,1,140
284,218,39172,1,8
200,280,39339,2,0,B|252:336|360:288,1,140
332,300,39839,1,8
416,240,40006,2,0,B|360:184|288:228|208:144,1,210,0|8
112,176,40839,5,0
400,160,41172,1,8
80,256,41506,1,0
440,80,41839,6,0,B|348:64|352:160|240:128,1,210,4|0
243,128,42506,1,8
100,112,42839,1,0
180,64,43006,1,0
244,128,43172,1,8
212,208,43339,1,0
124,192,43506,1,4
272,304,43839,6,0,B|320:288|352:256,1,70,8|0
416,288,44172,2,0,B|464:216|384:160,1,140,0|8
395,168,44672,1,0
312,144,44839,2,0,B|268:160|224:144,1,70
240,72,45172,2,0,B|208:56|160:64,1,70,8|0
80,128,45672,5,0
80,128,45839,1,8
104,272,46172,1,0
264,296,46506,6,0,B|304:288|328:256,1,70,8|0
360,184,46839,2,0,B|296:144|208:160,1,140,0|8
225,157,47339,1,0
152,216,47506,2,0,B|72:224|64:232,1,70
312,160,48006,6,0,B|368:80|440:64,1,140
417,70,48506,1,8
448,144,48672,1,0
432,224,48839,2,0,B|360:272|280:272,1,140,0|8
288,16,49506,6,0,B|336:88|336:168,1,140,0|8
80,160,50172,2,0,B|152:112|232:112,1,140,0|8
224,368,50839,2,0,B|176:296|176:216,1,140,0|8
440,192,51506,5,0
88,192,51839,1,8
256,176,52172,1,0
240,192,52339,1,0
256,208,52506,1,8
272,192,52672,1,4
336,96,53006,5,0
256,64,53172,1,8
176,96,53339,1,0
256,176,53506,1,0
256,184,53589,1,0
256,192,53672,1,0
256,200,53756,1,0
256,208,53839,1,0
256,304,54006,1,0
328,304,54172,2,0,B|176:304,1,140,0|8
256,208,54839,5,0
256,200,54922,1,0
256,192,55006,1,0
256,184,55089,1,0
256,176,55172,1,0
256,72,55339,1,0
184,72,55506,2,0,B|328:72,1,140,0|8
320,160,56006,5,0
320,256,56172,2,0,B|176:256,1,140,0|8
128,192,56839,1,0
384,192,57172,1,8
96,192,57506,1,0
416,192,57839,1,8
96,192,58506,5,8
256,32,58839,1,0
416,192,59172,1,8
328,304,59506,6,0,B|184:304,1,140,0|8
328,304,60172,2,0,B|203:232,1,140,0|8
328,304,60839,2,0,B|256:179,2,140,0|8|0
168,304,61839,5,8
144,192,62172,2,0,B|48:192,2,70,0|0|8
256,112,62672,2,0,B|336:112,2,70
112,96,63172,2,0,B|72:88|40:56,1,70,8|0
44,184,63506,2,0,B|84:192|116:224,1,70,8|0
232,252,63839,1,0
236,248,63922,1,0
240,244,64006,1,0
244,240,64089,1,0
248,236,64172,1,0
252,232,64256,1,0
256,228,64339,1,0
260,224,64422,1,0
264,220,64506,1,0
368,152,64839,5,0
304,96,65006,1,0
208,112,65172,2,0,B|184:88|184:24,1,70,8|0
96,96,65506,2,0,B|16:112|0:216,1,140,0|8
4,191,66006,1,0
96,192,66172,2,0,B|112:272|216:288,1,140,0|8
192,192,66672,5,0
256,120,66839,2,0,B|176:96,1,70
336,80,67172,2,0,B|278:19,1,70,8|0
416,128,67506,2,0,B|296:208,1,140,0|8
299,205,68006,1,0
192,224,68172,2,0,B|280:336,1,140,0|8
384,304,68839,6,0,B|448:248|400:152,2,140,0|8|0
208,288,69839,5,8
128,264,70006,1,0
184,208,70172,2,0,B|176:160|240:112|224:48,1,140,0|8
136,64,70672,2,0,B|118:109|39:119|21:182,1,140
33,156,71172,1,8
64,248,71339,6,0,B|132:264|120:320|216:320,1,140
184,316,71839,1,8
200,232,72006,2,0,B|255:200|292:256|367:218,1,140
336,228,72506,1,8
336,228,72672,1,0
335,229,72839,1,0
432,160,73172,6,0,B|416:84|320:64,2,140,8|0|8
336,228,74006,1,0
264,160,74172,2,0,B|224:152|176:160,1,70,4|0
72,256,74506,2,0,B|112:264|160:256,1,70,4|0
240,256,74839,1,4
232,248,74922,1,0
224,240,75006,1,4
216,232,75089,1,0
208,224,75172,1,4
200,216,75256,1,0
192,208,75339,1,4
184,200,75422,1,0
176,192,75506,1,4
96,184,75672,5,0
64,112,75839,1,8
128,64,76006,1,0
192,112,76172,2,0,B|268:88|344:128,1,140,0|8
328,120,76672,1,0
360,32,76839,2,0,B|432:80|434:165,1,140,0|8
376,208,77339,1,0
448,256,77506,6,0,B|384:304|296:280,1,140,0|8
316,284,78006,1,0
232,280,78172,2,0,B|144:264,1,70
184,192,78506,2,0,B|96:152,1,70,8|0
88,240,78839,2,0,B|24:208|0:128,1,140,0|8
88,128,79339,1,0
136,64,79505,6,0,B|72:32|-8:56,2,140,0|8|0
272,128,80505,5,8
320,56,80672,1,0
360,136,80839,2,0,B|444:148|468:220,1,140,0|8
376,232,81339,2,0,B|364:316|268:355,1,140
298,341,81839,1,8
56,296,82005,6,0,B|24:208|88:160,1,140
79,167,82505,1,8
136,232,82672,2,0,B|188:172|272:203,1,140
224,272,83172,1,8
312,288,83339,1,0
392,256,83505,6,0,B|472:256,2,70,4|0|0
296,168,84005,2,0,B|216:168,2,70,4|0|0
440,112,84505,2,0,B|488:120|520:88,1,70,4|0
224,48,84839,5,8
216,48,84922,1,0
208,48,85005,1,0
200,48,85089,1,0
192,48,85172,1,8
184,48,85255,1,0
176,48,85339,1,0
168,48,85422,1,0
160,48,85505,1,8
152,48,85589,1,0
144,48,85672,1,0
136,48,85755,1,0
128,48,85839,1,8
120,48,85922,1,0
112,48,86005,1,0
40,112,86172,6,0,B|52:196|136:208,1,140,2|0
32,264,86672,1,0
104,320,86839,2,0,B|172:332|232:240|328:264,1,210,8|0
302,259,87505,1,0
400,272,87839,6,0,B|460:220|416:120,1,140,2|0
336,88,88505,1,2
200,72,88839,2,0,B|120:48|40:96,1,140,8|2
112,192,89505,2,0,B|188:208|271:162,1,140,0|2
328,104,90172,5,0
456,192,90505,1,8
256,304,90839,1,8
56,192,91172,1,8
256,304,91505,6,0,B|208:256|296:212|248:152,1,140,0|0
264,171,92172,1,0
152,232,92505,1,0
144,224,92589,1,0
136,216,92672,1,0
128,208,92755,1,0
120,200,92839,1,0
117,189,92922,1,0
114,178,93005,1,0
111,167,93089,1,0
112,152,93172,1,0
114,140,93255,1,0
117,129,93339,1,0
120,118,93422,1,0
128,104,93505,6,0,B|168:88,8,35
256,192,94339,12,0,96839
56,144,99839,6,0,B|56:96|88:64,1,70,8|0
144,48,100172,1,0
192,112,100339,1,0
264,80,100505,1,8
320,136,100672,1,0
384,88,100839,2,0,B|416:80|464:112,1,70,0|0
392,168,101172,2,0,B|432:192|416:248,1,70,8|0
224,304,101672,5,0
224,304,101839,1,8
80,184,102172,1,0
176,80,102505,6,0,B|200:48|240:32,1,70,8|0
256,112,102839,1,0
328,80,103005,1,0
384,128,103172,1,8
448,176,103339,2,0,B|496:256|416:312,1,140
344,296,103839,5,8
264,288,104005,2,0,B|212:228|296:152,1,140
284,164,104505,1,8
112,128,104839,5,0
72,256,105172,2,0,B|120:288|160:288,2,70,8|0|0
256,200,105839,1,8
256,200,106005,1,0
88,176,106505,1,8
88,176,106672,2,0,B|104:64|232:24,1,210
88,176,107505,5,0
256,280,107839,1,8
416,176,108172,1,0
256,80,108505,1,8
256,80,108672,1,0
112,192,109005,1,0
112,192,109172,1,8
256,272,109505,5,0
304,216,109672,1,0
328,288,109839,1,8
376,232,110005,1,0
400,304,110172,1,0
416,88,110505,6,0,B|400:40|344:24,1,70,8|0
320,80,110839,1,0
248,56,111005,1,0
192,104,111172,1,8
120,88,111339,1,0
56,144,111505,2,0,B|32:104|32:72,1,70
136,168,111839,2,0,B|176:200|168:256,1,70,8|0
320,176,112339,5,0
320,176,112505,1,8
432,96,112839,1,0
256,56,113172,6,0,B|192:40|168:48,1,70,8|0
128,104,113505,1,0
160,176,113672,1,0
96,224,113839,1,8
136,288,114005,2,0,B|192:320|288:312,1,140
400,312,114672,2,0,B|328:264|236:194|448:168|360:104,1,210,0|8
176,96,115505,6,0,B|88:104|40:144,1,140,0|8
184,280,116172,2,0,B|272:272|320:232,1,140,0|8
272,176,116672,1,0
352,160,116839,2,0,B|344:80|432:24,1,140,0|8
192,184,117505,2,0,B|88:173|71:81,1,140,0|8
192,64,118172,5,0
312,72,118505,1,8
312,72,118672,1,0
400,136,119005,1,0
400,136,119172,1,8
368,256,119505,1,0
368,256,119672,1,0
368,256,119839,1,8
142,74,120172,6,0,B|88:148|198:194|134:282,1,210,2|0
140,272,120839,1,4
370,310,121505,2,0,B|424:236|314:190|378:102,1,210,2|0
372,112,122172,1,4
232,96,122505,1,8
152,208,122839,1,0
312,272,123172,1,8
376,152,123505,6,0,B|512:96,1,140,0|8
240,216,124172,2,0,B|103:269,1,140,0|8
109,267,124672,1,0
200,144,125005,5,0
200,144,125172,1,8
80,120,125505,1,0
80,120,125672,1,0
80,120,125839,1,8
256,48,126172,6,0,B|336:32|408:64,1,140,0|8
256,48,126839,2,0,B|176:63|104:32,1,140,0|8
118,37,127505,1,0
48,80,127672,1,0
96,152,127839,1,8
168,256,128172,1,0
296,264,128505,1,8
360,192,128672,5,0
360,192,128839,2,0,B|352:112,1,70
152,192,129172,2,0,B|160:112,1,70
456,176,129505,2,0,B|376:144,1,70
56,176,129839,2,0,B|136:144,1,70
244,264,130172,1,8
248,264,130255,1,0
252,264,130339,1,0
256,264,130422,1,0
260,264,130505,1,8
264,264,130589,1,0
268,264,130672,1,0
272,264,130755,1,0
276,264,130839,1,8
280,264,130922,1,0
284,264,131005,1,0
288,264,131089,1,0
292,264,131172,1,8
296,264,131255,1,0
296,264,131339,1,0
300,264,131422,1,0
304,264,131505,6,0,B|376:236|384:136,1,140,8|0
256,192,132005,12,4,136839
88,112,151505,6,0,B|144:56|240:48,1,140,8|2
312,32,152172,2,0,B|368:88|376:184,1,140,0|2
256,208,152839,1,8
56,112,153505,6,0,B|192:60|352:96,1,280,8|0
464,152,154505,1,2
352,208,154839,1,0
232,240,155172,1,2
104,192,155505,2,0,B|36:152|48:48,1,140,8|2
192,72,156172,2,0,B|268:124|248:216,1,140,0|2
320,40,156839,6,0,B|448:128|416:288,1,280,8|0
232,320,157839,5,2
152,312,158006,1,0
200,248,158172,2,0,B|144:176|192:104,1,140,8|0
112,96,158672,2,0,B|144:24|241:32,1,140,0|0
225,30,159172,1,2
328,64,159339,6,0,B|384:136|336:208,1,140,0|0
344,192,159839,1,2
416,216,160006,2,0,B|376:288|286:279,1,140
302,281,160506,1,2
232,240,160672,1,0
160,280,160839,1,0
72,192,161172,5,2
200,128,161506,1,0
56,64,161839,1,2
56,64,162006,1,0
56,64,162172,2,0,B|128:28|216:64,1,140,8|2
144,144,162839,2,0,B|226:194|233:276,1,140,0|2
229,250,163506,5,0
376,176,163839,1,0
320,48,164172,2,0,B|208:64|104:160|48:152,1,280,0|0
104,272,165172,1,0
224,312,165506,1,0
344,272,165839,1,0
432,184,166172,6,0,B|416:112|344:64,1,140
240,112,166839,2,0,B|166:111|103:170,1,140
120,272,167506,1,0
288,320,167839,1,0
440,248,168172,1,0
392,96,168506,5,0
336,64,168672,1,0
336,128,168839,2,0,B|256:112|184:128,1,140,0|8
128,240,169339,2,0,B|208:256|280:240,1,140
268,244,169839,1,8
432,96,170006,2,0,B|352:80|280:96,1,140
292,92,170506,1,8
120,280,170672,2,0,B|200:296|272:280,1,140
259,282,171172,1,8
328,168,171506,6,0,B|368:112,1,70,4|0
224,200,171839,2,0,B|184:256,1,70,8|0
400,152,172172,2,0,B|440:96,1,70,4|0
136,216,172506,2,0,B|96:272,1,70,8|0
136,216,172839,5,4
400,152,173172,1,4
136,216,173506,1,4
400,152,173839,1,4
104,120,174172,6,0,B|80:96|80:48,1,70
176,96,174506,2,0,B|172:60|216:32,1,70,8|0
256,96,174839,6,0,B|320:112|392:200,1,140,0|8
369,174,175339,1,0
256,288,175506,2,0,B|192:272|120:184,1,140,0|8
142,209,176006,1,0
64,208,176172,6,0,B|40:144|40:128,1,70
112,136,176506,2,0,B|120:56,1,70,8|0
184,120,176839,2,0,B|232:64|312:40,1,140,0|8
299,43,177339,1,0
296,128,177506,2,0,B|344:72|424:48,1,140,0|8
464,160,178172,6,0,B|416:224|344:240,2,140,0|8|0
184,280,179172,5,8
184,280,179339,2,0,B|88:240|80:176,1,140
80,192,179839,1,8
176,160,180006,2,0,B|173:66|245:26,1,140
296,104,180506,5,8
296,104,180672,2,0,B|448:120,1,140
435,118,181172,1,8
392,200,181339,2,0,B|416:288|336:328,1,140
348,320,181839,1,8
256,288,182006,1,0
168,304,182172,6,0,B|104:256|168:144|56:32,1,280,0|0
248,40,183172,5,8
440,160,183506,1,0
136,176,183839,1,8
320,304,184172,1,0
288,176,184506,1,8
216,80,184839,6,0,B|144:56|64:96,1,140,0|8
48,176,185339,1,0
104,248,185506,2,0,B|176:272|256:240,1,140,0|8
241,245,186006,1,0
184,160,186172,2,0,B|256:184|336:152,1,140,0|8
424,112,186839,5,0
272,64,187172,1,8
200,184,187506,2,0,B|160:120|64:144,1,140,0|8
312,200,188172,2,0,B|352:264|448:240,1,140,0|8
392,164,188839,5,0
256,88,189172,1,8
112,152,189506,1,0
240,280,189839,1,8
240,280,190006,2,0,B|324:272|328:184,1,140
328,192,190506,1,8
328,192,190672,2,0,B|336:288|424:280,1,140
416,280,191172,5,8
416,280,191339,2,0,B|504:272|492:184,1,140
492,188,191839,1,8
492,184,192006,2,0,B|484:104|396:96,1,140
400,96,192506,1,8
168,128,192839,6,0,B|80:128,1,70,4|0
296,208,193172,2,0,B|384:208,1,70,8|0
112,72,193506,2,0,B|24:72,1,70,4|0
352,272,193839,2,8,B|440:272,1,70,8|0
120,264,194172,5,8
128,256,194256,1,0
136,248,194339,1,0
144,240,194422,1,0
152,232,194506,1,8
163,232,194589,1,0
174,232,194672,1,0
185,232,194756,1,0
192,232,194839,1,8
200,240,194922,1,0
208,248,195006,1,0
216,256,195089,1,0
224,264,195172,1,8
288,312,195339,5,0
336,240,195506,2,0,B|408:200|352:112,1,140,4|8
356,120,196006,1,0
356,120,196172,2,0,B|444:136|457:40,1,140,0|8
456,48,196672,1,0
456,48,196839,2,0,B|491:124|451:196,1,140,0|8
328,264,197506,6,0,B|256:232|248:144,1,140,0|8
80,88,198172,2,0,B|36:160|64:224,1,140,0|8
264,232,198839,1,0
432,136,199172,1,8
280,56,199506,6,0,B|192:48|136:96,2,140,0|8|0
128,200,200506,6,0,B|88:272,1,70,8|0
184,280,200839,2,0,B|256:304|320:256,1,140,0|8
317,257,201339,1,0
316,256,201506,2,0,B|340:332|413:353,1,140,0|8
408,352,202006,1,0
408,352,202172,2,0,B|450:288|402:216,1,140,0|8
404,220,202672,1,0
404,220,202839,2,0,B|480:193|504:113,1,140,0|8
416,92,203339,5,0
416,92,203506,1,2
120,112,203839,1,8
120,112,204006,1,0
256,296,204339,1,0
256,296,204506,1,8
384,208,204839,6,0,B|432:136,1,70,0|0
264,168,205172,2,0,B|341:129,1,70,8|0
168,80,205506,2,0,B|254:85,1,70,0|0
104,168,205839,1,8
80,256,206006,1,0
168,312,206172,6,0,B|248:328|288:248,1,140,0|8
284,255,206672,1,0
360,232,206839,2,0,B|408:152,1,70
320,152,207172,2,0,B|288:72,1,70,8|0
224,136,207506,2,0,B|160:96,1,70
160,192,207839,2,0,B|136:272,1,70,8|0
208,296,208172,2,0,B|272:328,1,70
344,288,208506,5,8
424,304,208672,1,0
400,232,208839,1,0
456,176,209006,1,0
392,120,209172,1,8
320,112,209339,1,0
240,120,209506,6,0,B|192:88|176:72,1,70
120,136,209839,2,0,B|72:208,1,70,8|0
32,264,210172,2,0,B|88:320,1,70
160,264,210506,5,8
432,280,210839,1,0
128,264,211172,1,8
456,280,211506,2,0,B|508:228|472:128,1,140,0|8
480,152,212006,2,0,B|436:88|364:72,1,140
368,72,212506,1,8
176,80,212839,2,0,B|124:132|160:232,1,140,0|8
152,208,213339,2,0,B|196:272|268:288,1,140
264,288,213839,1,8
368,264,214172,6,0,B|432:208,1,70,4|0
480,168,214506,1,8
208,176,214672,2,0,B|144:231,1,70,4|0
96,272,215006,1,8
328,176,215172,2,0,B|392:120,1,70,4|0
440,80,215506,5,2
144,128,215839,1,2
440,80,216172,1,2
144,128,216506,1,2
440,80,216839,6,0,B|360:108|344:176,1,140,0|2
248,72,217506,2,0,B|168:100|152:168,1,140,0|2
56,280,218172,6,0,B|188:312|344:272,1,280,8|0
334,273,219172,1,2
368,168,219506,6,0,B|408:112|496:80,1,140,8|2
472,172,220172,2,0,B|432:116|344:84,1,140,8|2
152,104,221172,5,8
256,64,221506,1,8
352,104,221839,1,8
392,192,222172,6,0,B|432:272,1,70
304,208,222506,2,0,B|272:296,1,70,2|0
216,216,222839,1,8
128,216,223006,5,0
120,208,223089,1,0
112,200,223172,1,4
104,192,223256,1,0
104,184,223339,1,0
112,176,223422,1,0
120,168,223506,1,4
128,160,223589,1,0
136,160,223672,1,0
144,168,223756,1,0
152,176,223839,1,4
160,184,223922,1,0
160,192,224006,1,0
152,200,224089,1,0
144,208,224172,1,4
136,216,224256,1,0
256,192,224506,12,0,227506
