osu file format v9

[General]
AudioFilename: 01 .mp3
AudioLeadIn: 0
PreviewTime: -1
Countdown: 0
SampleSet: Soft
StackLeniency: 0.7
Mode: 0
LetterboxInBreaks: 1

[Editor]
Bookmarks: 32838,86172,131505,174172,216838
DistanceSpacing: 1
BeatDivisor: 4
GridSize: 8

[Metadata]
Title:Hana no iro
Artist:nano.RIPE
Creator:ex666830
Version:Miu
Source:
Tags:

[Difficulty]
HPDrainRate:7
CircleSize:4
OverallDifficulty:8
ApproachRate:8
SliderMultiplier:1.6
SliderTickRate:1

[Events]
//Background and Video events
0,0,"bg.jpg"
//Break Periods
2,11371,32088
2,94372,98755
2,132038,141422
2,152838,162755
//Storyboard Layer 0 (Background)
//Storyboard Layer 1 (Fail)
//Storyboard Layer 2 (Pass)
//Storyboard Layer 3 (Foreground)
//Storyboard Sound Samples
//Background Colour Transformations
3,100,163,162,255

[TimingPoints]
839,333.333333333333,4,2,1,40,1,0
2172,-200,4,2,1,20,0,0
32505,-100,4,1,1,50,0,0
59505,-100,4,2,1,50,0,0
62005,-100,4,1,1,50,0,0
62172,-100,4,1,1,50,0,0
64818,-100,4,1,1,50,0,1
78838,-200,4,1,1,50,0,1
79505,-100,4,1,1,50,0,1
86147,-100,4,2,1,40,0,0
91505,-133.333333333333,4,1,1,40,0,0
92838,-133.333333333333,4,1,0,70,0,0
99505,-100,4,1,1,40,0,0
131505,-133.333333333333,4,1,1,40,0,1
131838,-100,4,1,1,40,0,0
150172,-100,4,1,0,60,0,0
163505,-100,4,1,0,20,0,0
171505,-100,4,1,1,40,0,0
172838,-100,4,2,0,60,0,0
174172,-100,4,2,0,60,0,1
174505,-100,4,1,0,60,0,1
216838,-133.333333333333,4,2,0,60,0,0
221172,-133.333333333333,4,1,1,60,0,0
222172,-133.333333333333,4,1,0,80,0,1

[Colours]
Combo1 : 255,255,128
Combo2 : 255,185,185
Combo3 : 130,253,253
Combo4 : 128,255,128

[HitObjects]
168,58,2172,1,0
336,122,2505,1,2
168,186,2838,1,0
336,250,3171,1,2
168,314,3505,6,0,B|116:326|78:288,1,80,2|0
33,204,4172,2,0,B|71:168|64:119,1,80
63,77,4672,2,0,B|190:60,1,120,2|0
237,53,5338,1,0
267,99,5505,2,0,B|349:145|426:84,1,160,0|2
476,186,6505,1,0
382,247,6838,1,0
409,355,7172,1,0
255,191,7838,6,0,B|256:270,2,80
257,78,8838,2,0,B|177:31|100:77,1,160,2|0
53,173,9838,1,0
53,173,10005,1,0
53,173,10172,2,0,B|63:234|50:304,2,120,2|0|0
384,96,32838,6,0,B|440:176|384:272,1,160,0|8
329,291,33338,1,0
254,261,33505,2,0,B|234:300|244:352,2,80,0|0|8
179,231,34005,1,0
101,251,34172,1,0
101,251,34505,1,8
101,251,34672,1,0
110,91,35005,2,0,B|71:117|29:107,2,80,0|8|0
182,57,35505,5,0
182,57,35672,1,0
257,81,35838,2,8,B|327:148|422:128,1,160,8|0
478,104,36338,1,0
478,104,36505,1,8
448,178,36672,2,0,B|500:260|460:344,2,160
287,182,37672,2,0,B|208:144,1,80,0|8
143,111,38005,5,0
143,111,38088,1,0
143,111,38172,2,0,B|60:146|52:240,1,160
68,311,38672,1,0
139,346,38838,1,0
139,346,39172,1,8
214,321,39338,1,0
214,321,39672,1,0
291,341,39838,1,8
348,285,40005,5,0
348,285,40172,1,0
453,247,40338,1,0
453,247,40505,1,8
368,172,40672,1,8
368,172,40838,2,0,B|436:123|441:20,2,160,0|8|0
172,62,41838,1,8
52,260,42505,5,8
154,322,42755,1,8
154,322,42838,1,0
229,348,43005,1,0
302,316,43172,1,8
314,237,43338,1,8
245,194,43505,6,0,B|188:120|279:32,1,160,4|8
340,35,44005,1,0
418,49,44172,2,0,B|440:82|434:132,2,80,0|0|8
494,24,44672,1,0
508,102,44838,2,0,B|500:156|508:189,1,80
453,242,45172,1,8
453,242,45338,1,0
298,198,45672,1,0
298,198,45838,1,8
258,353,46172,6,0,B|217:360|170:350,1,80
133,284,46505,1,8
133,284,46672,1,0
59,315,46838,1,0
59,315,47005,1,0
27,241,47172,1,8
27,241,47338,2,0,B|5:148|56:56,1,160,0|8
192,28,48005,1,8
192,28,48505,5,8
350,50,48838,2,0,B|459:64|468:171,2,160,4|8|0
256,192,49838,1,8
158,333,50172,2,0,B|53:320|47:238,2,160,4|8|0
318,333,51172,1,8
477,334,51505,6,0,B|503:251|433:184,1,160,4|8
328,69,52172,1,0
173,28,52338,1,8
242,172,52505,1,8
86,131,52672,1,4
86,131,53005,1,0
19,175,53172,2,0,B|34:212|83:254,1,80,8|8
44,315,53505,5,8
63,319,53588,1,0
82,322,53672,1,0
101,324,53755,1,0
120,322,53838,1,8
139,317,53922,1,0
157,309,54005,1,0
174,299,54088,1,0
189,286,54172,2,0,B|236:203|331:197,1,160,4|8
348,271,54672,5,8
356,350,54838,2,0,B|305:360|272:336,2,80,0|0|8
430,321,55338,1,0
477,256,55505,2,0,B|495:220|496:175,1,80
415,181,55838,2,0,B|421:123|390:92,1,80,8|0
328,141,56172,2,0,B|308:106|256:90,1,80
190,121,56505,1,8
190,121,56672,1,0
116,150,56838,6,0,B|72:161|28:147,2,80,4|0|8
163,214,57338,1,0
118,280,57505,2,0,B|74:269|30:283,2,80,0|0|8
269,332,58172,1,0
302,259,58338,1,0
277,182,58505,1,8
313,110,58672,1,8
252,57,58838,2,0,B|173:16|94:84,1,160,0|8
48,227,59505,5,4
48,227,59672,1,0
121,195,59838,1,0
121,195,60005,1,0
195,224,60172,1,0
195,224,60338,1,0
269,195,60505,1,0
269,195,60672,1,0
342,225,60838,5,2
342,225,60922,1,0
342,225,61005,1,0
415,193,61172,1,2
415,193,61255,1,0
415,193,61338,1,0
488,225,61505,2,0,B|488:267,4,40,2|0|0|0|0
490,144,62005,1,8
488,63,62172,6,0,B|384:-20|251:42,1,240,4|4
376,248,63172,1,4
233,319,63505,5,8
228,279,63588,1,0
208,243,63672,1,0
175,220,63755,1,0
135,215,63838,1,8
94,218,63922,1,0
57,201,64005,1,0
32,169,64088,1,0
25,129,64172,5,8
41,92,64255,1,8
72,67,64338,1,8
111,61,64422,1,8
148,73,64505,1,0
182,92,64588,1,0
221,98,64672,1,0
259,88,64755,1,0
293,67,64838,6,0,B|373:14|472:60,1,160
493,114,65338,1,0
455,184,65505,1,0
455,184,65588,1,0
455,184,65672,2,0,B|416:202|372:192,1,80
302,223,66005,1,0
352,285,66172,2,0,B|290:368|180:320,1,160
123,196,66838,2,0,B|84:204|56:244,2,80
35,61,67505,5,0
256,32,67838,1,0
477,61,68172,1,0
432,280,68505,1,0
304,184,68838,6,0,B|224:152,1,80
152,130,69172,1,0
77,156,69338,1,0
77,156,69422,1,0
77,156,69505,2,0,B|100:248|34:305,1,160
102,348,70005,6,0,B|184:382|264:341,1,160
253,184,70505,1,0
253,184,70672,2,0,B|330:120|426:140,1,160
466,282,71172,1,0
466,282,71338,2,0,B|505:196|472:112,1,160
339,44,71838,1,0
339,44,72005,2,0,B|255:84|162:49,1,160
106,31,72505,2,0,B|60:108,1,80
53,339,73172,5,0
73,262,73505,1,0
125,201,73838,1,0
203,184,74172,6,0,B|241:214|289:192,1,80
260,118,74505,2,0,B|306:109|322:64,1,80
391,34,74838,1,0
398,48,74922,1,0
404,62,75005,1,0
411,76,75088,1,0
418,90,75172,1,0
425,104,75255,1,0
432,118,75338,1,0
439,132,75422,1,0
446,146,75505,2,0,B|479:227|424:297,1,160
285,216,76172,6,0,B|243:225|195:204,1,80
173,135,76505,1,0
173,135,76672,1,0
101,99,76838,2,0,B|89:195|9:223,1,160
141,316,77505,2,0,B|176:288|233:296|233:296|271:352,1,160
337,203,78172,6,0,B|352:160|352:160|419:160,1,80
460,130,78505,2,0,B|445:87|445:87|378:87,1,80
343,43,78838,2,0,B|328:86|328:86|261:86,2,80
182,33,79838,1,0
87,107,80088,1,0
87,107,80172,1,0
25,157,80338,1,0
49,233,80505,5,0
49,233,80672,2,0,B|139:222|202:300,1,160
192,288,81172,1,0
192,288,81338,2,0,B|262:349|368:322,1,160
341,327,81838,1,0
341,327,82005,2,0,B|427:293|447:201,1,160
444,212,82505,1,0
444,212,82672,1,0
436,52,83005,6,0,B|348:39,1,80
171,120,83505,6,0,B|196:44,2,80
87,117,84005,2,0,B|115:42,2,80
63,193,84505,1,0
63,193,84672,1,0
35,267,84838,5,0
50,272,84922,1,0
64,277,85005,1,0
78,282,85088,1,0
93,287,85172,1,0
107,292,85255,1,0
121,297,85338,1,0
135,303,85422,1,0
149,308,85505,5,0
163,314,85588,1,0
177,320,85672,1,0
191,325,85755,1,0
205,331,85838,1,0
219,337,85922,1,0
233,342,86005,1,0
247,349,86088,1,0
261,355,86172,6,0,B|347:384|436:335,1,160
448,188,86838,2,0,B|374:145|367:41,1,160,2|0
292,31,87338,2,0,B|212:52|133:12,2,160
276,110,88172,1,2
157,216,88505,1,0
157,216,88672,1,0
157,216,88838,2,0,B|247:164|292:249,1,160
215,274,89338,1,0
275,326,89505,2,0,B|185:378|140:293,2,160,2|0|0
399,224,90505,5,2
245,39,90838,1,2
263,278,91172,1,2
369,63,91505,2,0,B|301:173|156:142,1,239.999992847443,4|0
27,20,92505,1,8
256,192,92838,12,4,94172
356,71,99505,6,0,B|458:114|432:231,1,160
410,271,100005,1,0
355,330,100172,2,0,B|396:361|448:344,2,80
285,290,100672,1,0
206,276,100838,2,0,B|159:287|124:334,1,80
70,272,101172,1,0
70,272,101338,1,0
35,115,101672,1,0
35,115,101838,1,0
181,48,102172,5,0
231,109,102338,1,0
307,84,102505,2,0,B|344:95|388:88,1,80
454,129,102838,2,0,B|475:94|464:35,2,80
405,193,103338,2,0,B|340:252|360:362,1,160
279,360,103838,1,0
279,360,104005,1,0
138,284,104338,1,0
138,284,104422,1,0
138,284,104505,1,0
209,246,104672,1,0
288,247,104838,6,0,B|346:173|298:67,1,160
247,44,105338,2,0,B|192:5|76:19,1,160
45,82,105838,1,0
14,156,106005,2,0,B|76:202|52:302,1,160
104,361,106505,1,0
166,311,106672,1,0
166,311,107172,1,0
323,338,107505,6,0,B|408:356|488:300,1,160
367,189,108172,1,0
367,189,108505,1,0
475,75,108838,2,0,B|408:28|323:45,1,160
211,90,109422,1,0
211,90,109505,1,0
140,51,109672,1,0
62,69,109838,1,0
14,133,110005,1,0
19,212,110172,6,0,B|65:319|175:292,1,160
202,245,110672,1,0
275,214,110838,2,0,B|357:176|450:204,1,160
494,247,111338,1,0
448,313,111505,2,0,B|474:351|514:363,2,80
371,338,112005,1,0
371,338,112338,1,0
371,338,112505,1,0
297,305,112672,5,0
297,305,112755,1,0
297,305,112838,2,0,B|224:352|128:312,1,160
55,183,113505,2,0,B|20:270,2,80
81,107,114005,2,0,B|174:142|245:94,2,160
310,33,115172,1,0
344,192,115505,6,0,B|395:265,1,80
168,192,115838,2,0,B|117:265,1,80
256,138,116172,2,0,B|256:57,1,80
256,246,116505,2,0,B|256:327,1,80
176,336,116838,6,0,B|144:304|136:256|144:208|168:192,2,160
343,191,117838,2,0,B|368:208|376:256|368:304|336:336,2,160
256,104,118755,1,0
256,104,118838,1,0
256,24,119005,1,0
256,104,119172,1,0
256,184,119338,1,0
256,184,119672,2,0,B|256:264,1,80
144,144,120172,5,0
64,152,120338,1,0
24,224,120505,1,0
72,288,120672,1,0
151,280,120838,2,0,B|241:249|317:310,1,160
458,341,121505,2,0,B|403:277|431:171,1,160
430,109,122005,2,0,B|372:35|273:50,1,160
212,68,122505,1,0
89,170,122838,2,0,B|68:133|21:123,2,80
30,319,123505,6,0,B|67:247|172:260,1,160
292,358,124172,1,0
292,358,124505,2,0,B|381:377|449:312,1,160
479,163,125172,1,0
479,163,125338,1,0
479,163,125505,1,0
359,56,125838,1,0
287,92,126005,5,0
287,92,126088,1,0
287,92,126172,2,0,B|324:123|333:157,1,80
253,167,126505,2,0,B|270:224|247:266,1,80
175,237,126838,2,0,B|164:287|133:318,1,80
90,246,127172,2,0,B|60:276|19:284,1,80
22,203,127505,2,0,B|-2:44,2,160
22,203,128255,1,0
22,203,128338,1,0
91,163,128505,5,0
91,163,128672,2,0,B|262:172|244:4|463:50,1,400
494,204,129838,1,0
401,334,130172,5,0
369,309,130255,1,0
332,292,130338,1,0
291,295,130422,1,0
252,304,130505,1,0
215,319,130588,1,0
175,327,130672,1,0
135,325,130755,1,0
96,315,130838,5,0
60,295,130922,1,0
31,267,131005,1,0
16,229,131088,1,0
17,188,131172,1,0
35,152,131255,1,0
70,133,131338,1,0
110,130,131422,1,0
146,146,131505,6,0,B|191:205|268:180,1,119.999996423721
184,264,142172,6,0,B|200:288|256:312|304:288|328:264,2,160
144,192,143005,1,0
144,192,143088,1,0
144,192,143172,1,0
184,120,143338,2,0,B|200:96|256:72|304:96|328:120,2,160
256,192,144172,2,0,B|420:192,1,160
448,120,144672,5,0
448,120,144755,1,0
448,120,144838,2,0,B|448:72|416:32|416:32|352:32,2,160
480,192,145672,1,0
480,192,145838,1,0
448,264,146005,2,0,B|448:312|416:352|416:352|352:352,2,160
376,232,146838,2,0,B|304:272|208:248,1,160
72,304,147505,5,0
32,240,147672,1,0
56,168,147838,1,0
136,160,148005,1,0
176,232,148172,2,0,B|216:272|256:280,2,80
136,160,148672,6,0,B|128:69|216:19,1,160
360,64,149338,1,0
360,64,149505,1,0
449,196,149838,1,0
435,234,149922,1,0
422,271,150005,1,0
409,308,150088,1,0
396,346,150172,1,4
184,160,163505,5,0
288,120,163838,1,0
328,224,164172,1,0
224,264,164505,1,0
187,126,164838,5,0
321,123,165171,1,0
324,257,165505,1,0
190,260,165838,1,0
206,90,166172,5,0
357,142,166505,1,0
305,293,166839,1,0
154,241,167172,1,0
241,56,167505,5,0
391,177,167838,1,0
270,327,168172,1,0
120,206,168505,1,0
120,206,168672,1,0
120,206,168838,1,0
144,128,170172,5,0
152,96,170505,1,0
160,64,170838,1,0
192,64,171172,1,0
224,64,171505,5,8
232,64,171588,1,0
240,64,171672,1,0
248,64,171755,1,0
256,64,171838,1,8
264,64,171922,1,0
272,64,172005,1,0
280,64,172088,1,0
288,64,172172,1,8
296,64,172255,1,8
304,64,172338,1,8
312,64,172422,1,8
320,64,172505,1,8
328,64,172588,1,8
336,64,172672,1,8
344,64,172755,1,8
352,64,172838,1,4
432,64,174172,6,0,B|488:136|488:240,1,160,4|0
448,282,174672,1,0
368,280,174838,2,0,B|328:259|278:278,1,80
291,193,175172,2,0,B|247:212|211:183,1,80
189,110,175505,2,0,B|95:98|51:204,1,160
25,256,176005,1,0
63,326,176172,1,0
221,305,176505,1,0
380,321,176838,6,0,B|416:336|460:333,2,80
348,247,177338,1,0
323,170,177505,2,0,B|280:148|222:167,2,80
367,103,178005,1,0
439,68,178172,2,0,B|499:133|491:225,1,160
369,317,178838,5,0
240,221,179172,1,0
240,221,179338,2,0,B|208:304|109:304,1,160
35,165,179838,1,0
35,165,180005,2,0,B|64:73|177:68,1,160
311,84,180505,5,0
311,84,180672,2,0,B|367:160|470:152,1,160
468,311,181172,1,0
468,311,181338,2,0,B|408:243|298:263,1,160
248,288,181838,1,0
248,288,182005,1,0
179,57,182505,2,0,B|176:145|92:182,2,160
339,54,183505,5,0
345,68,183588,1,0
351,82,183672,1,0
357,96,183755,1,0
363,110,183838,1,0
369,124,183922,1,0
375,138,184005,1,0
381,152,184088,1,0
387,166,184172,1,0
393,180,184255,1,0
399,194,184338,1,0
405,208,184422,1,0
411,222,184505,1,0
417,236,184588,1,0
423,250,184672,1,0
429,264,184755,1,0
434,279,184838,2,0,B|355:340|271:324,1,160
208,303,185338,5,0
137,264,185505,2,0,B|108:299|124:356,2,80
71,218,186005,1,0
71,218,186088,1,0
71,218,186172,2,0,B|148:165|114:52,1,160
46,107,186672,1,0
46,107,186838,2,0,B|108:179|216:169,1,160
304,60,187505,6,0,B|345:48|386:61,1,80
383,140,187838,2,0,B|345:127|304:139,1,80
308,220,188172,2,0,B|349:208|390:221,1,80,0|0
383,300,188505,1,0
383,300,188838,2,0,B|316:341|218:306,2,160
429,146,189838,5,0
429,146,190005,2,0,B|404:61|301:36,1,160
317,40,190505,1,0
317,40,190672,2,0,B|223:9|152:85,1,160
167,67,191172,1,0
167,67,191338,2,0,B|113:116|153:173|85:207,1,160
13,223,191838,1,0
13,223,192005,1,0
55,377,192338,2,0,B|129:347,1,80
341,264,192838,6,0,B|316:340,2,80
425,267,193338,2,0,B|397:342,2,80
449,191,193838,1,0
449,191,194005,1,0
477,117,194171,5,0
462,112,194255,1,0
448,107,194338,1,0
434,102,194421,1,0
419,97,194505,1,0
405,92,194588,1,0
391,87,194671,1,0
377,81,194755,1,0
363,76,194838,5,0
349,70,194921,1,0
335,64,195005,1,0
321,59,195088,1,0
307,53,195171,1,0
293,47,195255,1,0
279,42,195338,1,0
265,35,195421,1,0
251,29,195505,6,0,B|165:0|76:49,1,160
74,198,196172,1,0
74,198,196505,1,0
74,198,196672,1,0
74,198,196838,2,0,B|157:168|245:230,1,160
179,282,197338,1,0
179,282,197505,2,0,B|128:212|180:126,1,160
320,201,198172,6,0,B|358:273|456:284,1,160
469,124,198838,1,0
469,124,199172,1,0
345,22,199505,2,0,B|305:32|264:21,1,80
204,72,199838,1,0
204,72,200005,1,0
148,130,200172,2,0,B|171:162|169:208,1,80
126,273,200505,5,0
126,273,200672,2,0,B|164:352|260:348,1,160
240,269,201172,1,0
240,269,201338,2,0,B|190:345|85:347,1,160
27,329,201838,1,0
27,329,202005,2,0,B|50:256|28:160,1,160
70,101,202505,1,0
70,101,202672,1,0
301,38,203172,2,0,B|379:94,1,80
430,132,203505,5,0
316,366,203838,1,0
82,252,204172,1,0
196,18,204505,1,0
256,165,204838,5,0
256,165,205172,1,0
256,165,205505,1,0
256,176,205588,1,0
256,184,205672,1,0
256,192,205755,1,0
256,200,205838,1,0
256,208,205922,1,0
256,216,206005,1,0
256,224,206088,1,0
256,232,206172,2,0,B|256:312,2,80
336,248,206672,5,0
408,216,206838,2,0,B|416:136|496:80,1,160
424,32,207338,1,0
352,72,207505,2,0,B|288:16|176:56,1,160
136,96,208005,1,0
56,112,208172,1,0
56,112,208338,1,0
37,189,208505,1,0
37,189,208672,1,0
72,260,208838,6,0,B|96:342,1,80
155,284,209172,2,0,B|210:349,1,80
250,277,209505,2,0,B|328:308,1,80
327,226,209838,1,0
327,226,210172,2,0,B|340:171|403:143|403:143|479:172,3,160
451,79,211338,5,0
451,79,211422,1,0
451,79,211505,2,0,B|416:27|365:21|365:21|312:57,1,160
320,51,212005,2,0,B|273:87|273:87|220:84|185:40,1,160
186,42,212505,1,0
62,142,212838,6,0,B|122:208|89:294,1,160
157,334,213338,2,0,B|238:362|320:317,1,160
380,279,213838,1,0
380,279,214005,1,0
418,208,214172,6,0,B|451:131,2,80
369,127,214672,2,0,B|338:201,2,80
392,50,215172,5,0
312,39,215338,1,0
244,71,215505,1,0
230,79,215588,1,0
218,90,215672,1,0
208,103,215755,1,0
201,117,215838,1,0
197,132,215922,1,0
193,147,216005,1,0
187,161,216088,1,0
178,174,216172,1,0
168,186,216255,1,0
158,198,216338,1,0
147,209,216422,1,0
134,218,216505,1,0
120,225,216588,1,0
104,228,216672,1,0
88,231,216755,1,0
72,232,216838,1,4
256,325,217505,5,0
395,210,218005,2,0,B|468:128|383:37,1,179.999994635582,2|0
392,48,218838,1,0
155,82,219505,1,0
63,159,219838,1,0
105,271,220172,1,0
221,300,220505,2,0,B|287:325|332:273,1,119.999996423721,2|0
434,164,221172,5,8
434,164,221505,1,8
434,164,221838,1,8
256,192,222172,12,4,224838
