osu file format v9

[General]
AudioFilename: hana.mp3
AudioLeadIn: 1500
PreviewTime: 50332
Countdown: 0
SampleSet: Normal
StackLeniency: 0.7
Mode: 0
LetterboxInBreaks: 1

[Editor]
DistanceSpacing: 0.9
BeatDivisor: 4
GridSize: 8

[Metadata]
Title:Hana no Iro
Artist:nano.RIPE
Creator:miccoliasms
Version:Easy
Source:Hanasaku Iroha
Tags:wring gowww

[Difficulty]
HPDrainRate:2
CircleSize:3
OverallDifficulty:2
ApproachRate:3
SliderMultiplier:0.7
SliderTickRate:1

[Events]
//Background and Video events
0,0,"hana.jpg"
Video,0,"hana.flv"
//Break Periods
//Storyboard Layer 0 (Background)
//Storyboard Layer 1 (Fail)
//Storyboard Layer 2 (Pass)
//Storyboard Layer 3 (Foreground)
//Storyboard Sound Samples
//Background Colour Transformations
3,100,163,162,255

[TimingPoints]
920,666.666666666667,4,2,0,40,1,0
10253,333.333333333333,4,1,1,80,1,0
40169,-100,4,1,2,80,0,0
47502,-100,4,1,2,50,0,0
48169,-100,4,1,2,60,0,0
48836,-100,4,1,2,70,0,0
49502,-100,4,1,2,80,0,0
50252,-100,4,1,2,80,0,0
52919,-100,4,1,2,80,0,1
74252,-100,4,1,1,50,0,0
78836,-100,4,1,1,60,0,0
79502,-100,4,1,1,70,0,0
80836,-100,4,1,1,80,0,0
86086,-100,4,2,1,0,0,0

[Colours]
Combo1 : 128,255,0
Combo2 : 255,128,64
Combo3 : 128,0,255
Combo4 : 255,128,255

[HitObjects]
400,112,920,2,0,B|368:96|328:96,1,70,0|0
288,136,2253,2,0,B|256:152|216:152,1,70
176,104,3586,1,0
116,125,4253,1,0
56,112,4920,6,0,B|32:152|24:184,1,70
72,224,6253,2,0,B|80:264,2,35
136,208,7586,6,0,B|168:232|208:240,1,70
256,216,8920,2,0,B|288:240|328:248,1,70,0|0
384,224,10253,6,0,B|383:178,2,35,4|0|8
336,264,10919,2,0,B|336:304,2,35,0|0|8
288,224,11586,2,0,B|234:191|194:191|151:208,1,140
56,112,12919,6,0,B|56:156,2,35,4|0|8
104,72,13586,2,0,B|104:32,2,35,0|0|8
152,112,14253,2,0,B|195:147|251:149|298:130,1,140
392,208,15586,6,0,B|384:272|360:302|304:317,1,140,4|0
264,200,16919,2,0,B|200:160|160:160|128:160,1,140,4|0
48,256,18253,6,0,B|112:160|208:128|272:320|344:248|403:132,1,420,4|0
328,40,20919,6,0,B|264:24|208:24|176:32,1,140,4|8
96,112,22252,2,0,B|160:128|216:128|248:120,1,140,0|0
360,128,23586,2,0,B|376:192|376:248|368:280,1,140,0|8
288,368,24919,2,0,B|272:304|272:248|280:216,1,140
264,104,26252,6,0,B|248:72|152:64|80:144|120:176,1,210,4|8
136,232,27586,2,0,B|152:264|248:272|320:192|280:160,1,210,0|8
320,112,28919,1,4
440,88,29586,1,0
400,208,30252,2,0,B|409:249|393:287,3,70,4|8|0|0
448,312,31586,6,0,B|400:304|344:304|296:320,1,140,4|8
192,272,32919,2,0,B|144:280|88:280|40:264,1,140
112,160,34252,2,0,B|160:152|216:152|264:168,1,140,0|8
192,48,35586,2,0,B|240:56|296:56|344:40,1,140
384,80,36586,1,0
424,128,36919,6,0,B|433:167|423:209,1,70,4|8
360,200,37586,2,0,B|369:242|360:282,1,70,0|0
296,272,38252,2,0,B|306:312|296:352,1,70,4|8
232,344,38919,1,0
176,312,39252,2,0,B|128:288|87:275|34:272,1,140,0|8
32,208,40253,6,0,B|16:152,6,35,0|0|0|0|0|0|4
96,192,41586,2,0,B|144:192|176:184,1,70,4|0
192,128,42253,6,0,B|224:88|264:80|320:96|328:128,3,140,4|8|0|0
352,160,44586,1,0
336,224,44919,2,0,B|304:264|264:272|208:256|200:224,3,140,0|8|0|0
184,184,47253,1,0
152,128,47586,6,0,B|112:64,1,70,4|8
176,72,48253,2,0,B|240:32,1,70,0|0
232,96,48919,2,0,B|272:160,1,70,4|8
208,152,49586,2,0,B|144:192,1,70,4|8
256,192,50253,12,4,52253
232,136,52919,6,0,B|208:120|152:120,1,70,4|8
160,56,53586,2,0,B|120:72|112:152|128:168|144:184,2,140
224,40,55253,1,8
280,72,55586,1,0
336,48,55919,1,8
392,80,56253,2,0,B|400:120|392:160,1,70,0|8
440,192,56919,2,0,B|472:240|448:312|424:328,1,140,0|0
376,352,57919,5,8
320,320,58253,2,0,B|288:304|240:304|192:312|176:328,1,140
144,272,59253,1,8
168,216,59586,2,0,B|200:232|248:232|296:224|312:208,3,140,0|0|0|0
344,264,61919,6,0,B|368:288|416:296,1,70,8|0
408,232,62586,2,0,B|440:208|456:168,1,70,8|0
392,168,63253,1,8
352,120,63586,6,0,B|312:88|232:96|208:104,3,140,4|0|0|0
168,144,65919,1,8
128,192,66253,2,0,B|112:232|112:272,1,70,4|0
168,240,66919,2,0,B|184:264|232:280,1,70,0|8
224,216,67586,2,0,B|256:192|288:184|336:184|368:192,1,140,0|0
408,232,68586,5,0
464,200,68919,2,0,B|480:184|480:128|464:96|424:80,1,140,4|0
376,120,69919,1,8
320,88,70253,2,0,B|304:104|248:104|216:88|200:48,1,140,4|0
136,40,71253,6,0,B|112:64|64:152|96:256|144:288|168:288,1,280,4|0
208,248,72919,2,0,B|232:216|272:208,1,70,0|8
264,272,73586,2,0,B|288:304|328:312,1,70,0|8
328,248,74253,5,0
440,192,74919,1,0
376,80,75586,2,0,B|360:64|304:56,1,70,0|8
256,88,76253,5,0
128,80,76919,1,0
88,200,77586,1,0
216,208,78253,1,4
240,264,78586,1,0
288,304,78919,2,0,B|312:328|352:328,1,70,4|0
416,336,79586,6,0,B|448:304|456:272,1,70,4|8
408,240,80252,2,0,B|376:208|368:176,1,70,4|8
400,128,80919,2,0,B|416:96,4,35,4|0|8|0|0
344,96,81919,6,0,B|296:64|224:64|200:64,1,140,4|8
152,88,82919,1,0
56,168,83586,2,0,B|80:208|112:208|120:208,1,70,4|8
168,184,84252,1,0
232,200,84586,1,8
296,192,84919,2,0,B|344:176|360:216|448:184,1,140,4|0
433,188,85919,1,12
256,192,86086,12,0,88919
