osu file format v9

[General]
AudioFilename: nano.RIPE - Hana no Iro.MP3
AudioLeadIn: 1500
PreviewTime: 52978
Countdown: 0
SampleSet: Soft
StackLeniency: 0.7
Mode: 0
LetterboxInBreaks: 1

[Editor]
Bookmarks: 1004,10312,20978,31645,42311,52978,63645,74311,82311
DistanceSpacing: 1
BeatDivisor: 2
GridSize: 8

[Metadata]
Title:Hana no Iro (TV Size)
Artist:nano.RIPE
Creator:Disoy
Version:impossiblexu
Source:Hanasaku Iroha
Tags:JauiPlaY kanpakyin impossiblexu KanaRin sherrie__fay

[Difficulty]
HPDrainRate:1
CircleSize:3
OverallDifficulty:1
ApproachRate:2
SliderMultiplier:0.76
SliderTickRate:1

[Events]
//Background and Video events
Video,0,"video.avi"
0,0,"BG.jpg"
//Break Periods
//Storyboard Layer 0 (Background)
//Storyboard Layer 1 (Fail)
//Storyboard Layer 2 (Pass)
//Storyboard Layer 3 (Foreground)
//Storyboard Sound Samples
//Background Colour Transformations
3,100,163,162,255

[TimingPoints]
998,333.333333333333,4,2,1,50,1,0
10312,333.333333333333,4,2,0,80,1,0
51478,-100,4,1,2,50,0,0
52645,-100,4,2,0,90,0,0
52978,-100,4,2,0,90,0,1
74145,-100,4,2,0,50,0,1
74311,-100,4,2,0,50,0,0
74478,-100,4,2,1,50,0,0
79478,-100,4,2,0,80,0,0
82311,-100,4,1,1,70,0,0

[Colours]
Combo1 : 106,181,255
Combo2 : 255,166,255
Combo3 : 255,255,136
Combo4 : 198,140,140
Combo5 : 199,142,255

[HitObjects]
88,136,998,2,0,B|106:163|162:175|211:152|224:107,1,152,0|0
298,212,2331,2,0,B|360:256|360:256|448:231,2,152,2|4|2
212,298,4331,1,4
101,247,4997,6,0,B|119:160|22:116,2,152,2|4|2
200,176,6997,1,4
253,204,7331,1,0
293,158,7664,6,0,B|367:205|443:152,1,152,2|4
418,277,8997,2,0,B|401:252|367:244|329:252|316:279,2,114,2|4|2
256,192,10312,12,0,12978
257,281,14311,5,0
120,224,14978,1,0
63,86,15645,6,0,B|178:65,2,114,0|2|0
94,146,16978,2,0,B|50:263,2,114,0|2|0
155,176,18311,6,0,B|287:176,4,114,0|2|0|2|0
100,218,20645,1,2
132,278,20978,6,0,B|156:254|215:252|256:298|247:334,1,152,4|2
338,222,22312,1,0
469,259,22978,2,0,B|436:191|490:175|456:90,1,152,2|0
344,42,24312,5,2
250,141,24978,2,0,B|194:210|98:160,1,152,0|2
43,284,26312,5,0
179,282,26978,2,0,B|246:346|339:293,2,152,2|0|2
268,178,28978,5,0
356,73,29645,1,2
422,89,29978,2,0,B|485:140|461:228,1,152
394,212,30978,2,0,B|333:276|396:356,1,152,2|4
256,369,32312,5,2
190,248,32978,2,0,B|128:305|45:260,1,152,0|2
110,139,34312,5,0
226,66,34978,2,0,B|293:104|293:104|361:65,2,152,2|0|2
197,199,36978,6,0,B|236:269|195:349,1,152,0|2
262,365,37978,1,0
311,317,38312,2,0,B|385:358|456:315,1,152,0|2
456,246,39312,6,0,B|383:202|310:242,1,152
275,183,40311,2,0,B|222:221|163:182,2,114,2|0|0
220,129,41645,6,0,B|205:87|257:41|305:86|290:136,1,152,2|4
389,225,42978,2,0,B|373:264|416:314|474:274|454:219,1,152,2|0
426,87,44311,1,2
294,50,44978,6,0,B|291:90|247:120|186:114|154:68,2,152,0|2|0
254,181,46978,2,0,B|216:206|241:249,2,76,2|0|4
386,145,48311,5,2
254,106,48978,1,0
386,70,49645,1,2
386,70,49978,1,0
386,70,50311,2,0,B|437:70|437:70|441:78|441:78|503:78,2,114,4|2|0
331,27,51645,5,2
205,82,52311,1,2
319,156,52978,5,4
247,290,53645,2,0,B|192:356|102:310,1,152,2|0
57,258,54645,1,0
98,194,54978,1,2
95,41,55645,6,0,B|179:83|236:15,2,152,0|2|0
215,134,57645,1,2
280,96,57978,1,0
332,150,58311,6,0,B|407:135|411:178|490:158,2,152,0|2|0
367,297,60311,1,2
304,253,60645,1,0
248,304,60978,6,0,B|238:338|179:366|123:335|113:289,2,152,0|2|0
184,264,62645,1,0
184,192,62978,1,2
232,136,63311,1,0
305,132,63645,6,0,B|458:132,1,152,4|2
455,284,64978,1,0
456,208,65311,1,0
379,209,65645,2,0,B|311:257|232:209,1,152,2|0
112,299,66978,5,2
62,155,67645,2,0,B|104:170|153:152|174:97|138:43,1,152,0|2
216,31,68645,1,0
276,76,68978,6,0,B|352:59|354:105|441:89,1,152,0|2
491,219,70311,1,0
362,300,70978,1,2
329,231,71311,1,0
261,265,71645,6,0,B|248:237|209:232|181:261|194:294,2,114,0|2|0
257,341,72978,1,0
106,362,73645,1,2
54,219,74311,6,0,B|94:143|54:65,1,152,4|4
209,81,75645,2,0,B|172:151|212:227,1,152,2|4
344,151,76978,6,0,B|504:151,1,152,2|4
494,227,77978,1,0
426,261,78311,2,0,B|390:250|341:277|342:340|381:373,1,152,2|4
295,371,79312,1,2
258,304,79645,6,0,B|187:331|187:331|105:281,1,152,4|2
72,233,80645,1,0
116,171,80978,2,0,B|76:131|76:131|99:76,2,114,4|2|0
256,192,82312,12,4,86145
