osu file format v9

[General]
AudioFilename: nano.RIPE - Hana no Iro.MP3
AudioLeadIn: 1500
PreviewTime: 52978
Countdown: 0
SampleSet: Soft
StackLeniency: 0.6
Mode: 0
LetterboxInBreaks: 1

[Editor]
DistanceSpacing: 1.4
BeatDivisor: 4
GridSize: 8

[Metadata]
Title:Hana no Iro (TV Size)
Artist:nano.RIPE
Creator:Disoy
Version:Hard
Source:Hanasaku Iroha
Tags:JauiPlaY kanpakyin impossiblexu KanaRin sherrie__fay

[Difficulty]
HPDrainRate:4
CircleSize:4
OverallDifficulty:5
ApproachRate:7
SliderMultiplier:1.2
SliderTickRate:1

[Events]
//Background and Video events
Video,0,"video.avi"
0,0,"BG2.jpg"
//Break Periods
//Storyboard Layer 0 (Background)
//Storyboard Layer 1 (Fail)
//Storyboard Layer 2 (Pass)
//Storyboard Layer 3 (Foreground)
//Storyboard Sound Samples
//Background Colour Transformations
3,100,163,162,255

[TimingPoints]
998,333.333333333333,4,2,1,45,1,0
8997,-100,4,2,1,40,0,0
9497,-133.333333333333,4,2,1,40,0,0
10312,333.333333333333,4,2,1,45,1,0
10312,-100,4,1,1,50,0,0
11728,-100,4,1,2,50,0,0
11978,-100,4,1,1,50,0,0
12062,-100,4,1,2,50,0,0
12312,-100,4,1,1,50,0,0
16311,-100,4,1,2,50,0,0
16978,-100,4,1,1,50,0,0
17645,-100,4,1,2,50,0,0
17978,-100,4,1,1,50,0,0
19978,-100,4,1,2,50,0,0
20312,-100,4,1,1,50,0,0
20978,-100,4,1,1,45,0,0
30978,-100,4,1,2,50,0,0
31312,-100,4,1,1,45,0,0
36978,-100,4,1,1,30,0,0
37145,-100,4,1,1,45,0,0
42312,-100,4,1,1,45,0,0
46728,-100,4,1,2,45,0,0
46978,-83.3333333333333,4,1,1,45,0,0
47312,-100,4,1,1,45,0,0
47645,-100,4,1,1,25,0,0
47978,-100,4,1,1,40,0,0
49312,-100,4,1,1,35,0,0
49645,-100,4,1,1,45,0,0
49978,-100,4,1,1,55,0,0
50478,-100,4,1,2,50,0,0
50812,-100,4,1,1,50,0,0
50978,-100,4,1,2,50,0,0
51312,-100,4,1,1,50,0,0
52145,-100,4,1,2,50,0,0
52312,-100,4,1,1,50,0,0
52478,-100,4,1,2,50,0,0
52645,-100,4,1,1,50,0,0
52978,-100,4,1,1,50,0,1
63312,-100,4,1,2,50,0,1
63478,-100,4,1,1,50,0,1
63603,-100,4,1,1,50,0,0
63645,-100,4,1,1,50,0,1
68978,-100,4,1,1,40,0,1
69312,-100,4,1,1,50,0,1
73645,-100,4,1,2,50,0,1
74311,-100,4,1,1,30,0,0
74645,-100,4,2,1,50,0,0
79312,-100,4,1,1,60,0,0
79645,-100,4,1,1,50,0,0
81312,-100,4,1,2,50,0,0
81645,-100,4,1,1,50,0,0
82312,-100,4,1,1,50,0,0
85812,-100,4,1,2,50,0,0
86145,-100,4,1,1,30,0,0

[Colours]
Combo1 : 106,181,255
Combo2 : 255,166,255
Combo3 : 255,255,136
Combo4 : 198,140,140
Combo5 : 199,142,255

[HitObjects]
112,88,998,1,0
184,48,1331,1,0
248,104,1664,1,2
208,176,1997,1,0
128,168,2331,2,0,B|80:216|88:304,1,120
288,336,2997,6,0,B|336:288|328:200,1,120,2|0
128,168,3664,2,0,B|128:235|195:292,1,120
359,173,4331,2,0,B|359:105|291:48,1,120,2|0
192,88,4997,5,0
112,120,5331,1,0
80,200,5664,1,2
104,280,5997,1,0
168,336,6331,1,0
336,304,6664,6,0,B|456:240,1,120,0|2
320,152,7331,2,0,B|256:176|256:176|184:168,1,120
64,80,7997,6,0,B|136:96,2,60,0|0|2
80,160,8497,1,0
160,184,8664,2,0,B|280:208,1,120,0|2
104,232,9497,2,0,B|96:304|8:328,1,134.999995976687,2|2
184,304,10312,6,0,B|304:328,1,120,4|0
368,168,10978,2,0,B|224:136,1,120,0|8
184,168,11478,1,0
240,216,11645,6,0,B|320:232,1,60,0|2
352,280,11978,2,0,B|432:296,1,60,0|2
410,291,12312,1,0
168,248,12645,1,8
64,152,12978,6,0,B|96:128|128:136,1,60
184,96,13312,2,0,B|224:120|248:120,1,60
304,80,13645,2,0,B|368:56|448:80,3,120,0|8|0|8
456,144,14812,2,0,B|480:200,3,60
432,272,15478,1,8
376,328,15645,6,0,B|336:344|280:336,2,90,2|0|8
320,264,16312,2,0,B|256:240|192:264,1,120,2|2
160,96,16978,6,0,B|120:112|64:104,2,90,0|0|8
224,144,17645,2,0,B|288:120|352:144,1,120,2|8
256,288,18312,5,8
256,288,18478,1,0
184,248,18645,1,0
256,208,18812,5,8
256,208,18978,1,0
328,168,19145,1,0
264,128,19312,6,0,B|264:8,1,120,8|0
120,40,19811,2,0,B|120:112,1,60,8|0
192,184,20145,2,0,B|192:112,1,60,2|8
56,232,20645,5,8
192,328,20978,2,0,B|264:304|320:320,1,120,4|8
384,352,21478,1,0
336,280,21645,2,0,B|304:232|312:152,1,120,0|8
208,112,22145,6,0,B|240:160|232:240,1,120,2|0
160,264,22645,2,0,B|104:248|104:248|40:264,2,120,8|0|8
328,264,23645,2,0,B|456:288,1,120,0|8
480,136,24145,6,0,B|408:120,1,60
352,176,24478,2,0,B|296:160,1,60,0|8
208,168,24811,2,0,B|136:144|80:152,2,120,2|0|0
152,232,25645,2,0,B|96:264,1,60
160,320,25978,2,8,B|96:360,1,60
232,264,26311,6,0,B|304:272|376:264,1,120,2|8
400,200,26811,1,0
112,184,27145,1,0
112,184,27311,1,8
112,184,27478,1,0
160,112,27645,6,0,B|232:120|304:112,1,120
344,64,28145,2,0,B|304:104|304:104|320:176,1,120,0|8
400,136,28645,2,0,B|432:272,1,120
288,344,29311,2,0,B|256:216,1,120,8|0
176,248,29811,6,0,B|160:176,1,60
80,160,30145,1,0
144,104,30311,2,0,B|216:120|264:96,1,120,0|8
368,280,30978,6,0,B|296:264|248:288,1,120,2|8
184,344,31478,1,0
250,286,31645,1,4
88,240,31978,2,0,B|32:232|32:232|0:152,1,120,8|0
56,40,32478,6,0,B|96:160,1,120,0|2
160,200,32978,1,0
224,40,33311,2,0,B|240:104,1,60,8|0
312,136,33645,2,0,B|368:152|456:144,1,120,0|8
272,208,34311,6,0,B|224:240|224:240|232:312,1,120,0|8
336,344,34811,2,0,B|328:280,1,60
400,240,35145,5,0
472,280,35311,2,0,B|480:224|472:144,1,120,8|0
272,208,35811,2,0,B|264:152|272:72,1,120
344,168,36311,1,0
344,168,36645,5,8
224,288,36978,2,0,B|160:264|96:288,1,120,2|8
288,288,37645,2,0,B|352:264|416:288,1,120,0|8
256,360,38311,5,0
256,192,38645,1,8
256,24,38978,1,0
256,24,39311,6,0,B|256:56|256:56|264:64|264:64|248:64|248:64|256:64|256:64|256:128,2,120,8|0|8
256,192,40312,1,2
304,264,40478,1,0
208,264,40645,1,8
256,336,40812,6,0,B|328:368|384:304,1,120,2|0
384,240,41312,2,8,B|424:232,2,30
440,160,41645,1,2
440,160,41978,6,0,B|472:96|456:24,1,120,8|4
376,48,42478,2,0,B|304:64,2,60,2|8|2
128,80,43145,2,0,B|200:96,1,60,2|8
256,136,43478,1,2
256,136,43645,2,0,B|272:192|232:232|272:272,3,120,2|8|2|8
88,240,44978,6,0,B|56:168|88:96,1,120,2|8
424,144,45645,2,0,B|456:216|424:288,1,120,2|8
256,336,46312,5,2
256,248,46645,1,8
256,160,46978,1,2
256,72,47311,2,8,B|256:24,2,36.0000008583069
184,120,47645,6,0,B|152:176|168:240,1,120,4|2
328,120,48312,2,0,B|360:176|344:240,1,120,2|2
208,336,48978,2,0,B|216:216,1,120,2|2
304,336,49645,2,0,B|296:216,1,120,2|2
312,48,50312,6,0,B|392:64,2,60,8|2|2
200,64,50812,2,0,B|120:80,2,60,8|2|2
256,128,51312,6,0,B|256:200,2,60,8|0|8
88,168,51978,2,0,B|48:144,2,30,8|8|2
160,216,52312,2,0,B|192:208,6,30,8|8|2|2|8|8|8
80,248,52978,6,0,B|48:288|48:288|72:368,1,120,4|8
144,312,53478,1,2
248,216,53812,1,2
312,280,53978,6,0,B|344:240|344:240|320:160,1,120,8|0
160,120,54645,2,0,B|184:184,1,60,8|2
248,120,54978,2,0,B|224:56,1,60,0|2
226,63,55312,1,8
336,112,55645,6,0,B|360:176|432:176,1,120,2|8
176,272,56312,2,0,B|152:208|80:208,1,120,2|8
96,288,56812,1,2
152,352,56978,2,0,B|208:368,1,60,0|2
264,304,57312,2,0,B|328:320,1,60,8|2
400,352,57645,2,0,B|456:336|456:336|480:272,1,120,0|8
416,144,58145,6,0,B|384:264,1,120,2|2
320,208,58645,2,0,B|296:280,2,60,8|2|0
336,128,59145,2,0,B|296:72|336:0,1,120,2|2
176,128,59645,6,0,B|216:72|176:0,1,120,0|8
120,64,60145,1,2
40,208,60478,1,2
96,144,60645,2,0,B|136:200|96:272,1,120,8|0
24,288,61145,1,2
104,312,61312,6,0,B|160:288|232:312,1,120,8|0
336,184,61978,2,0,B|280:208|208:184,2,120,8|0|8
368,104,62812,1,0
408,112,62895,1,8
448,120,62978,1,0
424,200,63145,6,0,B|440:240,5,30,8|8|2|2|8|8
400,248,63645,2,0,B|320:264|336:344,1,120,4|8
416,328,64145,1,2
264,360,64312,6,0,B|144:384,1,120,0|8
64,368,64812,1,2
120,304,64978,2,0,B|192:288,1,60,0|2
248,248,65312,6,0,B|280:216|280:216|288:176|232:136,1,120,8|0
168,120,65812,2,0,B|136:152|136:152|128:192|184:232,1,120,2|2
168,120,66312,1,0
344,120,66645,1,8
256,208,66978,5,2
256,208,67312,2,0,B|256:232|256:232|264:240|264:240|248:240|248:240|256:240|256:240|256:312,2,120,8|2|8
312,144,68145,2,0,B|312:72,1,60,2|0
200,48,68478,2,0,B|200:120,1,60,0|8
136,160,68812,1,2
72,104,68978,6,0,B|32:144|32:144|56:216,1,120,4|8
200,208,69478,1,2
264,152,69645,2,0,B|304:192|304:192|280:264,1,120,0|8
208,288,70145,2,0,B|184:352,1,60,2|0
352,328,70645,6,0,B|392:208,1,120,8|0
464,184,71145,1,2
344,152,71312,6,0,B|368:88,1,60,8|2
256,64,71645,2,0,B|256:128,2,60,0|2|8
168,152,72145,2,0,B|144:88,2,60,2|0|2
256,200,72645,1,8
200,360,72978,2,0,B|256:344|336:360,1,120,2|8
312,48,73645,2,0,B|256:64|176:48,1,120,2|2
40,120,74312,5,4
112,168,74645,1,8
152,240,74978,1,8
160,320,75312,1,8
232,272,75645,6,8,B|288:256|288:256|368:256,1,120
280,112,76312,2,8,B|224:128|224:128|144:128,1,120
352,64,76978,5,8
360,144,77312,1,8
400,216,77645,1,8
472,264,77978,1,8
392,304,78312,6,0,B|352:352,1,60,8|2
288,304,78645,2,0,B|248:352,1,60,8|2
184,296,78978,6,8,B|160:320|128:328|128:328|64:320,1,120,8|2
40,160,79645,2,8,B|64:136|96:128|96:128|160:136,1,120,0|0
328,296,80311,2,0,B|352:320|384:328|384:328|448:320,1,120,0|8
472,160,80978,2,0,B|448:136|416:128|416:128|352:136,1,120,0|2
256,48,81645,5,0
288,128,81811,1,2
224,184,81978,1,8
256,264,82145,1,0
256,192,82311,12,4,84978
256,192,85311,5,8
128,304,85645,1,0
208,336,85811,1,2
304,336,85978,1,2
384,304,86145,1,4
