osu file format v9

[General]
AudioFilename: Hana no Iro.mp3
AudioLeadIn: 0
PreviewTime: 63019
Countdown: 0
SampleSet: Soft
StackLeniency: 0.7
Mode: 0
LetterboxInBreaks: 0

[Editor]
DistanceSpacing: 1.3
BeatDivisor: 4
GridSize: 4

[Metadata]
Title:Hana no Iro
Artist:nano.RIPE
Creator:S i R i R u
Version:Easy
Source:Hanasaku Iroha
Tags:

[Difficulty]
HPDrainRate:2
CircleSize:3
OverallDifficulty:2
ApproachRate:3
SliderMultiplier:0.7
SliderTickRate:2

[Events]
//Background and Video events
0,0,"BG.jpg"
//Break Periods
2,11712,18071
2,22377,28736
2,54374,58066
2,86370,89729
2,94369,97729
2,137031,148723
2,217022,220382
//Storyboard Layer 0 (Background)
//Storyboard Layer 1 (Fail)
//Storyboard Layer 2 (Pass)
//Storyboard Layer 3 (Foreground)
//Storyboard Sound Samples
//Background Colour Transformations
3,100,255,255,255

[TimingPoints]
3513,333.296300411065,4,2,1,20,1,0
3846,-153.846153846153,4,2,1,30,0,0
11512,-100,4,2,1,70,0,0
19679,-100,4,2,2,30,0,0
22177,-100,4,2,1,90,0,0
22179,-100,4,2,1,90,0,0
30176,-100,4,2,2,70,0,0
32843,-100,4,2,1,60,0,0
33842,-100,4,1,1,60,0,0
33926,-100,4,2,1,60,0,0
34509,-100,4,1,1,60,0,0
34592,-100,4,2,1,60,0,0
41175,-100,4,1,1,60,0,0
41258,-100,4,2,1,60,0,0
43841,-100,4,1,1,60,0,0
43925,-100,4,2,1,60,0,0
44508,-100,4,1,1,60,0,0
44591,-100,4,2,1,60,0,0
45175,-100,4,1,1,60,0,0
45258,-100,4,2,1,60,0,0
45841,-100,4,1,1,60,0,0
45924,-100,4,2,1,60,0,0
47174,-100,4,1,1,60,0,0
47258,-100,4,2,1,60,0,0
47841,-100,4,1,1,60,0,0
47924,-100,4,2,1,60,0,0
53174,-100,4,2,2,30,0,0
54174,-100,4,2,1,60,0,0
62173,-100,4,2,2,30,0,0
64839,-100,4,2,1,70,0,1
65006,-100,4,2,1,70,0,0
66506,-100,4,1,1,70,0,0
66589,-100,4,2,1,70,0,0
69172,-100,4,1,1,70,0,0
69255,-100,4,2,1,70,0,0
70505,-100,4,1,1,70,0,0
70588,-100,4,2,1,70,0,0
71172,-100,4,1,1,70,0,0
71255,-100,4,2,1,70,0,0
73838,-100,4,2,1,30,0,0
75505,-100,4,2,1,70,0,1
75671,-100,4,2,1,70,0,0
76504,-100,4,1,1,70,0,0
76588,-100,4,2,1,70,0,0
77171,-100,4,1,1,70,0,0
77254,-100,4,2,1,70,0,0
78504,-100,4,1,1,70,0,0
78587,-100,4,2,1,70,0,0
79837,-100,4,1,1,70,0,0
79921,-100,4,2,1,70,0,0
81171,-100,4,1,1,70,0,0
81254,-100,4,2,1,70,0,0
82504,-100,4,1,1,70,0,0
82587,-100,4,2,1,70,0,0
83504,-100,4,2,1,30,0,0
86170,-100,4,2,1,70,0,0
90836,-100,4,2,1,40,0,0
91336,-100,4,2,1,70,0,0
91669,-100,4,2,1,30,0,0
94169,-100,4,2,1,80,0,0
99002,-100,4,2,1,40,0,0
99335,-100,4,2,1,60,0,0
100502,-100,4,1,1,60,0,0
100585,-100,4,2,1,60,0,0
101168,-100,4,1,1,60,0,0
101252,-100,4,2,1,60,0,0
107834,-100,4,1,1,60,0,0
107918,-100,4,2,1,60,0,0
110501,-100,4,1,1,60,0,0
110584,-100,4,2,1,60,0,0
111167,-100,4,1,1,60,0,0
111251,-100,4,2,1,60,0,0
111834,-100,4,1,1,60,0,0
111917,-100,4,2,1,60,0,0
112500,-100,4,1,1,60,0,0
112584,-100,4,2,1,60,0,0
113834,-100,4,1,1,60,0,0
113917,-100,4,2,1,60,0,0
114500,-100,4,1,1,60,0,0
114583,-100,4,2,1,60,0,0
119750,-100,4,2,2,40,0,0
120666,-153.846153846153,4,2,1,50,0,0
122833,-153.846153846153,4,1,1,50,0,0
122916,-153.846153846153,4,2,1,50,0,0
124166,-153.846153846153,4,1,1,50,0,0
124249,-153.846153846153,4,2,1,50,0,0
128332,-153.846153846153,4,2,1,30,0,0
128665,-153.846153846153,4,2,1,60,0,0
129165,-153.846153846153,4,1,1,40,0,0
130665,-153.846153846153,4,2,2,40,0,0
131498,-100,4,2,1,80,0,0
131665,-100,4,2,1,30,0,0
136831,-100,4,2,1,70,0,0
150330,-100,4,2,1,20,0,0
152829,-153.846153846153,4,1,0,40,0,0
152996,-153.846153846153,4,2,1,40,0,0
163161,-153.846153846153,4,2,1,30,0,0
163328,-153.846153846153,4,2,1,40,0,0
168328,-153.846153846153,4,2,1,30,0,0
168661,-153.846153846153,4,2,1,70,0,0
171327,-100,4,2,2,90,0,0
172494,-100,4,2,0,80,0,0
172660,-100,4,2,1,80,0,0
174160,-100,4,2,1,70,0,1
174327,-100,4,2,1,70,0,0
175827,-100,4,1,1,70,0,0
175910,-100,4,2,1,70,0,0
178493,-100,4,1,1,70,0,0
178576,-100,4,2,1,70,0,0
179826,-100,4,1,1,70,0,0
179910,-100,4,2,1,70,0,0
180493,-100,4,1,1,70,0,0
180576,-100,4,2,1,70,0,0
183326,-100,4,2,1,30,0,0
184826,-100,4,2,1,70,0,1
184992,-100,4,2,1,70,0,0
185826,-100,4,1,1,70,0,0
185909,-100,4,2,1,70,0,0
186492,-100,4,1,1,70,0,0
186575,-100,4,2,1,70,0,0
187825,-100,4,1,1,70,0,0
187909,-100,4,2,1,70,0,0
188492,-100,4,1,1,70,0,0
188575,-100,4,2,1,70,0,0
190492,-100,4,1,1,70,0,0
190575,-100,4,2,1,70,0,0
191158,-100,4,1,1,70,0,0
191242,-100,4,2,1,70,0,0
192825,-100,4,2,1,30,0,0
195491,-100,4,2,1,70,0,1
195658,-100,4,2,1,70,0,0
196491,-100,4,1,1,70,0,0
196574,-100,4,2,1,70,0,0
199824,-100,4,1,1,70,0,0
199907,-100,4,2,1,70,0,0
200491,-100,4,1,1,70,0,0
200574,-100,4,2,1,70,0,0
204823,-100,4,1,0,60,0,0
205490,-100,4,1,0,70,0,0
206157,-100,4,2,1,70,0,1
206490,-100,4,1,1,70,0,0
206573,-100,4,2,1,70,0,0
207157,-100,4,1,1,70,0,0
207240,-100,4,2,1,70,0,0
208823,-100,4,1,1,70,0,0
208906,-100,4,2,1,70,0,0
209156,-100,4,1,1,70,0,0
209240,-100,4,2,1,70,0,0
209490,-100,4,1,1,70,0,0
209573,-100,4,2,1,70,0,0
210156,-100,4,1,1,70,0,0
210240,-100,4,2,1,70,0,0
210490,-100,4,1,1,70,0,0
210573,-100,4,2,1,70,0,0
210823,-100,4,1,1,70,0,0
210906,-100,4,2,1,70,0,0
211156,-100,4,2,1,70,0,0
211823,-100,4,1,1,70,0,0
211906,-100,4,2,1,70,0,0
212489,-100,4,1,1,70,0,0
212573,-100,4,2,1,70,0,0
214156,-100,4,2,2,30,0,0
216822,-100,4,2,1,70,0,0
221655,-100,4,2,1,40,0,0
221988,-100,4,2,1,70,0,0
222322,-100,4,2,1,30,0,0
224155,-100,4,2,1,70,0,0
224821,-100,4,2,1,70,0,1
224988,-100,4,2,1,70,0,0
225821,-100,4,1,1,70,0,0
225904,-100,4,2,1,70,0,0
226488,-100,4,1,1,70,0,0
226571,-100,4,2,1,70,0,0
227821,-100,4,1,1,70,0,0
227904,-100,4,2,1,70,0,0
228488,-100,4,1,1,70,0,0
228571,-100,4,2,1,70,0,0
231154,-100,4,1,1,70,0,0
231237,-100,4,2,1,70,0,0
232154,-100,4,2,2,50,0,0
232820,-100,4,2,1,70,0,0

[Colours]
Combo1 : 111,111,255
Combo2 : 255,255,255
Combo3 : 255,170,255
Combo4 : 191,128,128

[HitObjects]
96,192,3512,1,2
188,192,4179,1,0
264,244,4846,1,0
264,336,5512,1,0
344,288,6179,6,0,B|400:268|416:224,1,90.9999983727932
340,180,7512,2,0,B|360:144|360:108|344:88,2,90.9999983727932
248,176,9512,5,0
204,188,9845,1,0
176,224,10178,2,0,B|156:268|160:296,2,68.2499987795949
176,224,11512,1,4
116,192,19511,5,4
256,192,19677,12,4,22177
120,252,30176,6,0,B|200:252,1,70,8|0
236,252,30676,2,0,B|280:256|320:224|320:192,1,105,8|8
268,124,31509,1,0
224,124,31676,2,0,B|120:124,1,105,8|8
56,188,32509,1,8
56,280,32843,5,4
136,236,33176,2,0,B|180:216|236:220|288:240|320:272|328:296,2,210,8|0|8
112,148,35509,1,4
172,80,35842,2,0,B|212:56|252:60|288:76|308:92,2,140,8|8|8
200,168,37509,2,0,B|200:248,1,70,0|8
260,308,38175,5,4
336,260,38509,1,8
432,104,39175,1,8
256,56,39842,1,8
208,132,40175,1,0
120,152,40508,1,8
120,244,40842,6,0,B|132:288|184:312|224:316|244:304,1,140,4|0
280,228,41842,2,0,B|300:184|364:172|416:200,2,140,8|8|8
220,160,43508,6,0,B|192:112|112:112|64:164|60:232|88:264|128:284,2,280,4|0|4
248,248,46508,1,8
308,180,46841,2,0,B|456:180,2,140
260,100,48508,1,8
172,72,48841,5,4
104,132,49174,1,8
188,292,49841,1,8
364,248,50507,1,8
364,248,51174,1,8
440,196,51507,5,4
440,104,51840,1,8
364,52,52174,2,0,B|312:56|280:88|276:104,2,105,4|4|8
364,52,53507,1,8
460,208,54174,1,4
96,192,59506,5,4
180,240,60173,1,0
276,240,60839,1,0
356,296,61506,1,2
356,296,61839,1,2
256,192,62173,12,4,64839
152,192,65506,5,0
232,144,65839,2,0,B|280:136|332:164|348:228|328:264|304:292,1,210,8|0
220,304,67172,1,8
128,304,67505,2,0,B|48:304,2,70,0|8|0
176,228,68505,1,8
140,144,68839,2,0,B|140:96|184:64|260:56|288:88|300:120,1,210,0|8
296,204,70172,6,0,B|296:348,2,140,4|0|0
384,176,71838,1,8
440,104,72172,1,0
348,92,72505,2,0,B|320:64|276:64,1,70,8|0
248,148,73171,2,0,B|188:152|172:180,1,70,8|0
256,192,73838,12,4,75505
336,104,76171,2,0,B|308:60|196:76|208:112|212:148|164:188|116:188|92:176,1,280
116,88,77838,1,8
116,88,78171,2,0,B|172:96|208:148|208:204|184:256,2,210,0|8|0
68,164,80504,1,8
68,256,80837,6,0,B|60:292|84:340|128:352|152:352,1,140,4|0
236,324,81837,1,8
296,256,82170,2,0,B|312:216|352:192|400:188|424:188,1,140
464,264,83170,1,8
256,192,83504,12,4,86170
256,192,91169,5,4
256,192,91503,1,4
256,192,91669,12,4,94169
304,168,99169,5,4
304,168,99502,5,4
392,140,99835,2,0,B|412:184|408:240|388:292|356:324|332:332,2,210,8|0|8
304,164,102168,1,4
220,132,102501,2,0,B|196:172|200:212|216:248|232:268,2,140,8|8|8
304,164,104168,2,0,B|320:128|364:112,1,70,0|8
392,196,104834,5,4
324,256,105168,1,8
144,256,105834,1,8
324,256,106501,1,8
268,184,106834,1,0
180,164,107167,1,8
244,100,107501,6,0,B|256:56|308:32|348:28|368:40,1,140,4|0
332,124,108501,2,0,B|368:176|364:232|360:260,2,140,8|8|8
408,72,110167,6,0,B|384:36|344:24|316:16|252:36|232:76|224:128|252:168,2,280,4|0|4
332,124,113167,1,8
408,172,113500,2,0,B|408:320,2,140
320,200,115167,1,8
228,200,115500,5,4
152,148,115833,1,8
320,80,116500,1,8
456,200,117166,1,8
292,280,117833,1,8
200,280,118166,5,4
160,196,118499,1,8
108,272,118833,2,0,B|76:304|80:348,2,70,0|8|0
160,196,119833,1,8
236,144,120166,1,8
420,148,120833,5,4
348,216,121499,1,8
260,172,122166,1,0
212,172,122499,6,0,B|156:176|124:224|128:264,2,136.49999755919
264,172,124832,1,0
340,236,125499,1,8
256,292,126166,6,0,B|160:292,2,90.9999983727932,0|8|0
340,344,128165,1,8
392,324,128499,1,4
416,276,128832,1,4
416,220,129165,2,0,B|416:120,1,90.9999983727932
368,96,130165,5,0
312,76,130498,1,0
256,92,130832,1,2
200,72,131165,1,2
144,92,131498,1,4
256,192,131832,12,4,136831
256,192,150163,5,4
256,192,150330,12,4,152829
120,192,153496,5,2
204,124,154162,1,0
312,124,154829,1,2
392,192,155496,1,0
388,300,156162,2,0,B|336:284|296:292,1,90.9999983727932,2|0
244,300,157162,1,0
196,328,157495,1,2
140,232,158162,5,0
200,140,158829,2,0,B|228:104|272:92|284:92,2,90.9999983727932,2|0|2
248,236,160828,5,0
304,236,161162,1,0
352,212,161495,1,0
380,168,161828,1,0
376,112,162162,1,2
212,112,163161,5,0
212,112,163495,2,0,B|160:128|140:168,2,90.9999983727932,0|8|0
256,212,165495,1,8
340,284,166161,1,0
440,240,166828,1,8
404,136,167494,5,0
356,112,167828,1,0
308,136,168161,1,8
260,108,168494,1,4
212,136,168827,1,4
120,268,170161,5,0
108,176,170494,1,0
164,104,170827,1,0
164,104,171161,1,8
256,152,171494,6,0,B|292:132|344:156|352:188,1,105,8|8
252,260,172494,2,0,B|216:280|212:328,2,70,4|0|0
180,204,173494,1,0
204,116,173827,1,0
272,56,174160,5,4
364,56,174494,1,8
392,144,174827,1,0
324,204,175160,2,0,B|332:252|312:304|240:320|196:308|176:276,1,210,8|0
232,208,176493,1,8
172,140,176826,2,0,B|92:140,2,70,0|8|0
232,72,177826,1,8
296,140,178160,2,0,B|344:140|380:180|384:256|352:288|320:300,1,210,0|8
244,260,179493,6,0,B|100:260,2,140,4|0|0
304,192,181159,1,8
336,276,181493,1,0
396,208,181826,2,0,B|424:180|424:136,1,70,8|0
340,108,182492,2,0,B|336:48|308:32,2,70,8|0|8
256,192,183326,12,4,184826
164,128,185492,6,0,B|140:184|156:244|192:292|244:312|292:316|324:304,1,280
332,220,187159,1,8
396,156,187492,2,0,B|436:184|428:248|416:272|392:292,2,140
320,104,189159,2,0,B|240:104,1,70,8|0
192,172,189825,1,8
144,248,190158,6,0,B|176:292|268:292|268:272|288:220|344:208|400:232,1,280,4|0
356,312,191825,2,0,B|392:336|432:324|452:316|472:296|476:272,1,140,8|8
256,192,192825,12,4,195491
172,148,196158,6,0,B|204:172|208:232|192:292|136:308|104:304,1,210,0|8
104,212,197491,1,0
104,212,197824,1,8
76,124,198158,2,0,B|80:84|116:56,2,70,0|8|0
104,212,199157,1,8
164,144,199491,2,0,B|200:104|280:116|328:140|356:208|348:248|336:268,1,280,0|4
252,232,201157,6,0,B|100:232,2,140,8|8|8
300,156,202824,2,0,B|376:156,2,70,0|8|0
232,96,203824,5,8
232,96,204157,1,0
148,132,204490,1,8
148,132,204823,1,0
108,212,205157,1,0
108,212,205490,1,0
108,304,205823,1,0
188,260,206157,6,0,B|336:260,2,140,4|8|8
152,176,207823,1,8
184,92,208156,1,8
276,96,208490,2,0,B|332:100|372:136|408:212|392:256|368:308|352:312,2,280,8|8|8
228,172,211489,6,0,B|180:192|160:256|164:296,2,140,4|0|0
284,244,213156,1,8
460,192,213822,1,8
256,192,214156,12,4,216822
256,192,221822,5,4
256,192,222155,1,4
256,192,222322,12,2,224155
208,144,224821,5,4
208,144,225155,2,0,B|188:180|200:244|264:268|332:276|332:216|356:172|440:188|496:240|472:296|456:336,1,420,8|8
368,308,227488,2,0,B|308:344|240:336|204:320|184:312|160:296|140:264|132:244|128:224,1,280,4|0
124,144,229154,1,8
176,68,229487,1,0
268,56,229821,1,8
308,136,230154,6,0,B|344:176|344:208,1,70,4|8
252,216,230821,2,0,B|264:260|232:316|176:312,1,140,0|4
156,224,231820,1,8
156,224,232154,1,2
156,224,232487,1,2
156,224,232820,1,4
