osu file format v12

[General]
AudioFilename: Gekka.mp3
AudioLeadIn: 0
PreviewTime: 45176
Countdown: 0
SampleSet: Soft
StackLeniency: 0.7
Mode: 0
LetterboxInBreaks: 1

[Editor]
Bookmarks: 60873,66455,72036
DistanceSpacing: 2
BeatDivisor: 3
GridSize: 4

[Metadata]
Title:Gekka
TitleUnicode:月花
Artist:nano.RIPE
ArtistUnicode:nano.RIPE
Creator:hoLysoup
Version:Hard
Source:Hataraku Maou-sama!
Tags:はたらく魔王さま! ending
BeatmapID:271881
BeatmapSetID:103094

[Difficulty]
HPDrainRate:5
CircleSize:4
OverallDifficulty:6
ApproachRate:7
SliderMultiplier:1.2
SliderTickRate:1

[Events]
//Background and Video events
0,0,"CHIHO.jpg",0,0
//Break Periods
2,11887,21950
//Storyboard Layer 0 (Background)
//Storyboard Layer 1 (Fail)
//Storyboard Layer 2 (Pass)
//Storyboard Layer 3 (Foreground)
//Storyboard Sound Samples
//Background Colour Transformations
3,100,163,162,255

[TimingPoints]
525,348.837209302326,4,2,1,50,1,0
10176,-100,4,2,1,30,0,0
10408,-100,4,2,1,50,0,0
11600,-100,4,2,1,50,0,0
45088,-133.333333333333,4,2,1,40,0,0
45292,-133.333333333333,4,2,1,50,0,0
56338,-133.333333333333,4,2,1,40,0,0
56455,-133.333333333333,4,2,1,50,0,0
68083,-133.333333333333,4,2,2,50,0,0
70176,-133.333333333333,4,2,1,35,0,0
70408,-133.333333333333,4,2,2,50,0,0
75873,-133.333333333333,4,2,1,35,0,0
77181,-200,4,2,1,5,0,0
78431,-200,4,2,1,50,0,0
78664,-100,4,2,1,70,0,1
84129,-100,4,2,1,50,0,1
84362,-100,4,2,1,70,0,1
89129,-100,4,2,1,40,0,1
89827,-100,4,2,1,70,0,1
99478,-100,4,2,1,55,0,1
100292,-100,4,2,1,30,0,1
100990,-100,4,2,1,50,0,0
103664,-100,4,2,1,40,0,0
103897,-100,4,2,1,55,0,0
106571,-100,4,2,1,45,0,0
106687,-100,4,2,1,55,0,0
111455,-100,4,2,1,40,0,0
112152,-100,4,2,1,55,0,0
114943,-100,4,2,1,45,0,0
115059,-100,4,2,1,55,0,0
117734,-100,4,2,1,45,0,0
117850,-100,4,2,1,55,0,0

[Colours]
Combo1 : 240,81,81
Combo2 : 174,251,203
Combo3 : 175,210,254
Combo4 : 252,247,184

[HitObjects]
148,112,8897,1,2,0:0:0:0:
176,300,9594,1,8,0:0:0:0:
364,272,10292,1,2,0:0:0:0:
336,84,10989,1,8,0:0:0:0:
256,192,11687,5,4,0:0:0:0:
112,124,22850,6,0,B|84:176|88:244|88:244,2,120,4|0|8,0:0|0:0|0:0,0:0:0:0:
308,148,23897,2,0,L|388:140,1,80
424,152,24245,2,0,P|424:188|432:232,1,80,2|0,0:0|0:0,0:0:0:0:
424,272,24594,2,0,P|380:304|308:300,2,120,2|8|0,0:0|0:0|0:0,0:0:0:0:
372,88,25641,5,2,0:0:0:0:
304,188,25990,1,0,0:0:0:0:
200,128,26338,1,8,0:0:0:0:
268,28,26687,1,0,0:0:0:0:
372,88,27036,6,0,P|388:128|392:168,1,80,2|0,0:0|0:0,0:0:0:0:
404,204,27385,2,0,L|316:212,1,80,2|0,0:0|0:0,0:0:0:0:
284,204,27734,2,0,P|272:268|280:336,2,120,8|0|2,0:0|0:0|0:0,0:0:0:0:
184,92,28780,5,0,0:0:0:0:
72,188,29129,1,8,0:0:0:0:
172,300,29478,1,0,0:0:0:0:
284,204,29827,2,0,P|320:196|368:192,1,80,2|0,0:0|0:0,0:0:0:0:
404,204,30176,2,0,P|412:248|404:288,1,80,2|0,0:0|0:0,0:0:0:0:
368,288,30525,2,0,L|244:284,1,120,8|0,0:0|0:0,0:0:0:0:
96,208,31222,6,0,L|88:80,2,120,2|0|8,0:0|0:0|0:0,0:0:0:0:
200,328,32269,2,0,L|280:320,1,80
316,300,32618,2,0,B|332:256|312:220|312:220,1,80,2|0,0:0|0:0,0:0:0:0:
300,184,32966,2,0,L|220:192,1,80,2|0,0:0|0:0,0:0:0:0:
184,180,33315,2,0,B|185:182|165:146|181:102,1,80,8|0,0:0|0:0,0:0:0:0:
204,72,33664,2,0,L|336:60,1,120,2|4,0:0|0:0,0:0:0:0:
436,160,34362,5,0,0:0:0:0:
360,280,34711,1,8,0:0:0:0:
228,204,35059,2,0,P|184:208|148:204,1,80
116,180,35408,2,0,P|72:176|36:180,1,80,2|0,0:0|0:0,0:0:0:0:
12,212,35757,2,0,L|20:332,2,120,2|8|0,0:0|0:0|0:0,0:0:0:0:
76,56,36804,5,2,0:0:0:0:
132,204,37152,1,0,0:0:0:0:
204,68,37501,1,8,0:0:0:0:
272,200,37850,2,0,P|280:236|276:284,1,80
276,320,38199,2,0,P|312:308|356:312,1,80,2|0,0:0|0:0,0:0:0:0:
396,304,38548,2,0,P|388:260|404:184,2,120,2|8|0,0:0|0:0|0:0,0:0:0:0:
264,148,39594,6,0,P|272:192|256:268,2,120,2|0|8,0:0|0:0|0:0,0:0:0:0:
128,68,40641,2,0,L|132:148,1,80
92,156,40990,2,0,L|132:232,1,80,2|0,0:0|0:0,0:0:0:0:
100,256,41338,2,0,L|216:284,2,120,2|8|0,0:0|0:0|0:0,0:0:0:0:
256,160,42385,6,0,L|380:148,1,120,2|0,0:0|0:0,0:0:0:0:
344,312,43083,2,0,L|220:324,1,120,8|0,0:0|0:0,0:0:0:0:
116,224,43780,2,0,P|108:184|112:144,1,80,2|0,0:0|0:0,0:0:0:0:
136,112,44129,2,0,P|176:100|212:108,1,80,8|0,0:0|0:0,0:0:0:0:
236,140,44478,2,0,L|240:264,2,120,2|2|4,0:0|0:0|0:0,0:0:0:0:
372,80,45525,6,0,P|404:68|440:64,1,60.0000022888184
464,84,45873,2,0,L|472:184,1,90.0000034332277,8|0,0:0|0:0,0:0:0:0:
404,272,46571,2,0,P|356:288|304:272,2,90.0000034332277,2|2|8,0:0|0:0|0:0,0:0:0:0:
384,156,47618,1,0,0:0:0:0:
384,156,47966,6,0,L|320:148,1,60.0000022888184,2|0,0:0|0:0,0:0:0:0:
296,124,48315,2,0,L|232:132,1,60.0000022888184
200,120,48664,2,0,L|180:212,1,90.0000034332277,8|0,0:0|0:0,0:0:0:0:
244,324,49362,5,2,0:0:0:0:
372,256,49711,1,2,0:0:0:0:
204,180,50059,1,8,0:0:0:0:
332,112,50408,1,0,0:0:0:0:
204,180,50757,6,0,L|136:184,1,60.0000022888184,2|0,0:0|0:0,0:0:0:0:
112,204,51106,2,0,L|52:188,1,60.0000022888184
28,216,51455,2,0,P|20:268|32:324,1,90.0000034332277,8|0,0:0|0:0,0:0:0:0:
200,268,52152,6,0,P|208:216|202:179,1,90.0000034332277,2|2,0:0|0:0,0:0:0:0:
372,244,52850,2,0,P|366:280|374:332,2,90.0000034332277,8|0|2,0:0|0:0|0:0,0:0:0:0:
444,148,53897,2,0,P|440:116|432:80,1,60.0000022888184
400,72,54245,2,0,L|336:64,1,60.0000022888184,8|0,0:0|0:0,0:0:0:0:
304,84,54594,1,0,0:0:0:0:
96,64,54943,6,0,L|100:132,1,60.0000022888184,2|0,0:0|0:0,0:0:0:0:
136,148,55292,2,0,P|164:144|196:152,1,60.0000022888184,2|0,0:0|0:0,0:0:0:0:
200,196,55641,2,0,P|192:228|192:264,1,60.0000022888184,8|0,0:0|0:0,0:0:0:0:
196,296,55990,2,0,P|244:300|292:288,1,90.0000034332277,2|4,0:0|0:0,0:0:0:0:
428,192,56687,6,0,L|432:128,1,60.0000022888184
424,92,57036,2,0,P|384:72|332:72,1,90.0000034332277,8|0,0:0|0:0,0:0:0:0:
196,120,57734,2,0,B|172:84|184:32|184:32,2,90.0000034332277,2|2|8,0:0|0:0|0:0,0:0:0:0:
320,180,58780,1,0,0:0:0:0:
320,180,59129,6,0,L|316:240,1,60.0000022888184,2|0,0:0|0:0,0:0:0:0:
336,272,59478,2,0,L|300:328,1,60.0000022888184
276,348,59827,2,0,P|228:360|176:344,1,90.0000034332277,8|0,0:0|0:0,0:0:0:0:
140,248,60525,5,2,0:0:0:0:
64,324,60873,1,2,0:0:0:0:
240,288,61222,1,8,0:0:0:0:
112,148,61571,1,0,0:0:0:0:
140,248,61920,6,0,P|168:240|196:220,1,60.0000022888184,2|0,0:0|0:0,0:0:0:0:
236,208,62269,2,0,P|268:208|300:216,1,60.0000022888184
320,248,62618,2,0,P|328:296|324:336,1,90.0000034332277,8|0,0:0|0:0,0:0:0:0:
472,268,63315,1,2,0:0:0:0:
400,136,63664,1,2,0:0:0:0:
268,200,64013,1,8,0:0:0:0:
340,332,64362,6,0,P|296:348|244:340,1,90.0000034332277,0|2,0:0|0:0,0:0:0:0:
124,304,65059,2,0,P|81:299|37:315,2,90.0000034332277,0|8|0,0:0|0:0|0:0,0:0:0:0:
212,216,66106,2,0,L|216:156,1,60.0000022888184,2|0,0:0|0:0,0:0:0:0:
180,136,66455,2,0,L|204:80,1,60.0000022888184,2|0,0:0|0:0,0:0:0:0:
192,44,66804,2,0,P|240:32|296:44,2,90.0000034332277,8|0|4,0:0|0:0|0:0,0:0:0:0:
52,160,68199,6,0,L|40:224,1,60.0000022888184
32,256,68548,2,0,L|104:256,1,60.0000022888184,8|0,0:0|0:0,0:0:0:0:
124,236,68897,2,0,L|128:328,1,90.0000034332277
276,244,69594,2,0,L|272:152,1,90.0000034332277,0|8,0:0|0:0,0:0:0:0:
432,220,70292,5,6,0:0:0:0:
432,220,70641,2,0,L|436:288,1,60.0000022888184
420,316,70990,2,0,P|388:324|356:320,1,60.0000022888184
324,308,71338,2,0,B|280:288|236:308|236:308,1,90.0000034332277,8|2,0:0|0:0,0:0:0:0:
160,220,72036,2,0,B|116:240|72:220|72:220,2,90.0000034332277,2|8|4,0:0|0:0|3:0,0:0:0:0:
256,96,73083,6,0,P|292:68|344:68,1,90.0000034332277,4|0,0:0|0:0,0:0:0:0:
412,172,73780,2,0,P|376:200|324:200,1,90.0000034332277,8|0,0:0|0:0,0:0:0:0:
192,184,74478,2,0,P|148:186|112:214,1,90.0000034332277,2|0,0:0|0:0,0:0:0:0:
212,320,75176,2,0,P|255:317|291:289,1,90.0000034332277,8|0,0:0|0:0,0:0:0:0:
336,172,75873,6,8,L|365:166,3,30.0000011444092
180,172,76571,2,8,L|150:166,3,30.0000011444092
256,92,77269,6,0,B|268:152|244:152|256:224,1,120
254,211,78664,6,0,P|260:248|248:292,1,80,6|0,0:0|0:0,0:0:0:0:
228,316,79013,2,0,L|148:312,1,80,0|0,0:0|0:0,0:0:0:0:
120,284,79362,2,0,P|108:224|120:160,1,120,8|0,0:0|0:0,0:0:0:0:
192,72,80059,1,2,0:0:0:0:
336,104,80408,1,2,0:0:0:0:
300,256,80757,1,8,0:0:0:0:
156,224,81106,1,0,0:0:0:0:
192,72,81455,6,0,P|152:64|112:68,1,80,2|0,0:0|0:0,0:0:0:0:
76,84,81804,2,0,P|56:120|56:160,1,80,0|0,0:0|0:0,0:0:0:0:
76,192,82152,2,0,P|80:256|68:324,1,120,8|0,0:0|0:0,0:0:0:0:
224,248,82850,1,2,0:0:0:0:
224,248,83199,2,0,P|220:184|232:116,2,120,2|8|0,0:0|0:0|0:0,0:0:0:0:
364,356,84245,6,0,P|376:316|376:276,1,80,6|0,0:0|0:0,0:0:0:0:
364,240,84594,2,0,P|404:244|444:240,1,80
480,224,84943,2,0,B|492:168|464:132|464:132|472:96,1,120,8|0,0:0|0:0,0:0:0:0:
344,56,85641,1,2,0:0:0:0:
216,124,85990,1,2,0:0:0:0:
336,176,86338,1,8,0:0:0:0:
208,244,86687,1,0,0:0:0:0:
208,244,87036,6,0,P|168:240|128:248,1,80,2|0,0:0|0:0,0:0:0:0:
92,256,87385,2,0,L|88:176,1,80
120,152,87734,2,0,P|160:156|200:148,1,80,8|0,0:0|0:0,0:0:0:0:
232,128,88083,2,0,L|228:48,1,80
264,32,88431,2,0,P|316:24|392:40,1,120,2|0,0:0|0:0,0:0:0:0:
408,188,89129,6,8,L|452:176,2,40
452,260,89478,2,8,L|448:300,2,40
372,264,89827,6,0,P|336:276|280:272,1,80,6|0,0:0|0:0,0:0:0:0:
256,260,90176,2,0,P|216:252|176:264,1,80
148,288,90525,2,0,P|88:304|32:288,1,120,8|0,0:0|0:0,0:0:0:0:
32,152,91222,2,0,P|92:136|148:152,1,120,2|2,0:0|0:0,0:0:0:0:
272,232,91920,2,0,P|326:247|386:231,1,120,8|0,0:0|0:0,0:0:0:0:
408,92,92618,6,0,P|368:80|328:84,1,80,2|0,0:0|0:0,0:0:0:0:
296,104,92966,2,0,B|252:112|216:92|216:92,1,80
180,76,93315,2,0,P|116:60|52:84,1,120,8|0,0:0|0:0,0:0:0:0:
60,224,94013,2,0,P|124:240|188:216,1,120,2|2,0:0|0:0,0:0:0:0:
324,196,94711,2,0,P|374:181|438:197,2,120,8|0|6,0:0|0:0|0:0,0:0:0:0:
236,284,95757,6,0,P|200:296|160:288,1,80,2|0,0:0|0:0,0:0:0:0:
128,264,96106,2,0,L|120:140,1,120,8|0,0:0|0:0,0:0:0:0:
256,68,96804,6,0,P|296:60|336:64,1,80,2|0,0:0|0:0,0:0:0:0:
372,80,97152,2,0,L|376:160,1,80
360,196,97501,2,0,P|320:204|280:200,1,80,8|0,0:0|0:0,0:0:0:0:
240,204,97850,2,0,L|236:284,1,80
216,320,98199,6,0,P|156:336|88:316,1,120,2|8,0:0|0:0,0:0:0:0:
124,208,98897,2,0,P|184:192|252:212,1,120,8|0,0:0|0:0,0:0:0:0:
432,252,99594,2,0,P|372:268|304:248,1,120,8|8,0:0|0:0,0:0:0:0:
340,140,100292,2,0,P|400:124|468:144,1,120,8|8,0:0|0:0,0:0:0:0:
256,192,100990,12,4,103780,0:0:0:0:
204,276,104129,5,0,0:0:0:0:
75,178,104478,1,8,0:0:0:0:
232,120,104827,2,0,P|236:80|228:40,1,80
192,24,105176,2,0,P|144:24|108:32,1,80,2|0,0:0|0:0,0:0:0:0:
84,60,105525,2,0,P|72:124|76:184,1,120,2|8,0:0|0:0,0:0:0:0:
148,332,106222,1,0,0:0:0:0:
148,332,106571,6,0,P|200:348|272:336,1,120,6|0,0:0|0:0,0:0:0:0:
276,196,107269,2,0,P|224:180|152:192,1,120,8|0,0:0|0:0,0:0:0:0:
36,240,107966,2,0,B|28:200|32:160,1,80,2|0,0:0|0:0,0:0:0:0:
52,124,108315,2,0,P|92:128|132:120,1,80,2|0,0:0|0:0,0:0:0:0:
164,144,108664,2,0,P|220:128|284:148,1,120,8|0,0:0|0:0,0:0:0:0:
276,304,109362,6,0,P|220:320|156:300,2,120,2|0|8,0:0|0:0|0:0,0:0:0:0:
428,224,110408,2,0,L|432:144,1,80
416,108,110757,2,0,P|376:96|336:104,1,80,2|0,0:0|0:0,0:0:0:0:
308,128,111106,2,0,L|304:208,1,80,2|0,0:0|0:0,0:0:0:0:
264,276,111455,6,8,L|275:314,2,40
188,240,111804,2,8,L|196:200,2,40
136,304,112152,6,0,P|68:320|8:304,1,120,6|0,0:0|0:0,0:0:0:0:
12,148,112850,2,0,P|80:132|140:148,1,120,8|0,0:0|0:0,0:0:0:0:
288,188,113548,2,0,L|368:196,1,80,2|0,0:0|0:0,0:0:0:0:
404,212,113897,2,0,P|412:256|404:292,1,80,2|0,0:0|0:0,0:0:0:0:
376,320,114245,2,0,P|328:336|252:320,1,120,8|0,0:0|0:0,0:0:0:0:
148,288,114943,5,6,0:0:0:0:
256,136,115292,1,0,0:0:0:0:
72,132,115641,1,8,0:0:0:0:
148,288,115990,2,0,P|188:288|232:272,1,80
260,252,116338,2,0,P|300:244|340:256,1,80,2|0,0:0|0:0,0:0:0:0:
356,292,116687,2,0,B|408:332|476:312|476:312,2,120,2|8|0,0:0|0:0|0:0,0:0:0:0:
184,204,117734,6,0,P|160:148|176:88,1,120,6|0,0:0|0:0,0:0:0:0:
348,80,118431,2,0,P|372:136|356:196,1,120,8|0,0:0|0:0,0:0:0:0:
276,316,119129,2,0,L|196:340,1,80,2|0,0:0|0:0,0:0:0:0:
164,360,119478,2,0,L|84:336,1,80,2|0,0:0|0:0,0:0:0:0:
48,332,119827,2,0,P|40:288|48:248,1,80,8|0,0:0|0:0,0:0:0:0:
60,216,120176,2,0,P|65:181|57:137,1,80
60,96,120525,6,0,P|112:80|184:88,1,120,2|0,0:0|0:0,0:0:0:0:
336,116,121222,1,8,0:0:0:0:
336,116,121571,2,0,L|344:196,1,80,8|0,0:0|0:0,0:0:0:0:
344,268,121920,2,0,B|300:284|256:276|256:276,1,80,2|0,0:0|0:0,0:0:0:0:
192,284,122269,2,0,L|184:204,1,80,2|0,0:0|0:0,0:0:0:0:
184,132,122618,2,0,B|228:116|272:124|272:124,1,80,8|0,0:0|0:0,0:0:0:0:
336,116,122966,6,0,P|388:128|456:112,1,120,2|4,0:0|0:0,0:0:0:0:
